osu file format v14

[General]
AudioFilename: audio.mp3
AudioLeadIn: 0
PreviewTime: 44970
Countdown: 0
SampleSet: Soft
StackLeniency: 0.4
Mode: 0
LetterboxInBreaks: 0
WidescreenStoryboard: 1

[Editor]
Bookmarks: 1845,16245,23445,30645,45040,59445,73840,88240
DistanceSpacing: 1.7
BeatDivisor: 4
GridSize: 32
TimelineZoom: 2.1

[Metadata]
Title:Blackout (Cut Ver.)
TitleUnicode:Blackout (Cut Ver.)
Artist:Rocket Sister
ArtistUnicode:Rocket Sister
Creator:Maiev
Version:Kerupt's Expert
Source:
Tags:rock english russian band pop-metal fcl akitoshi corinn daycore Kerupt metal pop metalcore rocketsister -laura-
BeatmapID:2534736
BeatmapSetID:1070184

[Difficulty]
HPDrainRate:5.5
CircleSize:4
OverallDifficulty:8.5
ApproachRate:9.4
SliderMultiplier:1.6
SliderTickRate:1

[Events]
//Background and Video events
0,0,"peW0FGI9sQc.jpg",0,0
//Break Periods
//Storyboard Layer 0 (Background)
//Storyboard Layer 1 (Fail)
//Storyboard Layer 2 (Pass)
//Storyboard Layer 3 (Foreground)
//Storyboard Layer 4 (Overlay)
//Storyboard Sound Samples

[TimingPoints]
1845,300,3,2,1,75,1,0
1995,-166.666666666667,3,2,1,75,0,0
2745,-200,3,2,1,75,0,0
4845,-166.666666666667,3,2,1,75,0,0
7245,-100,3,2,1,75,0,0
9195,-166.666666666667,3,2,1,75,0,0
14445,-166.666666666667,3,2,1,80,0,0
14745,-100,3,2,1,80,0,0
16545,-83.3333333333333,3,2,1,80,0,0
23445,-125,3,2,1,75,0,0
25245,-111.111111111111,3,2,1,75,0,0
30645,-111.111111111111,3,2,1,65,0,0
31020,-111.111111111111,3,2,1,5,0,0
31095,-111.111111111111,3,2,1,65,0,0
31320,-111.111111111111,3,2,1,5,0,0
31395,-111.111111111111,3,2,1,65,0,0
33345,-200,3,2,1,65,0,0
34170,-200,3,2,1,5,0,0
34245,-200,3,2,1,65,0,0
34395,-125,3,2,1,65,0,0
35970,-125,3,2,1,5,0,0
36045,-125,3,2,1,65,0,0
40545,-200,3,2,1,65,0,0
41370,-200,3,2,1,5,0,0
41445,-200,3,2,1,65,0,0
41595,-125,3,2,1,65,0,0
44145,-200,3,2,1,65,0,0
44970,-200,3,2,1,5,0,0
45045,-200,3,2,1,90,0,1
45345,-76.9230769230769,3,2,1,90,0,1
47745,-166.666666666667,3,2,1,90,0,1
48345,-76.9230769230769,3,2,1,90,0,1
50370,-76.9230769230769,3,2,1,5,0,1
50445,-76.9230769230769,3,2,1,90,0,1
54945,-166.666666666667,3,2,1,90,0,1
55470,-166.666666666667,3,2,1,5,0,1
55545,-76.9230769230769,3,2,1,90,0,1
58545,-76.9230769230769,3,2,1,90,0,0
59445,-100,3,2,1,75,0,0
65745,-83.3333333333333,3,2,1,75,0,0
66645,-100,3,2,1,75,0,0
72945,-1000,3,2,1,75,0,0
73770,-1000,3,2,1,5,0,0
73845,-83.3333333333333,3,2,1,85,0,0
88395,-100,3,2,1,85,0,0
91095,-100,3,2,1,83,0,0
91245,-100,3,2,1,79,0,0
91395,-100,3,2,1,76,0,0
91545,-100,3,2,1,73,0,0
91695,-100,3,2,1,70,0,0
91845,-100,3,2,1,67,0,0
91995,-111.111111111111,3,2,1,64,0,0
92145,-111.111111111111,3,2,1,61,0,0
92295,-111.111111111111,3,2,1,58,0,0
92445,-142.857142857143,3,2,1,55,0,0
92595,-142.857142857143,3,2,1,52,0,0
92745,-142.857142857143,3,2,1,50,0,0
92895,-166.666666666667,3,2,1,50,0,0

[Colours]
Combo1 : 255,159,159
Combo2 : 151,247,249
Combo3 : 255,188,155
Combo4 : 206,169,243
Combo5 : 243,237,156

[HitObjects]
261,195,1845,5,10,3:2:0:0:
319,268,1995,2,0,B|313:309|313:309|299:325|299:325|294:366,2,96.1599970703126,2|2|2,3:2|3:2|3:2,0:0:0:0:
400,213,2745,2,0,P|310:233|261:195,1,160,8|2,3:2|2:3,0:0:0:0:
336,151,3645,5,0,3:3:0:0:
474,174,4095,1,0,3:0:0:0:
336,151,4395,1,0,3:0:0:0:
512,105,4545,1,10,3:2:0:0:
474,174,4845,2,0,L|480:210,4,24.0799992675781,2|0|2|0|2,2:3|0:0|0:0|0:0|2:3,0:0:0:0:
497,285,5445,5,2,3:2:0:0:
336,255,5595,1,2,3:2:0:0:
336,255,5895,2,0,P|320:301|335:346,1,96.3199970703126,2|2,3:2|3:2,0:0:0:0:
497,285,6345,2,0,L|402:301,1,96.3199970703126,8|2,3:2|0:3,0:0:0:0:
334,344,6795,2,0,L|239:360,1,96.3199970703126,0|0,0:0|0:0,0:0:0:0:
132,323,7245,6,0,B|157:353|157:353|180:226,1,160,2|2,3:2|2:2,0:0:0:0:
0,158,7695,2,0,P|54:193|145:157,1,160,2|0,3:2|3:0,0:0:0:0:
201,100,8145,1,10,3:2:0:0:
201,100,8295,1,0,0:0:0:0:
88,35,8445,2,0,L|72:123,1,80,2|2,2:3|0:0,0:0:0:0:
139,164,8745,2,0,L|124:242,1,80,2|0,2:3|0:0,0:0:0:0:
239,360,9045,5,2,3:2:0:0:
201,100,9195,2,0,L|269:112,1,48.3199985351563,2|0,3:2|2:2,0:0:0:0:
349,182,9495,2,0,L|281:170,1,48.3199985351563,2|2,3:2|0:0,0:0:0:0:
403,79,9795,1,2,3:2:0:0:
449,255,9945,1,10,3:2:0:0:
449,255,10845,5,0,3:3:0:0:
476,117,11295,1,0,3:0:0:0:
449,255,11595,1,0,3:0:0:0:
403,79,11745,1,8,3:2:0:0:
476,117,12045,2,0,L|512:110,4,24.0799992675781,2|0|0|0|2,2:3|0:0|0:0|0:0|2:3,0:0:0:0:
184,160,12645,5,2,3:2:0:0:
324,138,12795,2,0,L|314:185,1,48.3199985351563,2|0,3:2|2:2,0:0:0:0:
235,81,13095,2,0,L|242:33,1,48.3199985351563,2|0,3:2|2:2,0:0:0:0:
404,223,13395,1,2,3:2:0:0:
401,65,13545,2,0,P|300:35|227:95,1,192.319994140625,8|2,3:2|2:3,0:0:0:0:
328,251,14445,5,6,3:2:0:0:
176,154,14595,1,0,3:2:0:0:
324,138,14745,2,0,L|310:216,1,80,0|2,3:2|3:2,0:0:0:0:
235,81,15045,2,0,L|248:2,1,80,0|0,3:0|3:0,0:0:0:0:
328,251,15345,5,10,0:2:0:0:
176,154,15495,1,0,3:0:0:0:
394,35,15645,2,0,L|473:49,1,80,0|2,3:0|3:2,0:0:0:0:
402,151,15945,2,0,L|324:138,1,80,0|0,3:0|3:0,0:0:0:0:
408,337,16245,5,4,3:2:0:0:
408,337,16395,1,0,3:0:0:0:
320,384,16545,2,0,P|308:340|318:290,1,96.6399970703126,2|0,3:2|3:0,0:0:0:0:
402,151,16845,2,0,P|414:195|404:245,1,96.6399970703126,2|0,3:2|3:0,0:0:0:0:
240,203,17145,5,8,0:0:0:0:
240,203,17295,1,0,3:0:0:0:
408,337,17445,2,0,P|454:346|500:334,1,96.6399970703126,2|0,3:2|3:0,0:0:0:0:
332,200,17745,2,0,P|285:190|239:202,1,96.6399970703126,2|0,3:2|3:0,0:0:0:0:
288,310,18045,5,0,3:0:0:0:
288,310,18195,1,0,3:0:0:0:
402,151,18345,2,0,P|414:197|404:243,1,96.6399970703126,2|0,3:2|3:0,0:0:0:0:
184,139,18645,2,0,P|174:92|186:46,1,96.6399970703126,2|0,3:2|3:0,0:0:0:0:
306,98,18945,5,8,0:0:0:0:
306,98,19095,1,0,3:0:0:0:
404,243,19245,2,0,P|450:252|496:240,1,96.6399970703126,2|0,3:2|3:0,0:0:0:0:
352,16,19545,2,0,P|305:3|259:13,1,96.6399970703126,2|0,3:2|3:0,0:0:0:0:
184,139,19845,5,0,3:0:0:0:
184,139,19995,1,0,3:0:0:0:
306,98,20145,2,0,P|318:144|308:190,1,96.6399970703126,2|0,3:2|3:0,0:0:0:0:
122,360,20445,2,0,P|112:313|124:267,1,96.6399970703126,2|0,3:2|3:0,0:0:0:0:
242,320,20745,5,8,0:0:0:0:
242,320,20895,1,0,3:0:0:0:
394,93,21045,2,0,P|347:83|301:95,1,96.6399970703126,2|0,3:2|3:0,0:0:0:0:
242,320,21345,2,0,P|288:332|334:322,1,96.6399970703126,2|0,3:2|3:0,0:0:0:0:
294,222,21645,5,0,3:0:0:0:
294,222,21795,1,0,3:0:0:0:
280,255,21945,1,2,3:2:0:0:
338,240,22095,1,0,3:0:0:0:
254,201,22245,1,2,3:2:0:0:
310,339,22395,1,0,3:0:0:0:
345,139,22545,5,10,0:2:0:0:
136,205,22695,1,8,3:2:0:0:
338,240,22845,5,10,3:3:0:0:
116,202,22995,1,8,3:2:0:0:
363,137,23145,5,8,3:3:0:0:
310,339,23295,1,4,3:0:0:0:
206,25,23445,6,0,P|182:73|204:155,1,128,0|2,3:0|0:0,0:0:0:0:
310,339,24045,5,2,0:0:0:0:
310,339,24195,1,0,0:0:0:0:
338,240,24345,2,0,B|385:231|385:231|411:243|411:243|482:230,1,128,8|2,0:0|0:0,0:0:0:0:
287,95,24945,5,2,0:0:0:0:
287,95,25095,1,0,0:0:0:0:
194,142,25245,2,0,P|225:208|206:281,1,143.999995605469,0|2,3:0|0:0,0:0:0:0:
131,345,25845,5,2,0:0:0:0:
131,345,25995,1,2,0:0:0:0:
302,265,26145,2,0,L|459:292,1,144.479995605469,8|2,0:0|0:0,0:0:0:0:
505,354,26745,5,2,0:0:0:0:
505,354,26895,1,0,0:0:0:0:
366,188,27045,2,0,L|379:109,1,72.4799978027344,0|0,3:0|0:0,0:0:0:0:
456,219,27345,2,0,L|443:289,1,72.4799978027344,2|0,0:0|0:0,0:0:0:0:
334,352,27645,5,2,0:0:0:0:
334,352,27795,1,2,0:0:0:0:
257,280,27945,2,0,L|162:296,1,72.4799978027344,8|0,0:0|0:0,0:0:0:0:
295,175,28245,2,0,L|389:191,1,72.4799978027344,2|0,0:0|0:0,0:0:0:0:
427,110,28545,5,2,0:0:0:0:
427,110,28695,1,2,0:0:0:0:
295,175,28845,2,0,L|311:80,1,72.4799978027344,0|0,3:0|0:0,0:0:0:0:
456,219,29145,2,0,L|443:289,1,72.4799978027344,2|0,0:0|0:0,0:0:0:0:
334,352,29445,5,2,0:0:0:0:
334,352,29595,1,0,0:0:0:0:
76,334,29745,5,8,0:0:0:0:
337,195,29895,1,8,0:0:0:0:
61,155,30045,1,8,0:0:0:0:
291,360,30195,1,8,0:0:0:0:
211,85,30345,1,8,0:0:0:0:
76,334,30495,1,8,0:0:0:0:
337,195,30645,5,0,3:0:0:0:
337,195,30795,2,0,L|210:217,1,108.479996704102,0|0,3:0|0:0,0:0:0:0:
203,221,31095,2,0,P|230:278|208:332,1,108.479996704102,0|0,3:0|0:0,0:0:0:0:
149,278,31395,1,0,3:0:0:0:
291,360,31545,2,0,L|363:347,1,72.4799978027344,10|0,3:2|0:0,0:0:0:0:
149,278,31845,2,0,L|76:265,1,72.4799978027344,0|0,0:0|0:0,0:0:0:0:
249,159,32145,2,0,L|321:146,1,72.4799978027344,0|0,0:0|0:0,0:0:0:0:
420,191,32445,5,2,3:2:0:0:
420,191,32595,2,0,P|426:107|483:85,2,144.239995605469,0|0|0,3:0|3:0|3:0,0:0:0:0:
512,250,33345,2,0,P|413:212|333:285,1,220,10|0,3:2|0:0,0:0:0:0:
316,364,34245,5,0,3:0:0:0:
316,364,34395,2,0,L|379:352,1,64,0|0,3:0|0:0,0:0:0:0:
263,305,34695,2,0,L|130:328,1,128,0|0,3:0|3:0,0:0:0:0:
52,349,35145,1,8,3:2:0:0:
0,276,35445,2,0,L|63:264,1,64,0|0,0:0|0:0,0:0:0:0:
81,103,35745,2,0,P|69:150|89:196,1,96,2|0,0:2|0:0,0:0:0:0:
141,248,36045,5,2,3:2:0:0:
164,146,36195,1,0,3:0:0:0:
306,310,36345,2,0,L|242:298,1,64,2|0,0:2|3:0,0:0:0:0:
395,268,36645,2,0,L|458:279,1,64,2|0,0:2|3:0,0:0:0:0:
372,380,36945,1,8,3:2:0:0:
418,164,37095,2,0,L|345:176,1,64,0|0,3:0|0:0,0:0:0:0:
228,198,37395,1,0,3:0:0:0:
306,310,37545,1,0,0:0:0:0:
380,83,37695,1,0,0:0:0:0:
147,133,37845,5,0,3:0:0:0:
147,133,37995,2,0,P|125:67|164:5,2,128,0|0|0,3:0|3:0|3:0,0:0:0:0:
270,63,38745,2,0,L|206:74,1,64,8|0,3:2|0:0,0:0:0:0:
73,226,39045,2,0,L|136:214,1,64,0|0,0:0|0:0,0:0:0:0:
270,63,39345,2,0,L|206:74,1,64,0|0,0:0|0:0,0:0:0:0:
228,202,39645,5,2,3:2:0:0:
228,202,39795,2,0,P|252:259|229:317,1,128,0|0,3:0|3:0,0:0:0:0:
178,383,40395,5,0,3:0:0:0:
229,317,40545,2,0,B|181:283|117:320|117:320|62:352|14:315,1,220,10|0,3:2|0:0,0:0:0:0:
70,250,41445,5,0,3:0:0:0:
70,250,41595,2,0,L|81:182,1,64,0|2,3:0|0:2,0:0:0:0:
150,258,41895,2,0,L|125:397,1,128,0|0,3:0|3:0,0:0:0:0:
229,317,42345,1,8,3:2:0:0:
37,274,42645,6,0,P|88:240|148:257,1,128,2|2,0:2|0:2,0:0:0:0:
239,325,43095,1,0,3:0:0:0:
239,325,43170,1,0,3:0:0:0:
239,325,43245,1,10,3:2:0:0:
286,161,43395,1,8,3:2:0:0:
284,175,43695,5,10,3:2:0:0:
282,189,43995,5,8,3:2:0:0:
108,221,44145,6,0,B|164:190|222:229|196:254|261:303|318:259,1,220,10|0,3:2|0:0,0:0:0:0:
336,248,45045,5,4,3:2:0:0:
321,120,45195,1,0,0:0:0:0:
321,120,45270,1,0,0:0:0:0:
321,120,45345,2,0,L|440:140,1,104.693328572591,2|0,0:0|0:0,0:0:0:0:
336,248,45645,1,2,3:2:0:0:
264,40,45795,1,0,0:0:0:0:
151,151,45945,2,0,P|95:164|31:130,2,104.346661905925,8|0|2,3:2|3:0|0:0,0:0:0:0:
103,72,46395,1,0,3:0:0:0:
34,253,46545,2,0,L|52:357,1,104.693328572591,2|0,0:0|3:0,0:0:0:0:
207,276,46845,6,0,L|155:267,3,52.2311087307401,2|0|0|0,3:2|0:0|0:0|0:0,0:0:0:0:
200,380,47145,2,0,L|251:370,3,52.2311087307401,2|0|0|0,0:0|0:0|0:0|0:0,0:0:0:0:
345,316,47445,1,2,3:2:0:0:
365,316,47520,1,2,0:2:0:0:
373,335,47595,1,2,0:2:0:0:
363,356,47670,1,2,0:2:0:0:
344,365,47745,6,0,B|333:330|345:291|361:306|372:260|372:260|358:223,1,144.319995605469,8|0,3:2|0:0,0:0:0:0:
333,209,48345,2,0,L|440:227,1,104.693328572591,2|0,3:2|0:0,0:0:0:0:
206,275,48645,5,0,3:2:0:0:
221,147,48795,1,0,0:0:0:0:
221,147,48870,1,0,0:0:0:0:
221,147,48945,2,0,L|102:167,1,104.693328572591,2|0,0:0|0:0,0:0:0:0:
206,275,49245,1,2,3:2:0:0:
298,54,49395,1,0,0:0:0:0:
164,74,49545,2,0,L|57:92,1,104.693328572591,8|0,3:2|3:0,0:0:0:0:
206,275,49845,2,0,L|308:257,1,104.693328572591,2|0,0:0|3:0,0:0:0:0:
356,54,50145,2,0,P|311:113|357:202,1,156.69332619222,2|0,0:0|0:0,0:0:0:0:
391,242,50445,5,0,3:0:0:0:
404,132,50595,1,0,0:0:0:0:
206,275,50745,2,0,L|224:377,1,104.693328572591,2|0,0:0|0:0,0:0:0:0:
404,132,51045,2,0,L|387:29,1,104.693328572591,2|0,3:2|0:0,0:0:0:0:
119,213,51345,5,8,3:2:0:0:
231,168,51495,1,0,3:0:0:0:
104,219,51645,1,2,0:0:0:0:
317,309,51795,1,8,0:0:0:0:
213,375,51945,2,0,P|198:308|220:247,1,104.693328572591,2|0,3:2|0:0,0:0:0:0:
319,58,52245,5,0,3:2:0:0:
334,186,52395,1,0,0:0:0:0:
334,186,52470,1,0,0:0:0:0:
334,186,52545,2,0,L|215:166,1,104.693328572591,2|0,0:0|0:0,0:0:0:0:
410,124,52845,2,0,L|529:144,1,104.693328572591,2|0,3:2|0:0,0:0:0:0:
426,349,53145,2,0,P|410:299|424:250,2,104.346661905925,8|0|2,3:2|3:0|0:0,0:0:0:0:
511,299,53595,1,0,3:0:0:0:
334,186,53745,1,2,0:0:0:0:
512,141,53895,1,0,3:0:0:0:
319,58,54045,6,0,L|384:69,3,52.2311087307401,2|0|0|0,3:2|0:0|0:0|0:0,0:0:0:0:
232,91,54345,2,0,L|166:79,3,52.2311087307401,2|0|0|0,0:0|0:0|0:0|0:0,0:0:0:0:
299,134,54645,1,2,3:2:0:0:
310,157,54720,1,2,0:2:0:0:
312,182,54795,1,2,0:2:0:0:
308,208,54870,1,2,0:2:0:0:
294,231,54945,6,0,B|244:240|244:240|211:217|211:217|199:235|205:220|205:220|131:234,1,167.999994873047,8|0,3:2|0:0,0:0:0:0:
89,319,55545,2,0,L|196:300,1,104.693328572591,2|0,3:2|0:0,0:0:0:0:
131,140,55845,5,0,3:2:0:0:
85,337,55995,1,0,0:0:0:0:
85,337,56070,1,0,0:0:0:0:
85,337,56145,2,0,L|208:315,1,104.693328572591,2|0,0:0|0:0,0:0:0:0:
291,187,56445,2,0,L|188:205,1,104.693328572591,2|0,3:2|0:0,0:0:0:0:
295,328,56745,1,8,3:2:0:0:
377,138,56895,1,0,3:0:0:0:
507,357,57045,2,0,P|520:298|496:246,1,104.693328572591,2|0,0:0|3:0,0:0:0:0:
292,88,57345,2,0,P|277:137|290:186,1,104.693328572591,10|0,0:0|3:0,0:0:0:0:
377,138,57645,5,2,0:0:0:0:
131,140,57795,1,0,3:0:0:0:
295,328,57945,1,8,0:0:0:0:
292,88,58095,1,0,3:0:0:0:
191,261,58245,1,2,3:2:0:0:
377,138,58395,1,0,3:0:0:0:
181,26,58545,1,10,3:2:0:0:
85,164,59445,6,0,B|114:218|100:270|100:270|77:258|58:330|97:385,1,240,4|8,3:2|0:3,0:0:0:0:
165,343,60045,2,0,B|201:311|255:324|255:324,1,80,4|0,0:3|3:0,0:0:0:0:
442,259,60345,2,0,B|366:303|271:241|271:241,1,160,12|0,0:0|0:0,0:0:0:0:
215,198,60795,1,8,0:3:0:0:
251,98,60945,2,0,B|272:143|256:182|256:182,1,80,4|8,0:3|0:3,0:0:0:0:
131,53,61245,2,0,B|290:33|200:125|382:64,1,240,4|8,3:2|0:3,0:0:0:0:
452,20,61845,1,4,0:3:0:0:
504,83,61995,1,0,3:0:0:0:
453,154,62145,2,0,B|427:179|362:151|362:151,2,80,12|0|8,0:0|0:0|0:3,0:0:0:0:
295,290,62895,5,8,0:3:0:0:
283,294,63045,2,0,B|267:236|306:181|371:189|445:233|390:311|353:308,1,240,4|8,3:2|0:3,0:0:0:0:
335,374,63645,2,0,B|378:384|425:366|425:366,1,80,4|0,0:3|3:0,0:0:0:0:
494,337,63945,1,12,0:0:0:0:
264,253,64395,2,0,B|221:243|184:286|184:286,1,80,8|4,0:3|0:3,0:0:0:0:
170,375,64695,1,8,0:3:0:0:
187,384,64845,2,0,B|295:322|171:140|171:140,1,240,4|8,3:2|0:3,0:0:0:0:
152,80,65445,1,4,0:3:0:0:
85,148,65595,1,0,3:0:0:0:
283,50,65745,6,0,L|386:68,1,96.6399970703126,12|0,0:0|0:0,0:0:0:0:
119,239,66045,6,0,L|86:149,1,96.6399970703126,12|0,0:0|0:0,0:0:0:0:
365,286,66345,6,0,L|303:359,1,96.6399970703126,12|0,0:0|0:0,0:0:0:0:
277,184,66645,6,0,B|324:208|324:208|414:177|371:220|447:247|510:192,1,240,4|8,3:2|0:3,0:0:0:0:
443,133,67245,2,0,B|419:100|440:47|440:47,1,80,4|0,0:3|3:0,0:0:0:0:
502,20,67545,2,0,B|343:96|255:39|255:39,1,240,12|8,0:0|0:3,0:0:0:0:
175,12,68145,1,4,0:3:0:0:
260,58,68295,1,8,0:3:0:0:
167,33,68445,2,0,B|140:123|104:145|47:138|15:101|21:56|70:30,1,240,4|8,3:2|0:3,0:0:0:0:
169,132,69045,2,0,B|195:173|164:226|164:226,1,80,4|0,0:3|3:0,0:0:0:0:
114,271,69345,1,12,0:0:0:0:
101,266,69645,2,0,B|127:210|206:204|209:249|286:298|340:258|340:258,1,240,8|8,0:3|0:3,0:0:0:0:
193,354,70245,6,0,B|225:259|319:266|386:315|328:378|272:378,1,240,4|8,3:2|0:3,0:0:0:0:
228,274,70845,2,0,B|202:233|233:180|233:180,1,80,4|0,0:3|3:0,0:0:0:0:
182,66,71145,2,0,B|310:34|275:131|428:75,1,240,12|8,0:0|0:3,0:0:0:0:
464,7,71745,2,0,B|437:49|456:89|456:89,1,80,4|8,0:3|0:3,0:0:0:0:
485,98,72045,1,4,3:2:0:0:
372,293,72495,1,8,0:3:0:0:
393,384,72645,2,0,B|420:342|401:302|401:302,1,80,4|0,0:3|3:0,0:0:0:0:
195,273,72945,6,0,L|151:280,1,44,8|0,0:0|0:0,0:0:0:0:
122,239,73845,6,0,L|106:334,2,96.3199970703126,10|0|8,3:2|3:0|0:0,0:0:0:0:
77,172,74295,2,0,B|128:143|184:163|161:182|220:203|262:176,1,192.639994140625,2|0,3:2|3:0,0:0:0:0:
230,14,74745,2,0,P|214:58|223:105,1,96.6399970703126,10|0,0:2|0:0,0:0:0:0:
167,170,75045,2,0,P|212:186|259:177,1,96.6399970703126,10|0,0:0|0:0,0:0:0:0:
323,232,75345,2,0,P|338:187|329:140,1,96.6399970703126,10|0,0:0|0:0,0:0:0:0:
300,66,75645,5,10,0:0:0:0:
424,124,75795,2,0,L|330:140,2,96.3199970703126,0|8|2,0:0|0:0|0:0,0:0:0:0:
512,209,76245,2,0,L|418:225,1,96.6399970703126,8|0,0:0|0:0,0:0:0:0:
343,333,76545,1,10,3:2:0:0:
339,308,76620,2,0,P|339:270|347:242,1,48.6399985351563,0|0,3:0|3:0,0:0:0:0:
462,305,76845,1,10,3:2:0:0:
466,330,76920,2,0,P|466:368|458:396,1,48.6399985351563,0|0,3:0|3:0,0:0:0:0:
230,384,77145,1,10,3:2:0:0:
226,359,77220,2,0,P|226:321|234:293,1,48.6399985351563,0|0,3:0|3:0,0:0:0:0:
512,209,77445,5,10,3:2:0:0:
512,209,77520,1,0,3:0:0:0:
512,209,77595,2,0,L|418:225,1,96.6399970703126,0|8,3:0|0:0,0:0:0:0:
390,8,77895,2,0,P|417:114|360:164,1,192.639994140625,2|0,3:2|3:0,0:0:0:0:
244,60,78345,2,0,P|292:57|335:78,1,96.6399970703126,10|0,0:2|0:0,0:0:0:0:
425,93,78645,2,0,P|403:135|364:162,1,96.6399970703126,10|0,0:0|0:0,0:0:0:0:
299,232,78945,2,0,P|272:192|269:144,1,96.6399970703126,10|0,0:0|0:0,0:0:0:0:
334,77,79245,5,10,0:2:0:0:
172,123,79395,1,0,3:0:0:0:
299,232,79545,5,8,0:0:0:0:
103,189,79695,1,2,3:2:0:0:
268,145,79845,5,8,0:0:0:0:
328,344,79995,1,0,3:0:0:0:
177,285,80145,5,10,0:2:0:0:
390,277,80295,1,0,3:0:0:0:
172,123,80445,5,10,0:2:0:0:
328,344,80595,1,0,3:0:0:0:
363,72,80745,5,10,0:2:0:0:
177,285,80895,1,0,3:0:0:0:
425,212,81045,6,0,B|445:249|445:249|288:223,1,192.639994140625,10|8,3:2|0:0,0:0:0:0:
268,145,81495,1,2,3:2:0:0:
363,72,81645,2,0,P|382:114|369:160,1,96.6399970703126,8|0,0:0|3:0,0:0:0:0:
85,107,81945,2,0,L|192:125,1,96.6399970703126,10|0,0:2|0:0,0:0:0:0:
445,250,82245,2,0,L|337:231,1,96.6399970703126,10|0,0:0|0:0,0:0:0:0:
268,55,82545,2,0,L|375:73,1,96.6399970703126,10|0,0:0|0:0,0:0:0:0:
278,378,82845,6,0,B|307:327|287:271|268:294|247:235|274:193,1,192.639994140625,10|8,0:0|0:0,0:0:0:0:
143,286,83295,1,2,0:0:0:0:
209,327,83445,2,0,L|101:308,1,96.6399970703126,8|0,0:0|0:0,0:0:0:0:
66,219,83745,1,10,3:2:0:0:
70,196,83820,2,0,L|80:132,1,48.6399985351563,0|0,3:0|3:0,0:0:0:0:
285,124,84045,1,10,3:2:0:0:
281,147,84120,2,0,L|270:211,1,48.6399985351563,0|0,3:0|3:0,0:0:0:0:
143,286,84345,1,10,3:2:0:0:
147,263,84420,2,0,L|158:199,1,48.6399985351563,0|0,3:0|3:0,0:0:0:0:
160,384,84645,5,10,3:2:0:0:
160,384,84720,1,0,3:0:0:0:
160,384,84795,2,0,L|178:276,1,96.6399970703126,2|8,3:2|0:0,0:0:0:0:
285,163,85095,2,0,L|250:353,1,192.639994140625,0|0,3:0|3:0,0:0:0:0:
176,289,85545,2,0,L|68:307,1,96.6399970703126,10|0,0:0|0:0,0:0:0:0:
285,163,85845,2,0,L|392:181,1,96.6399970703126,10|0,0:0|0:0,0:0:0:0:
146,39,86145,2,0,L|38:57,1,96.6399970703126,10|0,0:0|0:0,0:0:0:0:
176,289,86445,5,10,0:2:0:0:
195,125,86595,1,0,3:0:0:0:
314,347,86745,5,8,0:0:0:0:
290,185,86895,1,2,3:2:0:0:
150,296,87045,5,8,0:0:0:0:
377,260,87195,1,0,3:0:0:0:
102,198,87345,5,10,0:2:0:0:
314,347,87495,1,0,3:0:0:0:
195,125,87645,5,10,0:2:0:0:
214,384,87795,1,0,3:0:0:0:
290,185,87945,5,10,0:2:0:0:
150,296,88095,1,0,3:0:0:0:
392,333,88245,5,0,3:0:0:0:
392,333,88395,2,0,L|296:348,1,80,0|2,3:0|3:2,0:0:0:0:
413,223,88695,1,2,3:2:0:0:
469,297,88845,2,0,P|476:340|453:392,1,80,2|0,3:2|3:0,0:0:0:0:
313,346,89145,1,8,3:2:0:0:
260,274,89295,2,0,P|253:231|275:178,1,80,0|2,3:0|3:2,0:0:0:0:
416,145,89595,1,0,3:0:0:0:
416,145,89745,2,0,P|423:188|400:240,1,80,2|0,3:2|3:0,0:0:0:0:
227,117,90045,5,0,3:0:0:0:
285,66,90195,2,0,L|376:82,1,80,0|2,3:0|3:2,0:0:0:0:
263,196,90495,1,2,3:2:0:0:
205,145,90645,2,0,L|113:161,1,80,2|0,3:2|3:0,0:0:0:0:
77,25,90945,1,8,3:2:0:0:
77,25,91095,2,0,P|84:68|61:120,1,80,0|2,3:0|3:2,0:0:0:0:
16,256,91395,2,0,P|9:213|31:160,2,80,0|2|0,3:0|3:2|3:0,0:0:0:0:
67,330,91845,5,2,3:2:0:0:
114,259,91995,2,0,L|193:273,1,72.4799978027344,0|2,3:0|3:2,0:0:0:0:
212,360,92295,1,2,3:2:0:0:
212,360,92445,2,0,L|141:347,1,56.373331624349,2|0,3:2|3:0,0:0:0:0:
264,236,92745,1,8,3:2:0:0:
334,281,92895,2,0,P|339:304|336:327,1,48.3199985351563,0|2,3:0|3:2,0:0:0:0:
247,219,93195,2,0,P|243:195|249:172,1,48.3199985351563,0|2,3:0|3:2,0:0:0:0:
315,123,93495,1,0,3:0:0:0:
383,166,93645,1,2,3:2:0:0:
