osu file format v14

[General]
AudioFilename: audio.mp3
AudioLeadIn: 0
PreviewTime: 66107
Countdown: 1
SampleSet: Soft
StackLeniency: 0.2
Mode: 0
LetterboxInBreaks: 0
WidescreenStoryboard: 0

[Editor]
Bookmarks: 32016,53834,68379,97470,121107,135652,164743,181107,210197
DistanceSpacing: 1.1
BeatDivisor: 4
GridSize: 4
TimelineZoom: 2.899999

[Metadata]
Title:Calorie
TitleUnicode:卡路里
Artist:Rocket Girls 101
ArtistUnicode:火箭少女101
Creator:kanor
Version:Forward this Yang Chao Yue
Source:西虹市首富
Tags:Ka Lu Li 火箭少女 Lobelia Sandrew 锦鲤 健身房专用BGM 李聪 Akiyama Sayuri 孟美岐 吴宣仪 杨超越 段奥娟 Yamy 郭颖 赖美云 小七 紫宁 Sunnee 杨芸晴 李紫婷 傅菁 徐梦洁 Mei Qi Meng Wu Wuan Yi Yang Chao Yue Duan Ao Juan Guo Ying Lai Mei Yun Zi Ning Yang Yun Qing Lee Zi Ting Fu Jing Xu Meng Jie
BeatmapID:1747832
BeatmapSetID:834342

[Difficulty]
HPDrainRate:5
CircleSize:4.5
OverallDifficulty:8
ApproachRate:9
SliderMultiplier:1.6
SliderTickRate:1

[Events]
//Background and Video events
0,0,"BG.jpg",0,0
//Break Periods
//Storyboard Layer 0 (Background)
//Storyboard Layer 1 (Fail)
//Storyboard Layer 2 (Pass)
//Storyboard Layer 3 (Foreground)
//Storyboard Sound Samples

[TimingPoints]
1112,454.545454545455,4,2,1,70,1,0
1112,-133.333333333333,4,2,1,70,0,0
17021,-200,4,2,1,70,0,0
17475,-133.333333333333,4,2,2,60,0,0
32021,-133.333333333333,4,2,1,70,0,0
39293,-133.333333333333,4,2,2,60,0,0
53839,-100,4,2,1,70,0,0
57475,-100,4,2,2,70,0,0
61112,-100,4,2,1,70,0,0
68384,-83.3333333333333,4,2,1,80,0,0
97475,-100,4,2,1,70,0,0
106112,-200,4,2,1,70,0,0
106566,-133.333333333333,4,2,2,60,0,0
121112,-100,4,2,1,70,0,0
124748,-100,4,2,2,70,0,0
128384,-100,4,2,1,70,0,0
135657,-83.3333333333333,4,2,1,80,0,0
164748,-83.3333333333333,4,2,1,60,0,0
172021,-83.3333333333333,4,2,1,70,0,0
180657,-100,4,2,1,70,0,0
181112,-83.3333333333333,4,2,1,80,0,0
195657,-200,4,2,1,80,0,0
195998,-200,4,2,1,5,0,0
196112,-83.3333333333333,4,2,1,80,0,0
202930,-200,4,2,1,80,0,0
203271,-200,4,2,1,5,0,0
203384,-83.3333333333333,4,2,1,80,0,0
210202,-83.3333333333333,4,2,1,70,0,0

[Colours]
Combo1 : 192,64,192
Combo2 : 255,64,64
Combo3 : 255,128,64
Combo4 : 255,255,96
Combo5 : 96,255,64
Combo6 : 0,128,255

[HitObjects]
24,76,1112,5,2,0:0:0:0:
104,32,1339,1,2,0:0:0:0:
104,32,1793,2,0,L|100:72,1,30.0000011444092
24,76,2021,5,2,0:0:0:0:
173,89,2248,1,2,0:0:0:0:
173,89,2702,2,0,L|176:60,1,30.0000011444092
24,76,2930,5,2,0:0:0:0:
252,40,3157,1,2,0:0:0:0:
252,40,3612,2,0,L|248:80,1,30.0000011444092
152,160,3839,1,2,0:0:0:0:
152,160,4066,2,0,L|192:164,1,30.0000011444092,2|0,0:0|0:0,0:0:0:0:
348,220,4293,2,0,L|388:224,1,30.0000011444092,2|0,0:0|0:0,0:0:0:0:
248,192,4521,2,0,L|288:196,1,30.0000011444092,2|0,0:0|0:0,0:0:0:0:
440,136,4748,5,2,0:0:0:0:
484,216,4975,1,2,0:0:0:0:
484,216,5430,2,0,L|444:212,1,30.0000011444092
440,136,5657,5,2,0:0:0:0:
426,285,5884,1,2,0:0:0:0:
426,285,6339,2,0,L|456:288,1,30.0000011444092
440,136,6566,5,2,0:0:0:0:
476,364,6793,1,2,0:0:0:0:
476,364,7248,2,0,L|436:360,1,30.0000011444092
352,292,7475,5,2,0:0:0:0:
352,292,7702,2,0,L|354:262,1,30.0000011444092,2|0,0:0|0:0,0:0:0:0:
200,324,7930,2,0,L|202:294,1,30.0000011444092,2|0,0:0|0:0,0:0:0:0:
276,304,8157,2,0,L|278:274,1,30.0000011444092,2|0,0:0|0:0,0:0:0:0:
24,360,8384,5,6,0:0:0:0:
24,360,8612,1,2,0:0:0:0:
24,360,8839,1,10,0:0:0:0:
124,340,9066,2,0,L|128:288,1,30.0000011444092,2|2,0:0|0:0,0:0:0:0:
20,292,9293,5,2,0:0:0:0:
20,292,9521,1,2,0:0:0:0:
20,292,9748,1,10,0:0:0:0:
148,284,9975,2,2,L|152:232,1,30.0000011444092
12,224,10202,5,2,0:0:0:0:
12,224,10430,1,2,0:0:0:0:
12,224,10657,1,10,0:0:0:0:
172,224,10884,2,2,L|176:172,1,30.0000011444092
0,152,11112,5,2,0:0:0:0:
0,152,11339,2,0,L|52:156,1,30.0000011444092,2|0,0:0|0:0,0:0:0:0:
124,116,11566,2,0,L|72:120,1,30.0000011444092,10|0,0:0|0:0,0:0:0:0:
12,60,11793,2,8,L|64:64,1,30.0000011444092,10|8,0:0|0:0,0:0:0:0:
160,16,12021,5,0,0:0:0:0:
256,72,12248,1,0,0:0:0:0:
352,16,12475,1,8,0:0:0:0:
256,72,12702,2,2,L|256:128,1,30.0000011444092
160,16,12930,5,0,0:0:0:0:
256,172,13157,1,0,0:0:0:0:
352,16,13384,1,10,0:0:0:0:
256,172,13612,2,10,L|256:228,1,30.0000011444092
352,256,13839,6,0,P|316:256|284:272,1,60.0000022888184,8|0,0:0|0:0,0:0:0:0:
188,260,14293,2,0,P|211:264|224:272,2,30.0000011444092,8|0|0,0:0|0:0|0:0,0:0:0:0:
336,352,14748,2,0,P|364:362|393:360,1,60.0000022888184,8|0,0:0|0:0,0:0:0:0:
172,348,15202,2,0,P|158:353|143:354,2,30.0000011444092,8|0|0,0:0|0:0|0:0,0:0:0:0:
256,192,15657,12,0,16566,0:0:0:0:
260,384,17021,6,0,B|260:360|260:360|252:344|252:344|256:308,1,60,4|0,0:0|0:0,0:0:0:0:
256,296,17475,6,0,P|284:308|332:304,1,60.0000022888184
444,272,17930,2,0,P|472:260|520:264,1,60.0000022888184,8|0,0:0|0:0,0:0:0:0:
400,352,18384,1,0,0:0:0:0:
400,352,18612,1,0,0:0:0:0:
360,228,18839,2,0,L|368:156,1,60.0000022888184,8|0,0:0|0:0,0:0:0:0:
428,128,19180,1,0,0:0:0:0:
428,128,19293,6,0,P|456:140|504:136,1,60.0000022888184
308,124,19748,2,0,P|280:136|232:132,1,60.0000022888184,8|0,0:0|0:0,0:0:0:0:
366,168,20202,1,0,0:0:0:0:
366,168,20430,1,0,0:0:0:0:
372,16,20657,2,0,L|368:104,1,60.0000022888184,8|0,0:0|0:0,0:0:0:0:
250,136,21112,6,0,P|222:124|174:128,1,60.0000022888184
8,80,21566,2,0,P|36:92|84:88,1,60.0000022888184,8|0,0:0|0:0,0:0:0:0:
152,20,22021,1,0,0:0:0:0:
152,20,22248,1,0,0:0:0:0:
120,152,22475,2,0,L|128:232,1,60.0000022888184,8|0,0:0|0:0,0:0:0:0:
72,268,22816,1,0,0:0:0:0:
72,268,22930,6,0,L|64:348,1,60.0000022888184
12,224,23384,2,0,L|6:164,1,60.0000022888184,8|0,0:0|0:0,0:0:0:0:
0,360,23839,1,0,0:0:0:0:
0,360,24066,1,0,0:0:0:0:
125,211,24293,2,0,P|156:208|201:223,1,60.0000022888184,8|0,0:0|0:0,0:0:0:0:
324,184,24748,5,0,0:0:0:0:
248,168,24975,1,0,0:0:0:0:
372,128,25202,1,8,0:0:0:0:
248,168,25430,1,0,0:0:0:0:
396,256,25657,2,0,P|403:221|388:176,1,60.0000022888184
300,112,26112,1,8,0:0:0:0:
398,197,26339,1,0,0:0:0:0:
398,197,26452,1,0,0:0:0:0:
398,197,26566,6,0,L|474:201,1,60.0000022888184
388,288,27021,2,0,L|312:292,1,60.0000022888184,8|0,0:0|0:0,0:0:0:0:
424,368,27475,2,0,L|500:372,1,60.0000022888184
457,200,27930,1,8,0:0:0:0:
328,291,28157,1,0,0:0:0:0:
328,291,28271,1,0,0:0:0:0:
328,291,28384,6,0,P|336:336|360:360,1,60.0000022888184
168,346,28839,2,0,P|182:320|184:291,1,60.0000022888184,8|0,0:0|0:0,0:0:0:0:
176,224,29180,1,0,0:0:0:0:
176,224,29293,2,0,P|147:232|125:252,1,60.0000022888184
386,252,29748,2,0,P|364:232|336:224,1,60.0000022888184,8|0,0:0|0:0,0:0:0:0:
113,169,30202,6,0,P|122:141|144:120,1,60.0000022888184
367,119,30657,2,0,P|387:140|397:169,1,60.0000022888184,8|0,0:0|0:0,0:0:0:0:
208,28,31112,1,0,0:0:0:0:
256,192,31339,1,0,0:0:0:0:
304,28,31566,1,8,0:0:0:0:
203,116,31793,1,0,0:0:0:0:
203,116,31907,1,0,0:0:0:0:
203,116,32021,6,0,B|174:111|174:111|131:120,1,60.0000022888184,4|0,0:0|0:0,0:0:0:0:
0,68,32475,2,0,B|31:62|31:62|72:72,1,60.0000022888184,8|0,0:0|0:0,0:0:0:0:
76,88,32816,1,0,0:0:0:0:
76,88,32930,1,0,0:0:0:0:
120,0,33157,1,0,0:0:0:0:
16,156,33384,2,0,L|88:160,1,60.0000022888184,8|0,0:0|0:0,0:0:0:0:
92,176,33725,1,0,0:0:0:0:
92,176,33839,5,0,0:0:0:0:
64,72,34066,1,0,0:0:0:0:
32,236,34293,1,8,0:0:0:0:
224,196,34521,1,0,0:0:0:0:
224,196,34634,1,0,0:0:0:0:
224,196,34748,2,0,L|152:200,1,60.0000022888184
108,248,35089,1,0,0:0:0:0:
108,248,35202,2,0,L|104:288,1,30.0000011444092,8|0,0:0|0:0,0:0:0:0:
20,336,35430,2,0,L|56:319,1,30.0000011444092
156,328,35657,6,0,B|176:344|176:344|220:352,1,60.0000022888184
356,328,36112,2,0,B|336:344|336:344|292:352,1,60.0000022888184,8|0,0:0|0:0,0:0:0:0:
280,324,36452,1,0,0:0:0:0:
280,324,36566,1,0,0:0:0:0:
316,204,36793,1,0,0:0:0:0:
412,380,37021,2,0,B|432:364|432:364|476:356,1,60.0000022888184,8|0,0:0|0:0,0:0:0:0:
500,368,37362,1,0,0:0:0:0:
500,368,37475,5,0,0:0:0:0:
488,256,37702,1,0,0:0:0:0:
412,380,37930,1,8,0:0:0:0:
400,232,38157,1,0,0:0:0:0:
400,232,38271,1,0,0:0:0:0:
400,232,38384,2,0,B|408:200|408:200|408:160,1,60.0000022888184
480,156,38725,1,0,0:0:0:0:
480,156,38839,2,0,L|516:136,1,30.0000011444092,8|0,0:0|0:0,0:0:0:0:
484,48,39066,2,0,L|520:68,1,30.0000011444092
408,172,39293,6,0,P|380:160|332:164,1,60.0000022888184,4|0,0:0|0:0,0:0:0:0:
407,24,39748,2,0,P|380:35|350:37,1,60.0000022888184,8|0,0:0|0:0,0:0:0:0:
296,100,40202,1,0,0:0:0:0:
432,100,40430,1,0,0:0:0:0:
296,100,40657,2,0,L|224:92,1,60.0000022888184,8|0,0:0|0:0,0:0:0:0:
168,60,40998,1,0,0:0:0:0:
168,60,41112,6,0,P|164:29|136:-9,1,60.0000022888184
164,132,41566,2,0,P|139:150|119:193,1,60.0000022888184,8|0,0:0|0:0,0:0:0:0:
192,256,42021,1,0,0:0:0:0:
236,93,42248,1,0,0:0:0:0:
192,256,42475,2,0,L|196:168,1,60.0000022888184,8|0,0:0|0:0,0:0:0:0:
4,200,42930,6,0,P|32:212|80:208,1,60.0000022888184
192,256,43384,2,0,P|162:257|134:269,1,60.0000022888184,8|0,0:0|0:0,0:0:0:0:
0,312,43839,1,0,0:0:0:0:
61,212,44066,1,0,0:0:0:0:
0,312,44293,2,0,B|32:304|32:304|80:312,1,60.0000022888184,8|0,0:0|0:0,0:0:0:0:
124,348,44634,1,0,0:0:0:0:
124,348,44748,6,0,B|156:356|156:356|204:348,1,60.0000022888184
186,196,45202,2,0,L|192:256,1,60.0000022888184,8|0,0:0|0:0,0:0:0:0:
186,196,45657,1,0,0:0:0:0:
288,288,45884,1,0,0:0:0:0:
372,232,46112,2,0,L|378:172,1,60.0000022888184,8|0,0:0|0:0,0:0:0:0:
308,60,46566,5,0,0:0:0:0:
292,136,46793,1,0,0:0:0:0:
252,12,47021,1,8,0:0:0:0:
308,60,47248,1,0,0:0:0:0:
136,40,47475,2,0,P|163:51|193:52,1,60.0000022888184
252,12,47930,1,8,0:0:0:0:
72,84,48157,1,0,0:0:0:0:
72,84,48271,1,0,0:0:0:0:
72,84,48384,6,0,P|44:72|14:71,1,60.0000022888184
24,212,48839,2,0,B|16:180|16:180|24:136,1,60.0000022888184,8|0,0:0|0:0,0:0:0:0:
136,120,49180,1,0,0:0:0:0:
136,120,49293,2,0,B|140:146|140:146|132:178,1,60.0000022888184
72,84,49748,1,8,0:0:0:0:
164,248,49975,1,0,0:0:0:0:
164,248,50089,1,0,0:0:0:0:
164,248,50202,6,0,P|209:244|238:261,1,60.0000022888184
348,140,50657,2,0,P|302:143|273:126,1,60.0000022888184,8|0,0:0|0:0,0:0:0:0:
236,96,50998,1,0,0:0:0:0:
236,96,51112,2,0,P|190:92|161:109,1,60.0000022888184
276,288,51566,2,0,P|321:291|350:274,1,60.0000022888184,8|0,0:0|0:0,0:0:0:0:
217,244,52021,5,0,0:0:0:0:
294,139,52248,1,0,0:0:0:0:
276,288,52475,1,8,0:0:0:0:
236,96,52702,1,0,0:0:0:0:
352,188,52930,1,0,0:0:0:0:
160,196,53157,1,0,0:0:0:0:
396,248,53384,2,0,P|408:292|400:320,1,60.0000022888184,8|0,0:0|0:0,0:0:0:0:
499,358,53725,1,0,0:0:0:0:
499,358,53839,6,2,B|429:344|457:389|371:373,1,120,6|2,0:0|0:0,0:0:0:0:
396,248,54293,1,2,0:0:0:0:
383,375,54521,1,2,0:0:0:0:
332,288,54748,1,2,0:0:0:0:
332,288,54862,2,2,P|296:300|252:284,1,80,2|2,0:0|0:0,0:0:0:0:
256,168,55202,1,2,0:0:0:0:
208,348,55430,1,2,0:0:0:0:
36,280,55657,6,2,B|105:266|77:311|163:295,1,120,2|2,0:0|0:0,0:0:0:0:
24,208,56111,1,2,0:0:0:0:
48,348,56339,1,2,0:0:0:0:
136,224,56566,1,2,0:0:0:0:
136,224,56680,2,2,P|148:188|132:144,1,80,2|2,0:0|0:0,0:0:0:0:
0,80,57020,1,2,0:0:0:0:
135,149,57248,1,2,0:0:0:0:
368,60,57475,37,12,0:0:0:0:
240,24,57702,5,0,0:0:0:0:
256,40,57929,1,0,0:0:0:0:
144,60,58156,69,8,0:0:0:0:
272,60,58384,5,0,0:0:0:0:
256,76,58611,1,0,0:0:0:0:
368,60,58838,69,8,0:0:0:0:
240,96,59066,5,0,0:0:0:0:
144,60,59293,69,12,0:0:0:0:
256,112,59520,5,0,0:0:0:0:
272,132,59747,1,0,0:0:0:0:
368,60,59974,69,8,0:0:0:0:
256,148,60202,5,0,0:0:0:0:
240,168,60429,1,0,0:0:0:0:
144,60,60656,69,8,0:0:0:0:
256,184,60884,5,0,0:0:0:0:
368,60,61112,69,12,0:0:0:0:
272,204,61338,5,0,0:0:0:0:
256,220,61566,1,0,0:0:0:0:
144,60,61793,69,8,0:0:0:0:
240,240,62020,5,0,0:0:0:0:
256,256,62247,1,0,0:0:0:0:
368,60,62475,69,8,0:0:0:0:
272,276,62702,5,0,0:0:0:0:
144,60,62929,69,12,0:0:0:0:
256,292,63156,5,0,0:0:0:0:
240,312,63384,1,0,0:0:0:0:
368,60,63612,69,8,0:0:0:0:
256,328,63839,5,0,0:0:0:0:
272,348,64065,1,0,0:0:0:0:
144,60,64293,69,8,0:0:0:0:
256,364,64520,5,0,0:0:0:0:
256,192,64748,12,2,66566,0:0:0:0:
256,364,67475,5,0,0:0:0:0:
256,184,67702,1,8,0:0:0:0:
176,304,67930,2,8,L|232:296,1,40
332,260,68157,2,8,L|276:252,1,40
161,214,68384,6,0,B|181:241|181:241|173:326,1,95.9999970703126,4|2,0:0|0:0,0:0:0:0:
20,332,68839,2,0,B|76:328|52:360|128:348,1,95.9999970703126,8|2,0:0|0:0,0:0:0:0:
180,376,69180,1,0,0:0:0:0:
180,376,69293,1,0,0:0:0:0:
100,280,69521,1,2,0:0:0:0:
224,188,69748,2,0,P|272:180|320:212,1,95.9999970703126,8|2,0:0|0:0,0:0:0:0:
380,236,70089,1,0,0:0:0:0:
380,236,70202,5,0,0:0:0:0:
512,148,70430,1,2,0:0:0:0:
488,288,70657,1,8,0:0:0:0:
392,164,70884,1,2,0:0:0:0:
368,308,71112,1,0,0:0:0:0:
500,220,71339,1,8,0:1:0:0:
408,368,71566,2,0,P|352:376|304:336,1,95.9999970703126,8|2,0:0|0:0,0:0:0:0:
268,308,71907,1,0,0:0:0:0:
268,308,72021,5,0,0:0:0:0:
323,189,72248,1,2,0:0:0:0:
319,357,72475,1,8,0:0:0:0:
216,260,72702,1,2,0:0:0:0:
68,296,72930,2,0,P|110:316|156:306,1,95.9999970703126,0|2,0:0|0:0,0:0:0:0:
360,132,73384,2,0,P|304:124|256:164,1,95.9999970703126,8|2,0:0|0:0,0:0:0:0:
216,188,73725,1,0,0:0:0:0:
216,188,73839,5,0,0:0:0:0:
324,208,74066,1,2,0:0:0:0:
196,120,74293,5,8,0:0:0:0:
324,208,74521,1,2,0:0:0:0:
172,48,74748,5,0,0:0:0:0:
120,248,74975,1,8,0:1:0:0:
8,72,75202,2,0,B|64:60|40:92|120:76,1,95.9999970703126,8|8,0:0|0:0,0:0:0:0:
172,48,75543,1,8,0:0:0:0:
224,0,75657,6,0,B|244:27|244:27|236:112,1,95.9999970703126,4|2,0:0|0:0,0:0:0:0:
312,228,76112,2,0,B|292:200|292:200|300:116,1,95.9999970703126,8|2,0:0|0:0,0:0:0:0:
352,92,76452,1,0,0:0:0:0:
352,92,76566,1,0,0:0:0:0:
480,200,76793,1,2,0:0:0:0:
312,228,77021,2,0,P|360:216|420:236,1,95.9999970703126,8|2,0:0|0:0,0:0:0:0:
464,272,77362,1,0,0:0:0:0:
464,272,77475,5,0,0:0:0:0:
420,144,77702,1,2,0:0:0:0:
360,288,77930,1,8,0:0:0:0:
428,120,78157,1,2,0:0:0:0:
508,328,78384,1,0,0:0:0:0:
356,188,78612,1,8,0:1:0:0:
260,348,78839,2,0,B|284:364|329:353|329:353|284:332,1,95.9999970703126,8|2,0:0|0:0,0:0:0:0:
272,280,79180,1,0,0:0:0:0:
272,280,79293,5,0,0:0:0:0:
120,336,79521,1,2,0:0:0:0:
144,164,79748,1,8,0:0:0:0:
196,304,79975,1,2,0:0:0:0:
44,236,80202,2,0,P|92:228|136:252,1,95.9999970703126,0|2,0:0|0:0,0:0:0:0:
240,92,80657,2,0,P|192:100|148:76,1,95.9999970703126,8|2,0:0|0:0,0:0:0:0:
96,36,80998,1,0,0:0:0:0:
96,36,81112,5,0,0:0:0:0:
208,28,81339,1,2,0:0:0:0:
96,36,81566,5,8,0:0:0:0:
240,92,81793,1,2,0:0:0:0:
96,36,82021,5,0,0:0:0:0:
272,156,82248,1,8,0:1:0:0:
32,80,82475,6,0,L|20:140,1,47.9999985351563,8|0,0:0|0:0,0:0:0:0:
84,256,82702,2,8,L|96:316,1,47.9999985351563
4,192,82930,6,0,B|60:208|40:176|100:188,1,95.9999970703126,4|2,0:0|0:0,0:0:0:0:
124,364,83384,2,0,P|68:368|36:340,1,95.9999970703126,8|2,0:0|0:0,0:0:0:0:
8,280,83725,1,0,0:0:0:0:
8,280,83839,1,0,0:0:0:0:
97,187,84066,1,2,0:0:0:0:
236,308,84293,2,0,B|245:242|245:242|216:264,1,95.9999970703126,8|2,0:0|0:0,0:0:0:0:
164,308,84634,1,0,0:0:0:0:
164,308,84748,5,0,0:0:0:0:
312,304,84975,1,2,0:0:0:0:
152,240,85202,1,8,0:0:0:0:
236,332,85430,1,2,0:0:0:0:
324,232,85657,1,0,0:0:0:0:
236,352,85884,1,8,0:1:0:0:
200,184,86112,2,0,L|208:52,1,95.9999970703126,8|2,0:0|0:0,0:0:0:0:
248,28,86452,1,0,0:0:0:0:
248,28,86566,5,0,0:0:0:0:
128,84,86793,1,2,0:0:0:0:
276,100,87021,1,8,0:0:0:0:
168,24,87248,1,2,0:0:0:0:
110,189,87475,2,0,P|154:201|202:181,1,95.9999970703126,0|2,0:0|0:0,0:0:0:0:
432,128,87930,2,0,P|388:116|340:136,1,95.9999970703126,8|2,0:0|0:0,0:0:0:0:
392,188,88271,1,0,0:0:0:0:
392,188,88384,5,0,0:0:0:0:
472,52,88612,1,2,0:0:0:0:
408,24,88839,5,8,0:0:0:0:
456,224,89066,1,2,0:0:0:0:
388,260,89293,5,0,0:0:0:0:
340,4,89521,1,8,0:1:0:0:
144,168,89748,1,8,0:0:0:0:
264,104,89975,1,8,0:0:0:0:
292,96,90089,1,8,0:0:0:0:
324,88,90202,6,0,L|308:216,1,95.9999970703126,4|2,0:0|0:0,0:0:0:0:
480,304,90657,2,0,B|420:318|439:280|381:287,1,95.9999970703126,8|2,0:0|0:0,0:0:0:0:
324,256,90998,1,0,0:0:0:0:
324,256,91112,1,0,0:0:0:0:
416,156,91339,1,2,0:0:0:0:
384,356,91566,2,0,L|272:344,1,95.9999970703126,8|2,0:0|0:0,0:0:0:0:
252,284,91907,1,0,0:0:0:0:
252,284,92021,5,0,0:0:0:0:
172,152,92248,1,2,0:0:0:0:
100,308,92475,1,8,0:0:0:0:
216,216,92702,1,2,0:0:0:0:
288,345,92930,1,0,0:0:0:0:
156,260,93157,1,8,0:1:0:0:
44,352,93384,2,0,P|92:376|152:352,1,95.9999970703126,8|2,0:0|0:0,0:0:0:0:
208,348,93725,1,0,0:0:0:0:
208,348,93839,5,0,0:0:0:0:
276,168,94066,1,2,0:0:0:0:
344,332,94293,1,8,0:0:0:0:
156,260,94521,1,2,0:0:0:0:
368,244,94748,2,0,B|297:243|297:243|348:260,1,95.9999970703126,0|2,0:0|0:0,0:0:0:0:
488,356,95202,2,0,B|480:304|508:328|492:260,1,95.9999970703126,8|2,0:0|0:0,0:0:0:0:
440,212,95543,1,0,0:0:0:0:
440,212,95657,5,0,0:0:0:0:
488,24,95884,1,2,0:0:0:0:
348,144,96112,1,8,0:0:0:0:
376,140,96225,1,2,0:0:0:0:
404,136,96339,1,2,0:0:0:0:
256,44,96566,5,0,0:0:0:0:
360,224,96793,1,8,0:1:0:0:
364,72,97021,1,8,0:0:0:0:
192,148,97248,1,8,0:0:0:0:
192,148,97362,1,8,0:0:0:0:
192,148,97475,6,0,L|96:136,1,80,4|0,0:0|0:0,0:0:0:0:
156,68,97930,1,8,0:0:0:0:
136,216,98157,1,0,0:0:0:0:
136,216,98271,1,0,0:0:0:0:
136,216,98384,6,0,L|40:204,1,80
112,138,98839,1,8,0:0:0:0:
80,284,99066,1,0,0:0:0:0:
80,284,99180,1,0,0:0:0:0:
80,284,99293,6,0,L|-16:272,1,80
56,206,99748,1,8,0:0:0:0:
116,360,99975,1,0,0:0:0:0:
116,360,100089,1,0,0:0:0:0:
116,360,100202,6,0,B|152:348|152:348|212:356,1,80
256,324,100543,1,0,0:0:0:0:
256,324,100657,2,0,L|252:272,1,40,8|0,0:0|0:0,0:0:0:0:
328,168,100884,2,0,L|331:128,1,40
359,234,101112,6,0,P|320:239|284:224,1,80
240,172,101566,1,8,0:0:0:0:
412,176,101793,1,0,0:0:0:0:
412,176,101907,1,0,0:0:0:0:
412,176,102021,6,0,P|436:207|441:246,1,80
388,300,102475,1,8,0:0:0:0:
328,168,102702,1,0,0:0:0:0:
328,168,102816,1,0,0:0:0:0:
328,168,102930,6,0,P|342:131|374:107,1,80,8|0,0:0|0:0,0:0:0:0:
512,103,103384,2,0,L|460:99,2,40,8|0|0,0:0|0:0|0:0,0:0:0:0:
322,164,103839,2,0,P|290:140|276:104,1,80,8|0,0:0|0:0,0:0:0:0:
352,36,104293,2,0,L|300:40,2,40,8|0|0,0:0|0:0|0:0,0:0:0:0:
256,192,104748,12,0,105657,0:0:0:0:
252,0,106112,6,0,B|252:24|252:24|260:40|260:40|256:76,1,60,4|0,0:0|0:0,0:0:0:0:
256,88,106566,6,0,P|228:76|180:80,1,60.0000022888184
68,112,107021,2,0,P|40:124|-8:120,1,60.0000022888184,8|0,0:0|0:0,0:0:0:0:
152,156,107475,1,0,0:0:0:0:
112,32,107703,1,0,0:0:0:0:
152,156,107930,2,0,L|144:228,1,60.0000022888184,8|0,0:0|0:0,0:0:0:0:
84,256,108271,1,0,0:0:0:0:
84,256,108384,6,0,P|56:244|8:248,1,60.0000022888184
204,260,108839,2,0,P|232:248|280:252,1,60.0000022888184,8|0,0:0|0:0,0:0:0:0:
140,368,109293,1,0,0:0:0:0:
146,216,109521,1,0,0:0:0:0:
140,368,109748,2,0,L|144:280,1,60.0000022888184,8|0,0:0|0:0,0:0:0:0:
262,248,110203,6,0,P|290:260|338:256,1,60.0000022888184
504,304,110657,2,0,P|476:292|428:296,1,60.0000022888184,8|0,0:0|0:0,0:0:0:0:
319,260,111112,1,0,0:0:0:0:
360,364,111339,1,0,0:0:0:0:
392,232,111566,2,0,L|384:152,1,60.0000022888184,8|0,0:0|0:0,0:0:0:0:
440,116,111907,1,0,0:0:0:0:
440,116,112021,6,0,L|448:36,1,60.0000022888184
500,160,112475,2,0,L|506:220,1,60.0000022888184,8|0,0:0|0:0,0:0:0:0:
386,172,112930,1,0,0:0:0:0:
445,56,113157,1,0,0:0:0:0:
387,173,113384,2,0,P|356:176|311:161,1,60.0000022888184,8|0,0:0|0:0,0:0:0:0:
204,324,113839,5,0,0:0:0:0:
220,248,114066,1,0,0:0:0:0:
260,372,114294,1,8,0:0:0:0:
220,248,114521,1,0,0:0:0:0:
376,344,114748,2,0,P|349:333|319:332,1,60.0000022888184
260,372,115203,1,8,0:0:0:0:
440,300,115430,1,0,0:0:0:0:
440,300,115544,1,0,0:0:0:0:
440,300,115657,6,0,P|468:312|498:313,1,60.0000022888184
488,172,116112,2,0,B|496:204|496:204|488:248,1,60.0000022888184,8|0,0:0|0:0,0:0:0:0:
376,264,116453,1,0,0:0:0:0:
376,264,116566,2,0,B|372:238|372:238|380:206,1,60.0000022888184
440,300,117021,1,8,0:0:0:0:
404,140,117248,1,0,0:0:0:0:
404,140,117362,1,0,0:0:0:0:
404,140,117475,6,0,P|359:136|330:153,1,60.0000022888184
108,140,117930,2,0,P|153:136|182:153,1,60.0000022888184,8|0,0:0|0:0,0:0:0:0:
206,202,118271,1,0,0:0:0:0:
208,196,118384,2,0,L|192:276,1,60.0000022888184
315,254,118839,2,0,L|304:196,1,60.0000022888184,8|0,0:0|0:0,0:0:0:0:
180,320,119293,5,0,0:0:0:0:
304,196,119521,1,0,0:0:0:0:
332,320,119748,1,8,0:0:0:0:
208,196,119976,1,0,0:0:0:0:
256,348,120203,1,0,0:0:0:0:
256,144,120430,1,0,0:0:0:0:
256,348,120657,2,0,L|256:272,1,60.0000022888184,8|0,0:0|0:0,0:0:0:0:
208,196,120998,1,0,0:0:0:0:
208,196,121112,6,2,B|138:210|166:165|80:181,1,120,6|2,0:0|0:0,0:0:0:0:
188,124,121566,1,2,0:0:0:0:
112,248,121794,1,2,0:0:0:0:
36,132,122021,1,2,0:0:0:0:
36,132,122135,2,2,P|24:96|40:52,1,80
172,16,122475,1,2,0:0:0:0:
92,92,122703,1,2,0:0:0:0:
256,144,122930,6,2,B|304:152|304:152|332:144|332:144|384:152,1,120
296,80,123384,1,2,0:0:0:0:
340,216,123612,1,2,0:0:0:0:
432,112,123839,1,2,0:0:0:0:
432,112,123953,2,2,P|444:148|428:192,1,80
312,148,124293,1,2,0:0:0:0:
364,280,124521,1,2,0:0:0:0:
256,314,124748,5,12,0:0:0:0:
256,192,124975,1,0,0:0:0:0:
343,278,125202,1,0,0:0:0:0:
169,278,125430,5,8,0:0:0:0:
256,192,125657,1,0,0:0:0:0:
256,314,125884,1,0,0:0:0:0:
133,192,126112,5,8,0:0:0:0:
256,192,126339,1,0,0:0:0:0:
169,105,126566,5,12,0:0:0:0:
256,192,126793,1,0,0:0:0:0:
133,192,127020,1,0,0:0:0:0:
256,69,127248,5,8,0:0:0:0:
256,192,127475,1,0,0:0:0:0:
169,105,127702,1,0,0:0:0:0:
342,105,127930,5,8,0:0:0:0:
256,192,128157,1,0,0:0:0:0:
403,192,128384,5,12,0:0:0:0:
256,192,128612,1,0,0:0:0:0:
360,89,128839,1,0,0:0:0:0:
360,295,129066,5,8,0:0:0:0:
256,192,129293,1,0,0:0:0:0:
403,192,129520,1,0,0:0:0:0:
256,338,129748,5,8,0:0:0:0:
256,192,129975,1,0,0:0:0:0:
152,295,130202,5,12,0:0:0:0:
256,192,130430,1,0,0:0:0:0:
256,338,130656,1,0,0:0:0:0:
109,192,130884,5,8,0:0:0:0:
256,192,131111,1,0,0:0:0:0:
152,295,131338,1,0,0:0:0:0:
152,88,131566,5,8,0:0:0:0:
256,192,131793,1,0,0:0:0:0:
256,46,132021,5,12,0:0:0:0:
359,88,132248,1,0,0:0:0:0:
402,192,132475,1,8,0:0:0:0:
402,192,132589,1,0,0:0:0:0:
402,192,132702,1,0,0:0:0:0:
359,295,132930,5,8,0:0:0:0:
256,338,133158,1,0,0:0:0:0:
152,295,133384,1,8,0:0:0:0:
256,338,133612,1,0,0:0:0:0:
109,192,133839,5,4,0:0:0:0:
256,192,133952,12,0,134748,0:0:0:0:
256,200,134975,5,8,0:0:0:0:
336,80,135202,2,8,L|280:88,1,40
180,124,135430,2,8,L|236:132,1,40
336,80,135657,6,0,B|363:60|363:60|448:68,1,95.9999970703126,4|2,0:0|0:0,0:0:0:0:
453,222,136112,2,0,B|449:166|481:190|469:114,1,95.9999970703126,8|2,0:0|0:0,0:0:0:0:
504,68,136453,1,0,0:0:0:0:
504,68,136566,1,0,0:0:0:0:
400,136,136794,1,2,0:0:0:0:
230,48,137021,2,0,P|218:100|246:156,1,95.9999970703126,8|2,0:0|0:0,0:0:0:0:
278,196,137362,1,0,0:0:0:0:
278,196,137475,5,0,0:0:0:0:
190,328,137702,1,2,0:0:0:0:
330,304,137930,1,8,0:0:0:0:
206,208,138157,1,2,0:0:0:0:
350,184,138385,1,0,0:0:0:0:
262,316,138612,1,8,0:1:0:0:
410,224,138839,2,0,P|418:168|378:120,1,95.9999970703126,8|2,0:0|0:0,0:0:0:0:
347,87,139180,1,0,0:0:0:0:
347,87,139294,5,0,0:0:0:0:
278,196,139521,1,2,0:0:0:0:
296,36,139748,1,8,0:0:0:0:
399,135,139975,1,2,0:0:0:0:
224,244,140203,2,0,P|204:202|214:156,1,95.9999970703126,0|2,0:0|0:0,0:0:0:0:
456,96,140657,2,0,P|464:152|424:200,1,95.9999970703126,8|2,0:0|0:0,0:0:0:0:
404,240,140998,1,0,0:0:0:0:
404,240,141112,5,0,0:0:0:0:
512,220,141339,1,2,0:0:0:0:
368,300,141566,5,8,0:0:0:0:
512,220,141793,1,2,0:0:0:0:
332,364,142021,5,0,0:0:0:0:
278,196,142248,1,8,0:1:0:0:
81,303,142475,2,0,B|137:315|113:283|193:299,1,95.9999970703126,8|8,0:0|0:0,0:0:0:0:
224,244,142816,1,8,0:0:0:0:
176,296,142930,6,0,B|203:316|203:316|288:308,1,95.9999970703126,4|2,0:0|0:0,0:0:0:0:
512,220,143384,2,2,B|484:240|484:240|408:232,1,95.9999970703126,10|2,0:0|0:0,0:0:0:0:
380,180,143725,1,0,0:0:0:0:
380,180,143839,1,0,0:0:0:0:
496,112,144066,1,2,0:0:0:0:
328,228,144293,2,0,P|308:180|332:128,1,95.9999970703126,8|2,0:0|0:0,0:0:0:0:
360,76,144635,1,0,0:0:0:0:
360,76,144748,5,0,0:0:0:0:
232,120,144974,1,2,0:0:0:0:
376,180,145202,1,8,0:0:0:0:
208,112,145429,1,2,0:0:0:0:
416,32,145657,1,0,0:0:0:0:
276,184,145884,1,8,0:1:0:0:
124,36,146112,2,0,B|100:20|55:31|55:31|100:52,1,95.9999970703126,8|2,0:0|0:0,0:0:0:0:
116,104,146453,1,0,0:0:0:0:
116,104,146566,5,0,0:0:0:0:
172,256,146793,1,2,0:0:0:0:
0,232,147021,1,8,0:0:0:0:
140,180,147248,1,2,0:0:0:0:
208,320,147475,2,0,P|160:328|116:304,1,95.9999970703126,0|2,0:0|0:0,0:0:0:0:
51,167,147930,2,0,P|99:159|143:183,1,95.9999970703126,8|2,0:0|0:0,0:0:0:0:
212,196,148271,1,0,0:0:0:0:
212,196,148385,5,0,0:0:0:0:
204,84,148612,1,2,0:0:0:0:
212,196,148839,5,8,0:0:0:0:
268,52,149066,1,2,0:0:0:0:
212,196,149294,5,0,0:0:0:0:
332,20,149521,1,8,0:1:0:0:
506,191,149748,6,0,L|494:251,1,47.9999985351563,8|0,0:0|0:0,0:0:0:0:
436,368,149975,2,8,L|426:320,1,47.9999985351563
497,239,150202,6,0,B|513:183|481:203|493:143,1,95.9999970703126,4|2,0:0|0:0,0:0:0:0:
344,196,150657,2,0,P|382:222|429:215,1,95.9999970703126,8|2,0:0|0:0,0:0:0:0:
400,152,150998,1,0,0:0:0:0:
400,152,151112,1,0,0:0:0:0:
364,288,151339,1,2,0:0:0:0:
320,108,151566,2,0,B|254:99|254:99|276:128,1,95.9999970703126,8|2,0:0|0:0,0:0:0:0:
251,194,151907,1,0,0:0:0:0:
251,194,152021,5,0,0:0:0:0:
232,32,152247,1,2,0:0:0:0:
183,206,152475,1,8,0:0:0:0:
208,32,152702,1,2,0:0:0:0:
114,171,152930,1,0,0:0:0:0:
271,122,153157,1,8,0:1:0:0:
112,76,153384,2,0,L|116:208,1,95.9999970703126,8|2,0:0|0:0,0:0:0:0:
72,228,153725,1,0,0:0:0:0:
72,228,153839,5,0,0:0:0:0:
184,180,154066,1,2,0:0:0:0:
32,168,154294,1,8,0:0:0:0:
196,112,154521,1,2,0:0:0:0:
112,284,154748,2,0,P|68:296|20:276,1,95.9999970703126,0|2,0:0|0:0,0:0:0:0:
192,352,155202,2,0,P|236:364|284:344,1,95.9999970703126,8|2,0:0|0:0,0:0:0:0:
232,292,155544,1,0,0:0:0:0:
232,292,155657,5,0,0:0:0:0:
368,212,155885,1,2,0:0:0:0:
392,280,156112,5,8,0:0:0:0:
192,232,156339,1,2,0:0:0:0:
232,292,156566,5,0,0:0:0:0:
336,144,156794,1,8,0:1:0:0:
424,348,157021,1,8,0:0:0:0:
192,232,157248,1,8,0:0:0:0:
175,209,157362,1,8,0:0:0:0:
156,181,157475,6,0,P|208:192|264:164,1,95.9999970703126,4|2,0:0|0:0,0:0:0:0:
420,92,157930,2,0,B|360:106|379:68|321:75,1,95.9999970703126,8|2,0:0|0:0,0:0:0:0:
284,20,158271,1,0,0:0:0:0:
284,20,158385,1,0,0:0:0:0:
200,124,158612,1,2,0:0:0:0:
52,68,158839,2,0,L|160:72,1,95.9999970703126,8|2,0:0|0:0,0:0:0:0:
200,124,159180,1,0,0:0:0:0:
200,124,159294,5,0,0:0:0:0:
156,268,159521,1,2,0:0:0:0:
324,214,159748,1,8,0:0:0:0:
177,197,159975,1,2,0:0:0:0:
132,336,160203,1,0,0:0:0:0:
248,204,160430,1,8,0:1:0:0:
440,336,160657,2,0,P|392:360|332:336,1,95.9999970703126,8|2,0:0|0:0,0:0:0:0:
388,292,160998,1,0,0:0:0:0:
388,292,161112,5,0,0:0:0:0:
312,108,161339,1,2,0:0:0:0:
244,272,161566,1,8,0:0:0:0:
432,200,161794,1,2,0:0:0:0:
272,52,162021,2,0,P|244:100|260:152,1,95.9999970703126,0|2,0:0|0:0,0:0:0:0:
56,304,162475,2,0,B|108:312|84:284|152:300,1,95.9999970703126,8|2,0:0|0:0,0:0:0:0:
208,348,162816,1,0,0:0:0:0:
208,348,162930,5,0,0:0:0:0:
160,160,163157,1,2,0:0:0:0:
300,280,163384,1,8,0:0:0:0:
272,276,163498,1,2,0:0:0:0:
244,272,163612,1,2,0:0:0:0:
352,160,163839,5,0,0:0:0:0:
304,348,164066,1,8,0:1:0:0:
204,212,164293,1,8,0:0:0:0:
58,307,164521,1,8,0:0:0:0:
58,307,164635,1,8,0:0:0:0:
58,307,164748,6,0,P|110:315|158:291,1,95.9999970703126,4|0,0:0|0:0,0:0:0:0:
12,184,165202,2,0,L|24:240,1,47.9999985351563
84,196,165430,2,0,L|96:252,1,47.9999985351563
213,339,165657,6,0,P|265:331|313:355,1,95.9999970703126,8|0,0:0|0:0,0:0:0:0:
368,384,165998,1,0,0:0:0:0:
368,384,166112,2,0,L|424:364,1,47.9999985351563
512,224,166339,1,0,0:0:0:0:
512,224,166566,6,0,L|500:280,1,47.9999985351563
440,236,166794,2,0,L|428:292,1,47.9999985351563
413,367,167021,1,0,0:0:0:0:
356,180,167248,6,0,L|372:240,1,47.9999985351563
417,142,167475,2,0,L|444:253,1,95.9999970703126,8|0,0:0|0:0,0:0:0:0:
292,220,167930,1,0,0:0:0:0:
468,88,168157,1,0,0:0:0:0:
468,88,168271,1,0,0:0:0:0:
468,88,168384,6,0,B|420:72|420:72|368:84,1,95.9999970703126
312,44,168725,1,0,0:0:0:0:
312,44,168839,2,0,B|264:60|264:60|212:48,1,95.9999970703126
148,64,169180,1,0,0:0:0:0:
148,64,169293,6,0,B|100:48|100:48|48:60,1,95.9999970703126,8|0,0:0|0:0,0:0:0:0:
44,132,169634,1,0,0:0:0:0:
44,132,169748,2,0,L|116:116,1,47.9999985351563
16,212,169975,2,0,L|88:196,1,47.9999985351563
0,288,170202,6,0,B|48:276|48:276|100:288,1,95.9999970703126
152,328,170543,1,0,0:0:0:0:
152,328,170657,2,0,B|200:344|200:344|252:332,1,95.9999970703126
304,384,170998,1,0,0:0:0:0:
304,384,171112,6,0,B|320:336|320:336|308:284,1,95.9999970703126,8|0,0:0|0:0,0:0:0:0:
368,248,171452,1,0,0:0:0:0:
368,248,171566,2,0,P|420:252|468:224,1,95.9999970703126
472,220,171907,1,0,0:0:0:0:
472,200,172021,5,2,0:0:0:0:
472,200,172248,1,2,0:0:0:0:
400,184,172475,2,0,L|405:136,1,47.9999985351563,10|0,0:0|0:0,0:0:0:0:
408,104,172702,2,0,L|413:56,1,47.9999985351563,2|0,0:0|0:0,0:0:0:0:
336,120,172930,5,2,0:0:0:0:
336,120,173157,1,2,0:0:0:0:
272,52,173384,2,0,L|266:99,1,47.9999985351563,10|0,0:0|0:0,0:0:0:0:
264,132,173612,2,0,L|258:179,1,47.9999985351563,2|0,0:0|0:0,0:0:0:0:
188,260,173839,5,2,0:0:0:0:
188,260,173952,1,0,0:0:0:0:
188,260,174066,2,0,L|182:212,1,47.9999985351563,2|0,0:0|0:0,0:0:0:0:
172,136,174293,5,10,0:0:0:0:
172,136,174406,1,0,0:0:0:0:
172,136,174520,2,0,L|166:88,1,47.9999985351563,2|0,0:0|0:0,0:0:0:0:
32,24,174748,6,0,L|26:71,1,47.9999985351563,2|0,0:0|0:0,0:0:0:0:
16,148,174975,2,0,L|10:195,1,47.9999985351563,2|0,0:0|0:0,0:0:0:0:
0,268,175202,1,8,0:0:0:0:
0,268,175430,1,2,0:0:0:0:
168,364,175657,6,0,L|252:352,1,47.9999985351563,2|0,0:0|0:0,0:0:0:0:
348,324,175884,5,2,0:0:0:0:
348,324,175998,1,0,0:0:0:0:
348,324,176112,2,0,L|264:312,1,47.9999985351563,8|0,0:0|0:0,0:0:0:0:
156,244,176339,5,2,0:0:0:0:
156,244,176453,1,0,0:0:0:0:
156,244,176566,2,0,L|240:232,1,47.9999985351563,8|0,0:0|0:0,0:0:0:0:
352,168,176793,5,2,0:0:0:0:
352,168,176907,1,0,0:0:0:0:
352,168,177021,2,0,L|268:156,1,47.9999985351563,8|0,0:0|0:0,0:0:0:0:
168,88,177248,6,2,L|252:76,1,47.9999985351563,10|2,0:0|0:0,0:0:0:0:
284,32,177475,6,8,B|320:24|344:40|344:40|368:32|368:32|392:48|432:32,2,143.999995605469,12|8|8,0:0|0:0|0:0,0:0:0:0:
168,88,178384,6,0,L|252:76,1,47.9999985351563
352,168,178612,2,0,L|268:156,1,47.9999985351563,8|0,0:0|0:0,0:0:0:0:
156,244,178839,2,0,L|240:232,1,47.9999985351563
348,324,179066,2,8,L|264:312,1,47.9999985351563
152,384,179293,1,4,0:0:0:0:
256,192,179407,12,0,180202,0:0:0:0:
256,200,180430,5,8,0:0:0:0:
364,188,180658,2,8,L|308:196,1,40
148,188,180884,2,8,L|204:196,1,40
244,84,181112,6,0,B|264:111|264:111|256:196,1,95.9999970703126,4|2,0:0|0:0,0:0:0:0:
264,360,181566,2,0,B|244:333|244:333|252:248,1,95.9999970703126,8|2,0:0|0:0,0:0:0:0:
256,200,181908,1,0,0:0:0:0:
256,200,182021,1,0,0:0:0:0:
316,312,182248,1,2,0:0:0:0:
455,186,182475,2,0,P|403:174|347:202,1,95.9999970703126,8|2,0:0|0:0,0:0:0:0:
412,248,182817,1,0,0:0:0:0:
412,248,182930,5,0,0:0:0:0:
320,128,183158,1,2,0:0:0:0:
332,104,183385,1,8,0:0:0:0:
249,270,183612,1,2,0:0:0:0:
236,292,183840,1,0,0:0:0:0:
168,128,184067,1,8,0:1:0:0:
36,280,184293,2,0,P|92:288|140:248,1,95.9999970703126,8|0,0:0|0:0,0:0:0:0:
152,200,184635,1,0,0:0:0:0:
152,200,184749,5,0,0:0:0:0:
168,344,184975,1,2,0:0:0:0:
188,352,185203,1,8,0:0:0:0:
128,192,185430,1,2,0:0:0:0:
104,184,185657,1,0,0:0:0:0:
212,360,185884,1,2,0:0:0:0:
325,216,186112,2,0,L|313:332,1,95.9999970703126,8|2,0:0|0:0,0:0:0:0:
352,372,186453,1,0,0:0:0:0:
352,372,186567,5,0,0:0:0:0:
325,216,186794,1,2,0:0:0:0:
424,356,187021,5,8,0:0:0:0:
325,216,187248,1,2,0:0:0:0:
500,340,187476,5,0,0:0:0:0:
364,152,187703,1,8,0:1:0:0:
220,364,187930,2,0,B|164:376|188:344|108:360,1,95.9999970703126,8|8,0:0|0:0,0:0:0:0:
68,320,188271,1,8,0:0:0:0:
4,292,188385,6,0,B|24:265|24:265|16:180,1,95.9999970703126,4|2,0:0|0:0,0:0:0:0:
164,140,188839,2,0,B|136:160|136:160|52:152,1,95.9999970703126,8|2,0:0|0:0,0:0:0:0:
8,132,189180,1,0,0:0:0:0:
8,132,189294,1,0,0:0:0:0:
96,232,189521,1,2,0:0:0:0:
148,72,189748,2,0,P|199:78|232:125,1,95.9999970703126,8|2,0:0|0:0,0:0:0:0:
224,180,190090,1,0,0:0:0:0:
224,180,190203,5,0,0:0:0:0:
276,40,190429,1,2,0:0:0:0:
260,24,190658,1,8,0:0:0:0:
348,172,190884,1,2,0:0:0:0:
336,192,191112,1,0,0:0:0:0:
432,20,191340,1,8,0:1:0:0:
504,216,191566,2,2,B|520:192|509:147|509:147|488:192,1,95.9999970703126,10|2,0:0|0:0,0:0:0:0:
436,204,191908,1,0,0:0:0:0:
436,204,192021,5,0,0:0:0:0:
312,108,192249,1,2,0:0:0:0:
340,100,192475,1,8,0:0:0:0:
420,228,192703,1,2,0:0:0:0:
404,252,192930,1,0,0:0:0:0:
372,92,193157,1,2,0:0:0:0:
440,312,193385,2,0,P|392:320|348:296,1,95.9999970703126,8|2,0:0|0:0,0:0:0:0:
300,252,193726,1,0,0:0:0:0:
300,252,193840,5,0,0:0:0:0:
308,364,194066,1,2,0:0:0:0:
292,180,194293,5,8,0:0:0:0:
236,348,194521,1,2,0:0:0:0:
288,108,194749,5,0,0:0:0:0:
168,332,194975,1,8,0:1:0:0:
24,244,195202,6,0,L|92:240,1,47.9999985351563,8|0,0:0|0:0,0:0:0:0:
264,248,195430,2,8,L|196:244,1,47.9999985351563
144,264,195657,6,0,L|144:192,1,60
112,144,196112,6,0,P|150:170|197:163,1,95.9999970703126,12|2,0:0|0:0,0:0:0:0:
248,108,196453,1,0,0:0:0:0:
248,108,196567,1,0,0:0:0:0:
216,245,196794,1,2,0:0:0:0:
184,52,197021,2,0,B|160:34|160:34|169:100,1,95.9999970703126,8|2,0:0|0:0,0:0:0:0:
204,168,197362,1,0,0:0:0:0:
204,168,197476,5,0,0:0:0:0:
272,36,197702,1,2,0:0:0:0:
256,36,197930,1,8,0:0:0:0:
344,184,198158,1,2,0:0:0:0:
328,184,198385,1,0,0:0:0:0:
440,32,198612,1,8,0:1:0:0:
496,240,198840,2,0,P|444:252|400:228,1,95.9999970703126,8|2,0:0|0:0,0:0:0:0:
456,180,199180,1,0,0:0:0:0:
456,180,199294,5,0,0:0:0:0:
384,304,199521,1,2,0:0:0:0:
408,316,199749,1,8,0:0:0:0:
436,168,199976,1,2,0:0:0:0:
416,156,200202,1,0,0:0:0:0:
436,328,200430,1,2,0:0:0:0:
304,228,200657,2,0,B|288:272|288:272|324:316,1,95.9999970703126,8|2,0:0|0:0,0:0:0:0:
256,344,200999,1,0,0:0:0:0:
256,344,201112,5,0,0:0:0:0:
176,208,201339,1,2,0:0:0:0:
244,184,201566,5,8,0:0:0:0:
196,384,201794,1,2,0:0:0:0:
256,344,202021,5,0,0:0:0:0:
104,232,202249,1,8,0:1:0:0:
304,228,202475,1,8,0:0:0:0:
144,336,202702,1,8,0:0:0:0:
144,336,202817,1,8,0:0:0:0:
144,336,202930,6,0,L|84:329,1,60
16,344,203384,6,0,B|2:284|40:303|33:245,1,95.9999970703126,12|2,0:0|0:0,0:0:0:0:
8,188,203726,1,0,0:0:0:0:
8,188,203840,1,0,0:0:0:0:
84,329,204066,1,2,0:0:0:0:
72,144,204293,2,0,L|184:136,1,95.9999970703126,8|2,0:0|0:0,0:0:0:0:
220,84,204635,1,0,0:0:0:0:
220,84,204749,5,0,0:0:0:0:
360,152,204976,1,2,0:0:0:0:
384,144,205203,1,8,0:0:0:0:
224,208,205430,1,2,0:0:0:0:
200,200,205657,1,0,0:0:0:0:
284,48,205884,1,8,0:1:0:0:
364,248,206112,2,0,P|316:276|256:252,1,95.9999970703126,8|2,0:0|0:0,0:0:0:0:
308,208,206453,1,0,0:0:0:0:
308,208,206567,5,0,0:0:0:0:
244,336,206793,1,2,0:0:0:0:
212,336,207021,1,8,0:0:0:0:
292,184,207249,1,2,0:0:0:0:
276,164,207475,1,0,0:0:0:0:
180,336,207702,1,0,0:0:0:0:
36,240,207930,2,0,B|88:248|64:220|132:236,1,95.9999970703126,8|2,0:0|0:0,0:0:0:0:
104,304,208271,1,0,0:0:0:0:
104,304,208385,5,0,0:0:0:0:
128,160,208612,1,2,0:0:0:0:
252,264,208839,1,8,0:0:0:0:
224,260,208952,1,2,0:0:0:0:
196,256,209067,1,2,0:0:0:0:
44,336,209294,5,0,0:0:0:0:
72,112,209521,1,8,0:1:0:0:
180,336,209748,1,8,0:0:0:0:
220,104,209976,1,8,0:0:0:0:
220,104,210090,1,8,0:0:0:0:
220,104,210202,6,0,P|276:116|328:92,1,95.9999970703126,4|2,0:0|0:0,0:0:0:0:
468,64,210657,2,0,P|412:52|360:76,1,95.9999970703126,8|2,0:0|0:0,0:0:0:0:
424,124,210997,1,0,0:0:0:0:
424,124,211111,5,0,0:0:0:0:
500,0,211339,1,2,0:0:0:0:
472,184,211566,2,0,P|416:196|364:172,1,95.9999970703126,8|2,0:0|0:0,0:0:0:0:
328,120,211906,1,0,0:0:0:0:
328,120,212020,5,0,0:0:0:0:
336,0,212247,1,2,0:0:0:0:
380,180,212475,1,8,0:0:0:0:
232,72,212702,1,2,0:0:0:0:
232,72,212815,1,0,0:0:0:0:
232,72,212930,6,0,L|296:60,1,47.9999985351563
188,228,213157,2,0,L|252:216,1,47.9999985351563,2|0,0:0|0:0,0:0:0:0:
208,152,213384,2,0,L|272:140,1,47.9999985351563,10|0,0:0|0:0,0:0:0:0:
160,292,213612,1,2,0:0:0:0:
160,292,213725,1,0,0:0:0:0:
160,292,213839,6,0,B|132:312|132:312|60:316,1,95.9999970703126,4|2,0:0|0:0,0:0:0:0:
188,360,214293,2,0,B|216:340|216:340|288:336,1,95.9999970703126,8|2,0:0|0:0,0:0:0:0:
344,364,214633,1,0,0:0:0:0:
344,364,214747,5,0,0:0:0:0:
400,200,214974,1,2,0:0:0:0:
504,312,215202,2,0,B|476:332|476:332|404:336,1,95.9999970703126,8|2,0:0|0:0,0:0:0:0:
344,364,215543,1,0,0:0:0:0:
344,364,215657,6,0,L|344:308,1,47.9999985351563
328,248,215884,2,0,L|328:192,1,47.9999985351563,2|0,0:0|0:0,0:0:0:0:
462,105,216112,6,0,L|413:132,1,47.9999985351563,8|0,0:0|0:0,0:0:0:0:
369,176,216339,2,0,L|320:204,1,47.9999985351563,2|0,0:0|0:0,0:0:0:0:
178,131,216566,6,0,L|226:159,1,47.9999985351563
285,176,216793,2,0,L|333:204,1,47.9999985351563,2|0,0:0|0:0,0:0:0:0:
360,16,217021,5,10,0:0:0:0:
336,20,217134,1,0,0:0:0:0:
316,24,217248,1,10,0:0:0:0:
296,28,217362,1,8,0:0:0:0:
272,32,217475,6,0,P|216:44|164:20,1,95.9999970703126,4|2,0:0|0:0,0:0:0:0:
40,80,217930,2,0,P|96:68|148:92,1,95.9999970703126,8|2,0:0|0:0,0:0:0:0:
88,140,218270,1,0,0:0:0:0:
88,140,218384,5,0,0:0:0:0:
0,20,218611,1,2,0:0:0:0:
40,200,218839,2,0,P|96:212|148:188,1,95.9999970703126,8|2,0:0|0:0,0:0:0:0:
176,136,219179,1,0,0:0:0:0:
176,136,219293,5,0,0:0:0:0:
180,24,219520,1,2,0:0:0:0:
131,196,219748,1,8,0:0:0:0:
256,136,219975,1,2,0:0:0:0:
256,136,220088,1,0,0:0:0:0:
256,136,220203,6,0,L|244:72,1,47.9999985351563
412,180,220430,2,0,L|400:116,1,47.9999985351563,2|0,0:0|0:0,0:0:0:0:
336,160,220657,2,0,L|324:96,1,47.9999985351563,10|0,0:0|0:0,0:0:0:0:
488,208,220885,1,2,0:0:0:0:
488,208,220998,1,0,0:0:0:0:
488,208,221112,6,0,B|508:236|508:236|512:308,1,95.9999970703126,4|2,0:0|0:0,0:0:0:0:
372,372,221566,2,0,B|352:344|352:344|348:272,1,95.9999970703126,8|2,0:0|0:0,0:0:0:0:
288,244,221906,1,0,0:0:0:0:
288,244,222020,5,0,0:0:0:0:
420,316,222247,1,2,0:0:0:0:
232,288,222475,2,0,B|204:308|204:308|132:312,1,95.9999970703126,8|2,0:0|0:0,0:0:0:0:
72,336,222816,1,0,0:0:0:0:
72,336,222930,6,0,L|72:280,1,47.9999985351563,8|0,0:0|0:0,0:0:0:0:
4,312,223157,2,0,L|4:256,1,47.9999985351563,2|0,0:0|0:0,0:0:0:0:
148,212,223384,6,0,L|148:156,1,47.9999985351563,8|0,0:0|0:0,0:0:0:0:
216,188,223611,2,0,L|216:132,1,47.9999985351563,2|0,0:0|0:0,0:0:0:0:
72,76,223839,6,0,L|72:20,1,47.9999985351563,8|0,0:0|0:0,0:0:0:0:
4,52,224066,2,0,L|4:-4,1,47.9999985351563,2|0,0:0|0:0,0:0:0:0:
140,60,224293,5,10,0:0:0:0:
173,56,224406,1,0,0:0:0:0:
206,53,224520,1,10,0:0:0:0:
240,50,224633,1,8,0:0:0:0:
273,47,224747,1,0,0:0:0:0:
256,192,224862,12,4,226566,0:0:0:0:
