osu file format v14

[General]
AudioFilename: deg.mp3
AudioLeadIn: 0
PreviewTime: 31648
Countdown: 0
SampleSet: Normal
StackLeniency: 0.7
Mode: 0
LetterboxInBreaks: 0
WidescreenStoryboard: 1

[Editor]
DistanceSpacing: 1
BeatDivisor: 1
GridSize: 4
TimelineZoom: 1

[Metadata]
Title:Shitty Christmas
TitleUnicode:Shitty Christmas
Artist:Rocco La Bete
ArtistUnicode:Rocco La BĂȘte
Creator:matthewrigaud11
Version:Shit
Source:
Tags:gordon123 Christmas winter xmas
BeatmapID:1877425
BeatmapSetID:882985

[Difficulty]
HPDrainRate:3
CircleSize:2.2
OverallDifficulty:3
ApproachRate:3.2
SliderMultiplier:0.9
SliderTickRate:1

[Events]
//Background and Video events
0,0,"bag.jpg",0,0
//Break Periods
2,72269,80419
//Storyboard Layer 0 (Background)
//Storyboard Layer 1 (Fail)
//Storyboard Layer 2 (Pass)
//Storyboard Layer 3 (Foreground)
//Storyboard Sound Samples

[TimingPoints]
11438,315.789473684211,4,1,0,60,1,0
31648,-100,4,1,0,60,0,1
51859,-100,4,1,0,60,0,0
72069,-100,4,1,0,60,0,0
81859,-100,4,2,0,30,0,0
82174,-100,4,1,0,60,0,1
101753,292.682926829268,4,1,0,60,1,0
102338,-100,4,1,0,60,0,0

[Colours]
Combo1 : 5,120,9
Combo2 : 255,0,0

[HitObjects]
16,174,11437,6,0,P|101:211|162:152,1,180,4|2,3:0|3:0,3:0:0:0:
205,82,12385,1,0,3:0:0:0:
252,158,12701,2,0,L|351:136,1,90,4|4,3:0|3:3,3:0:0:0:
415,186,13332,1,2,3:0:0:0:
504,342,13964,6,0,P|444:356|395:353,1,90,4|4,3:0|3:0,3:0:0:0:
334,317,14595,2,0,P|250:308|178:369,1,180,2|4,3:0|3:0,3:0:0:0:
99,324,15543,2,0,L|87:230,1,90,4|2,3:0|3:0,3:0:0:0:
143,163,16174,6,0,P|186:173|243:153,2,90,0|4|4,3:0|3:0|3:0,3:0:0:0:
189,85,17122,2,0,P|199:42|179:-15,1,90,2|4,3:0|3:0,3:0:0:0:
109,42,17753,2,0,B|29:106|29:106|40:200,1,180,4|2,3:0|3:1,3:0:0:0:
112,347,19016,6,0,P|189:366|235:338,1,90,4|4,3:0|3:0,3:0:0:0:
238,283,19648,2,0,P|308:271|350:301,1,90,2|0,3:0|3:0,3:0:0:0:
379,348,20280,2,0,P|405:313|331:186,1,180,4|2,3:0|3:0,3:0:0:0:
194,134,21543,6,0,P|174:209|197:273,1,90,4|4,3:0|3:0,3:0:0:0:
117,288,22174,2,0,P|192:308|256:285,1,90,2|0,3:0|3:2,3:0:0:0:
269,367,22806,2,0,P|289:292|266:228,1,90,4|4,3:0|3:0,3:0:0:0:
282,190,23438,2,0,P|297:101|383:56,1,180,2|4,3:0|3:0,3:0:0:0:
450,95,24385,5,4,3:0:0:0:
467,183,24701,2,0,P|454:266|424:296,1,90,2|0,3:0|3:0,3:0:0:0:
393,337,25332,2,0,P|295:336|219:273,1,180,4|2,3:0|3:0,3:0:0:0:
262,112,26595,6,0,P|388:118|428:107,1,90,4|4,3:0|3:0,3:0:0:0:
437,149,27227,2,0,P|431:275|442:315,1,90,2|0,3:0|3:2,3:0:0:0:
436,327,27859,2,0,P|388:321|341:325,1,90,4|4,3:0|3:0,3:0:0:0:
262,356,28490,1,2,3:0:0:0:
256,192,29122,12,2,31648,1:1:0:0:
304,317,32911,6,0,B|320:214|320:214|293:106,1,180,6|8,0:0|0:0,0:0:0:0:
345,61,33859,1,2,0:0:0:0:
413,118,34174,2,0,P|445:201|399:336,1,180,6|8,0:0|0:0,0:0:0:0:
343,265,35122,1,0,0:0:0:0:
303,345,35438,2,0,B|187:323|187:323|61:342,1,180,6|8,0:0|0:0,0:0:0:0:
16,188,36701,6,0,P|28:77|25:33,1,90,6|0,0:0|0:0,0:0:0:0:
113,72,37332,2,0,P|223:70|268:81,1,90,8|2,0:0|0:0,0:0:0:0:
285,104,37964,2,0,P|356:113|437:-15,1,180,6|8,0:0|0:0,0:0:0:0:
485,217,39227,6,0,P|394:192|378:196,1,90,4|0,0:0|0:0,0:0:0:0:
331,133,39859,2,0,P|315:228|320:238,1,90,8|0,0:0|0:0,0:0:0:0:
353,296,40490,2,0,L|232:320,2,90,2|0|8,0:0|0:0|0:0,0:0:0:0:
486,174,41753,6,0,P|468:55|436:22,1,90,6|0,0:0|0:0,0:0:0:0:
396,107,42385,2,0,L|265:121,1,90,8|2,0:0|0:0,0:0:0:0:
221,146,43016,2,0,P|230:68|243:51,2,90,6|2|8,0:0|0:0|0:0,0:0:0:0:
344,277,44280,6,0,P|315:335|273:360,1,90,6|0,0:0|0:0,0:0:0:0:
206,356,44911,2,0,P|145:338|118:305,1,90,8|2,0:0|0:0,0:0:0:0:
92,237,45543,2,0,P|120:128|193:120,1,180,6|10,0:0|0:0,0:0:0:0:
342,179,46806,6,0,P|425:169|483:70,1,180,4|4,0:3|0:3,0:0:0:0:
416,32,47753,1,2,0:2:0:0:
326,39,48069,2,0,L|135:64,1,180,4|4,0:3|0:3,0:0:0:0:
105,237,49332,6,0,L|61:360,2,90,4|0|8,0:0|0:0|0:0,0:0:0:0:
139,153,50280,1,0,0:0:0:0:
181,73,50595,2,0,P|303:103|427:86,1,180,6|8,0:0|0:0,0:0:0:0:
447,257,51859,6,0,L|477:343,2,90,4|4|2,3:0|3:0|3:0,3:0:0:0:
356,258,52806,1,4,3:0:0:0:
274,295,53122,2,0,P|188:262|166:150,1,180,4|2,3:0|3:0,3:0:0:0:
268,41,54385,6,0,L|425:34,1,90,4|4,3:0|3:0,3:0:0:0:
427,94,55016,2,0,P|440:187|423:263,1,90,2|0,3:0|3:0,3:0:0:0:
393,259,55648,2,0,P|297:291|207:252,1,180,4|2,3:0|3:0,3:0:0:0:
49,304,56911,6,0,P|74:213|89:181,1,90,4|4,3:0|3:0,3:0:0:0:
153,178,57543,1,2,3:0:0:0:
235,214,57859,2,0,P|246:272|217:344,1,90,4|4,3:0|3:0,3:0:0:0:
316,349,58490,1,4,3:0:0:0:
378,283,58806,2,0,P|396:191|394:128,1,90,2|0,3:0|3:0,3:0:0:0:
384,105,59438,6,0,P|248:89|238:199,1,270,2|2,3:2|3:2,3:0:0:0:
310,150,60701,1,2,3:2:0:0:
345,245,61964,6,0,L|82:295,1,180,4|2,3:0|3:0,3:0:0:0:
80,297,62911,1,0,3:0:0:0:
70,207,63227,2,0,P|80:110|100:51,1,90,4|4,3:0|3:0,3:0:0:0:
141,52,63859,1,2,3:0:0:0:
320,39,64490,6,0,B|341:163|341:163|449:218,1,180,4|2,3:0|3:0,3:0:0:0:
478,203,65438,1,0,3:0:0:0:
450,288,65753,2,0,P|349:337|273:302,1,180,4|2,3:0|3:0,3:0:0:0:
134,226,67016,6,0,L|123:324,2,90,4|4|2,3:0|3:0|3:0,3:0:0:0:
207,173,67964,1,0,3:0:0:0:
139,113,68280,2,0,P|54:120|9:214,1,180,4|2,3:0|3:0,3:0:0:0:
256,192,69543,12,0,72069,3:0:0:0:
423,163,82174,6,0,P|443:232|370:338,1,180,6|8,1:0|1:0,0:0:0:0:
309,350,83121,1,2,1:0:0:0:
226,313,83437,2,0,B|210:210|210:210|141:126,1,180,6|8,1:0|1:0,0:0:0:0:
34,24,84700,6,0,P|11:104|58:239,1,180,6|8,1:0|1:0,0:0:0:0:
86,267,85648,1,2,1:0:0:0:
148,202,85964,2,0,B|264:180|264:180|390:199,1,180,6|8,0:0|0:1,0:0:0:0:
421,341,87227,6,0,P|446:174|419:136,1,180,6|8,1:0|0:0,0:0:0:0:
408,91,88174,1,2,1:0:0:0:
325,126,88490,2,0,P|236:128|175:65,2,180,6|8|4,1:0|1:0|0:0,0:0:0:0:
408,91,90069,5,0,1:0:0:0:
477,148,90385,2,0,L|466:262,1,90,8|0,0:0|0:0,0:0:0:0:
420,313,91016,2,0,P|320:348|224:306,1,180,2|8,0:0|0:0,0:0:0:0:
98,234,92279,6,0,P|102:184|75:80,1,90,6|0,1:0|0:0,0:0:0:0:
59,62,92911,2,0,P|138:63|159:72,1,90,8|2,1:0|1:0,1:0:0:0:
231,99,93543,2,0,L|257:-25,2,90,6|2|8,1:0|1:0|0:0,0:0:0:0:
226,188,94490,1,2,0:0:0:0:
241,276,94806,6,0,P|308:330|341:335,1,90,6|0,0:0|0:0,0:0:0:0:
399,336,95437,2,0,L|434:246,1,90,8|2,1:0|1:0,0:0:0:0:
463,167,96069,2,0,P|439:56|362:50,1,180,6|10,1:0|1:0,0:0:0:0:
325,212,97332,6,0,P|237:197|215:95,1,180,4|4,0:3|0:3,0:0:0:0:
118,107,98279,1,2,0:2:0:0:
127,196,98595,2,0,P|204:289|262:307,1,180,4|4,1:3|0:3,0:3:0:0:
256,192,99859,12,0,101753,0:0:0:0:
