osu file format v14

[General]
AudioFilename: deg.mp3
AudioLeadIn: 0
PreviewTime: 31648
Countdown: 0
SampleSet: Normal
StackLeniency: 0.7
Mode: 0
LetterboxInBreaks: 0
WidescreenStoryboard: 1

[Editor]
Bookmarks: 51849
DistanceSpacing: 1
BeatDivisor: 1
GridSize: 4
TimelineZoom: 1

[Metadata]
Title:Shitty Christmas
TitleUnicode:Shitty Christmas
Artist:Rocco La Bete
ArtistUnicode:Rocco La BĂȘte
Creator:matthewrigaud11
Version:Shittiest Christmas
Source:
Tags:gordon123 Christmas winter xmas
BeatmapID:1846000
BeatmapSetID:882985

[Difficulty]
HPDrainRate:4
CircleSize:3.8
OverallDifficulty:7
ApproachRate:7.7
SliderMultiplier:1.5
SliderTickRate:1

[Events]
//Background and Video events
0,0,"bag.jpg",0,0
//Break Periods
2,72069,78701
//Storyboard Layer 0 (Background)
//Storyboard Layer 1 (Fail)
//Storyboard Layer 2 (Pass)
//Storyboard Layer 3 (Foreground)
//Storyboard Sound Samples

[TimingPoints]
11438,315.789473684211,4,1,0,60,1,0
30385,-133.333333333333,4,1,0,60,0,0
31648,-100,4,1,0,60,0,1
51859,-100,4,1,0,60,0,0
72069,-100,4,1,0,60,0,0
81859,-100,4,2,0,30,0,0
82174,-100,4,1,0,60,0,1
101753,292.682926829268,4,1,0,60,1,0
102338,-100,4,1,0,60,0,0

[Colours]
Combo1 : 5,120,9
Combo2 : 255,0,0

[HitObjects]
62,126,11437,6,4,P|42:209|67:273,1,150,4|4,3:0|3:0,3:0:0:0:
143,310,11911,1,0,3:0:0:0:
231,294,12069,2,0,P|240:251|248:190,2,75,2|0|0,3:0|3:0|3:0,3:0:0:0:
428,355,12701,5,4,3:0:0:0:
495,295,12859,1,0,3:0:0:0:
466,210,13016,2,0,P|366:206|307:279,1,150,4|2,3:3|3:0,3:0:0:0:
406,282,13490,2,0,P|393:197|396:110,1,150,0|0,3:0|3:0,3:0:0:0:
435,22,13964,5,4,3:0:0:0:
353,60,14122,1,0,3:0:0:0:
263,67,14280,2,0,P|173:43|143:20,1,75,4|0,3:0|3:0,3:0:0:0:
112,6,14595,1,2,3:0:0:0:
112,6,14753,1,0,3:0:0:0:
47,69,14911,2,0,P|53:171|64:197,1,75,0|0,3:0|3:0,3:0:0:0:
116,200,15227,6,4,B|125:237|110:286,2,75,4|0|4,3:0|3:0|3:0,3:0:0:0:
116,109,15701,1,0,3:0:0:0:
188,160,15859,2,0,P|293:205|349:192,1,150,2|0,3:0|3:0,3:0:0:0:
404,158,16332,1,0,3:0:0:0:
468,97,16490,6,4,L|487:250,2,150,4|4|2,3:0|3:0|3:0,3:0:0:0:
432,14,17280,1,0,3:0:0:0:
342,8,17438,2,0,P|277:36|243:81,1,75,4|0,3:0|3:0,3:0:0:0:
245,123,17753,6,4,P|161:178|81:167,1,150,4|4,3:0|3:0,3:0:0:0:
91,90,18227,1,0,3:0:0:0:
8,58,18385,2,0,P|2:172|5:189,1,75,2|2,3:1|3:1,0:0:0:0:
24,219,18701,1,0,3:0:0:0:
24,219,18859,1,0,3:0:0:0:
84,285,19016,6,4,P|152:288|252:237,1,150,4|4,3:0|3:0,3:0:0:0:
286,189,19490,1,0,3:0:0:0:
329,272,19648,2,0,P|323:309|314:345,1,75,2|0,3:0|3:0,3:0:0:0:
428,373,19964,2,0,P|417:329|411:269,1,75,0|4,3:0|3:0,3:0:0:0:
408,208,20280,5,0,3:0:0:0:
432,121,20438,1,2,3:0:0:0:
378,60,20595,1,4,3:0:0:0:
378,60,20911,1,2,3:0:0:0:
378,60,21543,5,4,3:0:0:0:
329,71,21648,1,0,3:0:0:0:
280,63,21753,1,0,3:0:0:0:
237,38,21859,2,0,B|151:62|151:62|75:47,1,150,4|2,3:0|3:0,3:0:0:0:
25,152,22490,1,4,3:0:0:0:
74,142,22595,1,0,3:0:0:0:
123,147,22700,1,0,3:0:0:0:
170,164,22806,6,0,B|191:213|191:213|183:287,1,100,4|0,3:0|3:0,3:0:0:0:
187,258,23122,1,4,3:0:0:0:
325,153,23438,2,0,P|309:187|306:252,2,75,2|0|0,3:0|3:0|3:0,3:0:0:0:
408,121,23911,1,0,3:0:0:0:
493,145,24069,6,4,P|515:274|490:314,1,150,4|4,3:0|3:0,3:0:0:0:
316,339,24701,2,0,L|450:357,2,75,2|0|0,3:0|3:0|3:0,3:0:0:0:
228,319,25174,1,0,3:0:0:0:
141,303,25332,2,4,L|116:389,2,75,4|0|4,3:0|3:0|3:0,3:0:0:0:
178,157,25964,1,2,3:0:0:0:
163,74,26122,1,0,3:0:0:0:
82,52,26280,1,0,3:0:0:0:
29,117,26438,1,0,3:0:0:0:
9,198,26595,6,4,L|1:334,2,75,4|0|4,3:0|3:0|3:0,3:0:0:0:
139,363,27227,2,0,P|145:275|118:214,1,150,2|2,3:0|3:2,3:0:0:0:
85,143,27701,1,0,3:0:0:0:
188,165,27859,6,0,L|285:182,1,75,4|0,3:0|3:0,3:0:0:0:
261,177,28174,1,4,3:0:0:0:
351,281,28490,2,0,B|388:199|388:199|360:116,1,150,2|0,3:0|3:0,3:0:0:0:
330,73,28964,1,0,3:0:0:0:
254,103,29122,6,0,P|187:108|118:52,1,150,4|4,3:0|3:0,3:0:0:0:
25,51,29595,1,0,3:0:0:0:
64,140,29753,2,0,L|30:318,1,150,2|0,3:0|3:0,3:0:0:0:
100,347,30227,1,0,3:0:0:0:
167,293,30385,6,0,L|161:237,3,56.2500021457673,4|0|0|0,3:1|3:0|3:0|3:0,3:0:0:0:
150,161,31016,1,2,3:2:0:0:
103,58,31648,6,2,P|47:135|37:309,1,225,6|2,0:1|0:0,0:0:0:0:
67,356,32280,1,8,0:0:0:0:
67,356,32438,1,4,0:3:0:0:
408,325,32911,6,2,P|464:248|474:74,1,225,6|2,0:0|0:0,0:0:0:0:
445,28,33543,1,8,0:0:0:0:
445,28,33701,1,4,0:3:0:0:
27,261,34174,6,2,P|96:315|221:231,1,225,6|2,0:0|0:0,0:0:0:0:
234,175,34806,1,8,0:0:0:0:
234,175,34964,1,4,0:3:0:0:
441,89,35438,6,2,P|372:35|247:119,1,225,6|2,0:0|0:0,0:0:0:0:
234,175,36070,1,8,0:0:0:0:
234,175,36228,1,4,0:3:0:0:
236,263,36385,2,2,P|246:311|267:362,1,75,2|0,0:0|0:0,0:0:0:0:
333,384,36701,6,2,P|434:348|461:243,1,225,6|2,0:0|0:0,0:0:0:0:
394,172,37332,1,8,0:0:0:0:
474,117,37490,1,4,0:3:0:0:
386,74,37648,1,2,0:0:0:0:
310,135,37806,1,0,0:0:0:0:
229,190,37964,6,2,P|107:221|35:157,1,225,6|2,0:0|0:0,0:0:0:0:
38,163,38595,1,8,0:0:0:0:
137,327,39227,6,0,L|317:301,2,150,4|0|8,0:1|0:0|0:1,0:0:0:0:
40,338,40174,1,0,0:0:0:0:
6,180,40490,2,2,P|89:214|176:170,1,150
261,71,40964,2,2,L|232:277,1,150
226,316,41438,1,4,0:3:0:0:
226,316,41753,6,2,B|327:332|327:332|414:282,1,150,6|2,0:0|0:0,0:0:0:0:
451,256,42227,1,4,0:3:0:0:
461,158,42385,2,2,B|470:48|470:48|402:16,1,150,10|2,0:0|0:0,0:0:0:0:
330,148,43016,6,2,P|206:158|138:50,1,225,6|2,0:0|0:0,0:0:0:0:
96,176,43648,2,0,P|78:149|53:88,2,75,8|0|2,0:0|0:0|0:0,0:0:0:0:
74,269,44122,1,4,0:3:0:0:
169,246,44280,6,2,P|241:246|328:282,1,150,6|2,0:0|0:0,0:0:0:0:
377,346,44753,1,4,0:3:0:0:
279,344,44911,2,2,B|227:318|182:325|182:325|96:352,1,150,10|2,0:0|0:0,0:0:0:0:
50,355,45385,1,0,0:0:0:0:
74,269,45543,6,2,B|89:194|89:194|32:119,1,150,6|2,0:0|0:0,0:0:0:0:
3,47,46016,1,4,0:3:0:0:
96,74,46174,2,0,P|164:57|197:14,2,75,8|0|2,0:0|0:3|0:0,0:0:0:0:
282,134,46806,5,4,0:3:0:0:
282,134,46964,1,0,0:0:0:0:
282,134,47122,2,0,B|352:114|362:206|446:157,1,150,2|4,0:2|0:3,0:0:0:0:
507,190,47595,2,0,L|478:291,1,75,0|2,0:0|0:2,0:0:0:0:
448,336,47911,1,0,0:3:0:0:
371,374,48069,5,4,0:3:0:0:
371,374,48227,1,0,0:3:0:0:
371,374,48385,2,0,P|278:374|214:318,1,150,2|4,0:2|0:3,0:0:0:0:
156,289,48859,1,4,0:3:0:0:
128,373,49016,1,2,0:2:0:0:
68,238,49332,6,0,P|78:136|133:93,1,150,4|0,0:0|0:0,0:0:0:0:
208,102,49806,1,0,0:0:0:0:
301,128,49964,2,0,B|335:212|335:212|321:296,1,150,8|0,0:0|0:0,0:0:0:0:
221,368,50595,5,6,0:0:0:0:
221,369,50753,2,2,P|201:297|210:223,1,150
209,223,51227,1,8,0:0:0:0:
165,84,51859,6,0,P|225:107|321:80,1,150,4|4,3:0|3:0,3:0:0:0:
392,40,52332,1,0,3:0:0:0:
373,135,52490,2,0,P|364:211|385:298,1,150,2|0,3:0|3:0,3:0:0:0:
459,338,52964,1,0,3:0:0:0:
353,360,53122,6,0,L|265:372,2,75,4|0|4,3:0|3:0|3:0,3:0:0:0:
459,338,53753,1,2,3:0:0:0:
459,338,54069,1,0,3:0:0:0:
450,240,54227,1,0,3:0:0:0:
485,148,54385,6,0,P|458:103|378:148,1,150,4|4,3:0|3:0,3:0:0:0:
331,218,54859,1,0,3:0:0:0:
238,247,55016,2,0,P|168:227|116:152,1,150,2|0,3:0|3:0,3:0:0:0:
99,72,55490,1,0,3:0:0:0:
41,150,55648,6,0,L|54:342,1,150,4|4,3:0|3:0,3:0:0:0:
51,299,56122,1,0,3:0:0:0:
51,299,56280,1,2,3:0:0:0:
203,256,56911,6,0,P|215:204|162:105,1,150,4|4,3:0|3:0,3:0:0:0:
85,86,57385,1,0,3:0:0:0:
171,40,57543,2,0,P|238:34|259:40,1,75,2|0,3:0|3:0,3:0:0:0:
335,72,57859,6,0,P|394:89|480:63,2,150,4|4|4,3:0|3:0|3:0,3:0:0:0:
244,35,58806,2,0,L|222:246,1,150,2|0,3:0|3:0,3:0:0:0:
220,296,59438,6,2,P|254:280|305:263,2,75,2|2|2,2:2|2:2|2:2,2:2:0:0:
131,344,59911,1,2,2:2:0:0:
123,246,60069,2,2,P|120:170|106:91,1,150,2|2,2:2|2:2,2:2:0:0:
107,97,60701,1,2,2:2:0:0:
366,206,61964,6,0,P|351:240|349:302,1,75,4|0,3:0|3:0,3:0:0:0:
403,357,62280,2,0,P|451:299|455:273,1,75,4|0,3:0|3:0,3:0:0:0:
468,207,62595,2,0,P|428:134|341:132,1,150,2|0,3:0|3:0,3:0:0:0:
264,142,63069,1,0,3:0:0:0:
264,142,63227,6,4,L|252:248,2,75,4|0|4,3:0|3:0|3:0,3:0:0:0:
223,61,63701,1,0,3:0:0:0:
136,36,63859,2,0,P|43:64|23:136,1,150,2|0,3:0|3:0,3:0:0:0:
117,193,64490,5,4,3:0:0:0:
117,193,64648,2,0,L|108:267,1,75,0|4,3:0|3:0,3:0:0:0:
185,293,64964,1,0,3:0:0:0:
185,293,65122,2,0,L|196:197,1,75,2|0,3:0|3:0,3:0:0:0:
279,193,65438,2,0,L|270:267,1,75,0|0,3:0|3:0,3:0:0:0:
277,354,65753,5,4,3:0:0:0:
368,372,65911,1,0,3:0:0:0:
447,324,66069,2,0,P|461:282|475:222,1,75,4|0,3:0|3:0,3:0:0:0:
488,160,66385,1,2,3:0:0:0:
488,160,66543,1,0,3:0:0:0:
447,79,66701,1,0,3:0:0:0:
356,76,66859,1,0,3:0:0:0:
279,122,67016,6,0,P|208:149|146:152,1,75,4|0,3:0|3:0,3:0:0:0:
121,126,67332,1,4,3:0:0:0:
121,126,67490,1,0,3:0:0:0:
63,198,67648,2,0,P|64:281|104:335,1,150,2|0,3:0|3:0,3:0:0:0:
184,372,68122,1,0,3:0:0:0:
184,372,68280,6,0,P|272:368|328:312,1,150,4|4,3:0|3:0,3:0:0:0:
396,311,68753,1,0,3:0:0:0:
417,235,68911,2,0,L|368:85,1,150,2|0,3:0|3:0,3:0:0:0:
266,79,69543,6,0,L|157:53,1,75,4|0,3:0|3:0,3:0:0:0:
125,121,69859,2,0,L|197:138,2,75,4|0|2,3:0|3:0|3:0,3:0:0:0:
153,206,70332,2,0,B|49:180|49:180|26:258,1,150,0|0,3:0|3:0,3:0:0:0:
64,309,70806,6,4,P|196:365|301:336,1,225,4|4,3:1|3:1,0:0:0:0:
272,350,71438,1,8,3:2:0:0:
299,143,79648,5,0,3:0:0:0:
299,143,81859,5,2,3:2:0:0:
299,143,82174,6,2,P|247:227|272:352,1,225,6|2,1:0|1:0,0:0:0:0:
357,363,82806,1,8,1:0:0:0:
357,363,82964,2,0,P|376:274|374:245,1,75,4|2,1:3|1:0,0:0:0:0:
364,200,83280,1,0,1:0:0:0:
466,107,83438,6,2,P|449:210|466:295,1,150,6|2,1:0|1:0,0:0:0:0:
467,368,83911,1,4,1:3:0:0:
314,340,84069,2,0,P|389:319|422:324,2,75,8|4|2,1:0|1:3|1:0,0:0:0:0:
231,376,84543,1,0,1:0:0:0:
133,370,84701,6,2,P|46:308|63:180,1,225,6|2,1:0|1:0,0:0:0:0:
118,141,85332,1,8,1:0:0:0:
118,141,85490,2,0,P|136:237|131:266,2,75,4|2|0,1:3|1:0|0:0,0:0:0:0:
169,81,85964,6,2,B|231:102|258:100|258:100|299:72|352:69|396:98,1,225,6|2,0:0|0:0,0:1:0:0:
444,159,86595,1,8,0:1:0:0:
444,159,86753,1,4,0:3:0:0:
444,159,87227,6,2,P|398:327|372:329,1,225,6|2,1:0|1:0,0:0:0:0:
310,284,87859,1,8,0:0:0:0:
310,284,88016,2,0,L|321:165,1,75,4|2,1:3|1:0,0:0:0:0:
307,119,88332,1,0,1:0:0:0:
189,51,88490,6,2,P|157:158|172:232,1,150,6|2,1:0|1:0,0:0:0:0:
226,272,88964,2,2,L|252:164,1,75,2|8,1:0|1:0,0:0:0:0:
394,56,89753,5,4,1:0:0:0:
127,81,90069,1,0,1:0:0:0:
409,232,90385,5,8,1:0:0:0:
126,210,90701,1,0,1:0:0:0:
333,350,91016,6,2,P|301:202|307:164,1,150,2|2,1:0|1:0,0:0:0:0:
179,350,91490,2,2,P|211:202|205:164,1,150,2|2,1:0|1:0,0:0:0:0:
254,126,91964,1,4,1:3:0:0:
254,126,92280,6,2,P|204:64|82:118,1,225,6|2,1:0|1:0,0:0:0:0:
55,195,92911,1,8,1:0:0:0:
55,195,93069,2,0,L|43:305,1,75,0|2,1:3|1:0,0:0:0:0:
69,361,93385,1,4,1:3:0:0:
164,376,93543,6,2,P|250:370|322:318,1,150,6|2,1:0|1:0,0:0:0:0:
352,253,94016,1,4,1:3:0:0:
255,270,94174,2,0,L|153:291,2,75,8|0|2,0:0|0:0|0:0,0:0:0:0:
296,180,94648,1,4,0:3:0:0:
261,88,94806,6,2,P|149:43|90:137,1,225,6|2,0:0|0:0,0:0:0:0:
83,208,95438,1,8,0:0:0:0:
83,208,95595,2,0,P|86:290|92:350,1,75,0|2,0:3|0:0,0:0:0:0:
129,371,95911,1,4,0:3:0:0:
213,323,96069,6,2,P|302:309|361:250,1,150,4|2,0:0|0:0,0:0:0:0:
332,174,96543,1,4,0:3:0:0:
244,130,96701,2,2,B|146:148|146:148|133:266,1,150,10|2,0:0|0:0,0:0:0:0:
129,371,97332,5,4,0:3:0:0:
243,336,97490,1,0,0:3:0:0:
351,355,97648,2,0,B|404:368|449:368|449:368|470:289,1,150,2|4,0:2|0:3,0:0:0:0:
478,229,98122,1,0,0:0:0:0:
478,229,98280,6,0,P|404:164|435:126,2,150,2|4|2,0:2|0:3|0:2,0:0:0:0:
322,122,99069,2,0,P|320:224|334:249,2,75,0|4|4,0:3|0:3|0:3,0:0:0:0:
390,50,99543,1,2,0:2:0:0:
256,192,99859,12,0,101438,1:0:0:0:
126,110,101753,6,4,P|101:188|111:245,2,112.5,4|4|4,0:3|0:3|0:3,0:3:0:0:
