osu file format v14

[General]
AudioFilename: deg.mp3
AudioLeadIn: 0
PreviewTime: 31648
Countdown: 0
SampleSet: Normal
StackLeniency: 0.7
Mode: 0
LetterboxInBreaks: 0
WidescreenStoryboard: 0

[Editor]
Bookmarks: 8822,61954,103875
DistanceSpacing: 1
BeatDivisor: 1
GridSize: 4
TimelineZoom: 1

[Metadata]
Title:Shitty Christmas
TitleUnicode:Shitty Christmas
Artist:Rocco La Bete
ArtistUnicode:Rocco La BĂȘte
Creator:matthewrigaud11
Version:Gordon's Shittier
Source:
Tags:gordon123 Christmas winter xmas
BeatmapID:1876680
BeatmapSetID:882985

[Difficulty]
HPDrainRate:3.5
CircleSize:2.8
OverallDifficulty:5
ApproachRate:5.5
SliderMultiplier:1.2
SliderTickRate:1

[Events]
//Background and Video events
0,0,"bag.jpg",0,0
//Break Periods
//Storyboard Layer 0 (Background)
//Storyboard Layer 1 (Fail)
//Storyboard Layer 2 (Pass)
//Storyboard Layer 3 (Foreground)
//Storyboard Sound Samples

[TimingPoints]
11438,315.789473684211,4,1,0,60,1,0
31648,-100,4,1,0,60,0,1
51859,-100,4,1,0,60,0,0
72069,-100,4,1,0,60,0,0
81859,-100,4,2,0,30,0,0
82174,-100,4,1,0,60,0,1
101753,292.682926829268,4,1,0,60,1,0
102338,-100,4,1,0,60,0,0

[Colours]
Combo1 : 5,120,9
Combo2 : 255,0,0

[HitObjects]
117,42,11437,6,0,L|109:169,1,120,4|4,3:0|3:0,3:0:0:0:
142,252,12069,1,2,3:0:0:0:
188,240,12227,1,0,3:0:0:0:
232,256,12385,1,0,3:0:0:0:
284,175,12701,2,0,L|291:55,2,120,4|4|2,3:0|3:3|3:0,3:0:0:0:
471,134,13964,6,0,L|464:254,1,120,4|4,3:0|3:0,3:0:0:0:
475,349,14595,1,2,3:0:0:0:
389,304,14911,1,0,3:0:0:0:
358,340,15069,1,0,3:0:0:0:
311,349,15227,2,0,L|180:347,2,120,4|4|2,3:0|3:0|3:0,3:0:0:0:
358,172,16490,6,0,P|348:99|203:74,1,240,4|2,3:0|3:0,3:0:0:0:
119,116,17438,1,4,3:0:0:0:
136,160,17595,1,0,3:0:0:0:
125,211,17753,2,0,P|135:284|280:309,1,240,4|2,3:0|3:1,3:0:0:0:
462,363,19016,6,0,L|466:110,1,240,4|2,3:0|3:0,3:0:0:0:
393,59,19964,1,0,3:0:0:0:
299,82,20280,2,0,L|298:214,2,120,0|4|2,3:0|3:0|3:0,3:0:0:0:
112,37,21543,6,0,P|49:83|78:238,1,240,4|2,3:0|3:0,3:0:0:0:
136,295,22490,1,4,3:0:0:0:
152,249,22648,1,0,3:0:0:0:
196,230,22806,2,0,L|316:237,1,120,4|4,3:0|3:0,3:0:0:0:
278,148,23438,2,0,L|158:141,1,120,2|0,3:0|3:0,3:0:0:0:
123,51,24069,6,0,L|371:65,1,240,4|2,3:0|3:0,3:0:0:0:
413,145,25016,1,0,3:0:0:0:
474,70,25332,2,0,P|510:131|393:239,1,240,4|2,3:0|3:0,3:0:0:0:
321,61,26595,6,0,L|178:72,1,120,4|4,3:0|3:0,3:0:0:0:
106,88,27227,1,2,3:0:0:0:
139,122,27385,1,0,3:0:0:0:
164,162,27543,2,0,P|187:225|171:295,2,120,2|4|4,3:2|3:0|3:0,3:0:0:0:
106,88,28490,1,2,3:0:0:0:
161,9,28806,1,0,3:0:0:0:
244,56,29122,6,0,P|298:74|367:70,1,120,4|4,3:0|3:0,3:0:0:0:
449,109,29753,2,0,L|452:240,1,120,2|0,3:0|3:0,3:0:0:0:
365,272,30385,2,0,P|305:269|248:287,1,120,4|0,3:1|3:0,3:0:0:0:
205,308,30859,1,0,3:0:0:0:
176,346,31016,1,2,3:2:0:0:
52,198,31648,6,0,P|30:140|149:39,1,240,6|8,0:1|0:0,0:0:0:0:
338,37,32911,2,0,P|440:84|432:196,1,240,6|8,0:0|0:0,0:0:0:0:
300,337,34174,6,0,L|50:346,1,240,6|8,0:0|0:0,0:0:0:0:
219,238,35438,2,0,L|469:229,1,240,6|8,0:0|0:0,0:0:0:0:
295,128,36701,6,0,B|203:132|203:132|151:113|151:113|54:115,1,240,6|8,0:0|0:0,0:0:0:0:
229,27,37964,2,0,B|321:25|321:25|373:44|373:44|465:40,1,240,6|8,0:0|0:0,0:0:0:0:
484,231,39227,6,0,P|477:280|425:334,1,120,4|0,0:1|0:0,0:0:0:0:
387,244,39859,1,8,0:1:0:0:
291,240,40174,1,0,0:0:0:0:
218,304,40490,2,0,L|38:331,2,180,2|2|4,0:0|0:0|0:3,0:0:0:0:
291,241,41753,6,0,P|276:186|307:117,1,120,6|2,0:0|0:0,0:0:0:0:
368,192,42385,1,10,0:0:0:0:
397,153,42543,1,0,0:0:0:0:
447,138,42701,1,2,0:0:0:0:
415,47,43016,2,0,P|354:56|292:22,1,120,6|0,0:0|0:0,0:0:0:0:
217,77,43648,2,0,P|156:68|94:102,1,120,8|2,0:0|0:0,0:0:0:0:
87,186,44280,6,0,L|84:318,1,120,6|2,0:0|0:0,0:0:0:0:
164,358,44911,1,10,0:0:0:0:
210,347,45069,1,0,0:0:0:0:
256,359,45227,1,2,0:0:0:0:
333,302,45543,2,0,L|335:182,1,120,6|2,0:0|0:0,0:0:0:0:
391,97,46174,1,8,0:0:0:0:
436,82,46332,1,0,0:3:0:0:
481,97,46490,1,2,0:0:0:0:
439,183,46806,6,0,P|469:228|462:312,1,120,4|2,0:3|0:2,0:0:0:0:
379,259,47438,2,0,L|251:258,1,120,4|2,0:3|0:2,0:0:0:0:
225,167,48069,2,0,L|353:168,1,120,4|2,0:3|0:2,0:0:0:0:
416,103,48701,1,4,0:3:0:0:
228,62,49332,6,0,P|137:105|139:234,1,240,4|8,0:0|0:0,0:0:0:0:
209,296,50280,1,0,0:0:0:0:
299,326,50595,2,0,L|481:336,2,180,6|2|0,0:0|0:0|0:0,0:0:0:0:
280,231,51859,6,0,L|408:238,1,120,4|4,3:0|3:0,3:0:0:0:
458,161,52490,1,2,3:0:0:0:
393,89,52806,2,0,P|447:65|511:81,2,120,0|4|4,3:0|3:0|3:0,3:0:0:0:
335,165,53753,2,0,L|204:172,1,120,2|0,3:0|3:0,3:0:0:0:
144,106,54385,5,4,3:0:0:0:
113,142,54543,1,0,3:0:0:0:
111,189,54701,1,4,3:0:0:0:
171,263,55016,2,0,P|225:271|270:327,1,120,2|0,3:0|3:0,3:0:0:0:
180,360,55648,2,0,L|46:360,1,120,4|4,3:0|3:0,3:0:0:0:
74,264,56280,1,2,3:0:0:0:
6,84,56911,6,0,P|61:68|130:79,1,120,4|4,3:0|3:0,3:0:0:0:
195,138,57543,1,2,3:0:0:0:
204,90,57701,1,0,3:0:0:0:
216,44,57859,1,4,3:0:0:0:
287,107,58174,2,0,L|407:115,2,120,4|4|2,3:0|3:0|3:0,3:0:0:0:
195,138,59122,1,0,3:0:0:0:
169,230,59438,6,0,P|191:338|323:336,1,240,2|2,3:2|3:2,3:0:0:0:
357,270,60385,1,2,3:2:0:0:
452,265,60701,1,2,3:2:0:0:
209,109,61648,1,0,3:0:0:0:
275,39,61964,6,0,L|412:30,2,120,4|4|2,3:0|3:0|3:0,3:0:0:0:
209,109,62911,1,0,3:0:0:0:
153,30,63227,2,0,P|115:84|123:148,1,120,4|4,3:0|3:0,3:0:0:0:
146,174,63701,1,0,3:0:0:0:
183,204,63859,2,0,L|205:332,1,120,2|0,3:0|3:0,3:0:0:0:
127,381,64490,5,4,3:0:0:0:
43,333,64806,1,4,3:0:0:0:
66,239,65122,2,0,L|86:120,1,120,2|0,3:0|3:0,3:0:0:0:
178,95,65753,2,0,P|236:117|296:110,1,120,4|4,3:0|3:0,3:0:0:0:
336,90,66227,1,0,3:0:0:0:
371,122,66385,2,0,L|383:245,1,120,2|0,3:0|3:0,3:0:0:0:
351,332,67016,5,4,3:0:0:0:
255,326,67332,2,0,L|243:206,1,120,4|2,3:0|3:0,3:0:0:0:
192,123,67964,1,0,3:0:0:0:
146,106,68122,1,0,3:0:0:0:
108,135,68280,2,0,L|120:258,1,120,4|4,3:0|3:0,3:0:0:0:
61,331,68911,1,2,3:0:0:0:
147,372,69227,1,0,3:0:0:0:
207,297,69543,6,0,P|258:317|331:294,1,120,4|4,3:0|3:0,3:0:0:0:
356,271,70016,1,0,3:0:0:0:
364,223,70174,1,2,3:0:0:0:
268,212,70490,1,0,3:0:0:0:
172,198,70806,2,0,P|117:164|101:107,1,120,4|0,3:1|3:0,3:0:0:0:
107,65,71280,1,4,3:1:0:0:
144,34,71438,1,8,3:2:0:0:
331,74,72069,6,0,P|431:114|418:241,1,240,0|0,3:0|3:0,3:0:0:0:
352,171,73016,1,0,3:0:0:0:
315,259,73332,2,0,L|73:272,1,240,0|0,3:0|3:0,3:0:0:0:
108,181,74280,1,0,3:0:0:0:
101,85,74595,6,0,L|343:72,2,240,0|0|0,3:0|3:0|3:0,3:0:0:0:
75,271,76490,1,0,3:0:0:0:
245,358,77122,6,0,P|304:376|389:237,1,240,0|0,3:0|3:0,3:0:0:0:
302,278,78069,1,0,3:0:0:0:
247,198,78385,2,0,L|-2:211,1,240,0|0,3:0|3:0,3:0:0:0:
50,124,79332,1,0,3:0:0:0:
36,28,79648,6,0,L|275:15,3,240,0|0|0|0,3:0|3:0|3:0|3:0,3:0:0:0:
345,81,81859,1,2,3:2:0:0:
426,30,82174,6,0,P|442:98|312:171,1,240,6|8,1:0|1:0,0:0:0:0:
182,32,83438,2,0,P|73:57|69:169,1,240,6|8,1:0|1:0,0:0:0:0:
184,321,84701,6,0,L|439:325,1,240,6|8,1:0|1:0,0:0:0:0:
259,224,85964,2,0,L|19:220,1,240,6|8,0:0|0:1,0:0:0:0:
184,122,87227,6,0,B|273:123|273:123|326:104|326:104|420:104,1,240,6|8,1:0|0:0,0:0:0:0:
244,27,88490,2,0,B|155:26|155:26|102:45|102:45|8:45,1,240,6|8,1:0|1:0,0:0:0:0:
120,200,89753,6,0,P|142:248|128:330,1,120,4|0,1:0|1:0,0:0:0:0:
222,357,90385,1,8,1:0:0:0:
315,335,90701,1,0,1:0:0:0:
332,240,91016,2,0,L|515:221,2,180,2|2|4,1:0|1:0|1:3,0:0:0:0:
279,159,92280,6,0,P|238:202|238:266,1,120,6|0,1:0|0:0,0:0:0:0:
277,346,92911,1,8,1:0:0:0:
240,377,93069,1,0,1:3:0:0:
191,378,93227,1,2,1:0:0:0:
141,295,93543,2,0,L|18:285,1,120,6|2,1:0|1:0,0:0:0:0:
56,195,94174,2,0,P|85:150|64:67,1,120,8|2,0:0|0:0,0:0:0:0:
144,16,94806,6,0,L|263:25,1,120,6|0,0:0|0:0,0:0:0:0:
338,86,95438,1,8,0:0:0:0:
339,133,95595,1,0,0:3:0:0:
339,181,95753,1,2,0:0:0:0:
263,240,96069,2,0,P|315:277|382:268,1,120,4|2,0:0|0:0,0:0:0:0:
452,226,96701,1,10,0:0:0:0:
471,181,96859,1,0,0:0:0:0:
490,137,97016,1,2,0:0:0:0:
435,58,97332,6,0,L|307:83,1,120,4|2,0:3|0:2,0:0:0:0:
243,142,97964,2,0,L|115:117,1,120,4|2,0:3|0:2,0:0:0:0:
71,39,98595,2,0,P|38:75|33:148,1,120,4|2,0:3|0:2,0:0:0:0:
60,182,99069,1,0,0:3:0:0:
65,229,99227,1,4,0:3:0:0:
256,192,99859,12,4,101753,0:3:0:0:
