osu file format v14

[General]
AudioFilename: audio.mp3
AudioLeadIn: 0
PreviewTime: 24741
Countdown: 0
SampleSet: Normal
StackLeniency: 0.7
Mode: 1
LetterboxInBreaks: 0
WidescreenStoryboard: 1

[Editor]
Bookmarks: 5044,25254,45465,55570,65675,75780,78307,95991,106096
DistanceSpacing: 1.4
BeatDivisor: 8
GridSize: 4
TimelineZoom: 1.3

[Metadata]
Title:alone on ChristMATH
TitleUnicode:alone on ChristMATH
Artist:Robin Gan
ArtistUnicode:Robin Gan
Creator:Irone OSU
Version:iRedi's Muzukashii
Source:
Tags:Aurorance KennethBBG iRedi Mathematics maths christmas queue english hip hop hiphop hip-hop rap
BeatmapID:4335456
BeatmapSetID:1977265

[Difficulty]
HPDrainRate:5
CircleSize:2
OverallDifficulty:5
ApproachRate:2
SliderMultiplier:2.8
SliderTickRate:1

[Events]
//Background and Video events
0,0,"alone on christmath.jpg",0,-20
//Break Periods
2,96191,103273
//Storyboard Layer 0 (Background)
//Storyboard Layer 1 (Fail)
//Storyboard Layer 2 (Pass)
//Storyboard Layer 3 (Foreground)
//Storyboard Layer 4 (Overlay)
//Storyboard Sound Samples

[TimingPoints]
5044,631.578947368421,4,1,0,69,1,0
65675,-100,4,1,0,69,0,1
75780,-100,4,1,0,69,0,0
96070,-100,4,1,0,42,0,0

[HitObjects]
256,192,4254,5,0,0:0:0:0:
256,192,4412,1,8,0:0:0:0:
256,192,4728,1,0,0:0:0:0:
256,192,5044,1,8,0:0:0:0:
256,192,5359,1,8,0:0:0:0:
256,192,5517,1,8,0:0:0:0:
256,192,5675,1,0,0:0:0:0:
256,192,5991,1,8,0:0:0:0:
256,192,6307,1,8,0:0:0:0:
256,192,6938,1,0,0:0:0:0:
256,192,7096,1,0,0:0:0:0:
256,192,7254,1,8,0:0:0:0:
256,192,7570,1,0,0:0:0:0:
256,192,7886,1,8,0:0:0:0:
256,192,8044,1,8,0:0:0:0:
256,192,8201,1,0,0:0:0:0:
256,192,8359,1,0,0:0:0:0:
256,192,8517,1,8,0:0:0:0:
256,192,8833,1,0,0:0:0:0:
256,192,9465,1,0,0:0:0:0:
256,192,9622,1,8,0:0:0:0:
256,192,9780,1,0,0:0:0:0:
256,192,10096,1,8,0:0:0:0:
256,192,10412,1,0,0:0:0:0:
256,192,10570,1,0,0:0:0:0:
256,192,10728,1,0,0:0:0:0:
256,192,10886,1,8,0:0:0:0:
256,192,11201,1,0,0:0:0:0:
256,192,11675,1,0,0:0:0:0:
256,192,11991,1,8,0:0:0:0:
256,192,12149,1,0,0:0:0:0:
256,192,12307,1,8,0:0:0:0:
256,192,12465,1,0,0:0:0:0:
256,192,12938,1,0,0:0:0:0:
256,192,13254,1,8,0:0:0:0:
256,192,13412,1,0,0:0:0:0:
256,192,13728,1,0,0:0:0:0:
256,192,14201,1,0,0:0:0:0:
256,192,14517,1,8,0:0:0:0:
256,192,14675,1,0,0:0:0:0:
256,192,14833,1,0,0:0:0:0:
256,192,14991,1,8,0:0:0:0:
256,192,15149,1,8,0:0:0:0:
256,192,15465,1,0,0:0:0:0:
256,192,15780,1,8,0:0:0:0:
256,192,16096,1,0,0:0:0:0:
256,192,16254,1,8,0:0:0:0:
256,192,16570,1,8,0:0:0:0:
256,192,16728,1,0,0:0:0:0:
256,192,17044,1,0,0:0:0:0:
256,192,17201,1,0,0:0:0:0:
256,192,17359,1,8,0:0:0:0:
256,192,17517,1,0,0:0:0:0:
256,192,17675,1,8,0:0:0:0:
256,192,17991,1,0,0:0:0:0:
256,192,18307,1,0,0:0:0:0:
256,192,18622,1,0,0:0:0:0:
256,192,18780,1,0,0:0:0:0:
256,192,19096,1,8,0:0:0:0:
256,192,19254,1,0,0:0:0:0:
256,192,19570,1,8,0:0:0:0:
256,192,19728,1,0,0:0:0:0:
256,192,19886,1,8,0:0:0:0:
256,192,20044,1,8,0:0:0:0:
256,192,20201,1,0,0:0:0:0:
256,192,20517,1,8,0:0:0:0:
256,192,20833,1,0,0:0:0:0:
256,192,21149,1,8,0:0:0:0:
256,192,21307,1,0,0:0:0:0:
256,192,21622,1,0,0:0:0:0:
256,192,21780,1,8,0:0:0:0:
256,192,22096,1,0,0:0:0:0:
256,192,22254,1,8,0:0:0:0:
256,192,22412,1,0,0:0:0:0:
256,192,22570,1,8,0:0:0:0:
256,192,22728,1,8,0:0:0:0:
256,192,23044,1,0,0:0:0:0:
256,192,23359,1,0,0:0:0:0:
256,192,23517,1,8,0:0:0:0:
256,192,23675,1,0,0:0:0:0:
256,192,23833,1,8,0:0:0:0:
256,192,23991,1,8,0:0:0:0:
256,192,24149,1,0,0:0:0:0:
256,192,24465,1,0,0:0:0:0:
256,192,24622,1,8,0:0:0:0:
256,192,24938,1,0,0:0:0:0:
256,192,25254,1,8,0:0:0:0:
256,192,25570,1,0,0:0:0:0:
256,192,25728,1,8,0:0:0:0:
256,192,25807,1,8,0:0:0:0:
256,192,25886,1,8,0:0:0:0:
256,192,26044,1,8,0:0:0:0:
256,192,26201,1,0,0:0:0:0:
256,192,26359,1,0,0:0:0:0:
256,192,26517,1,8,0:0:0:0:
256,192,26833,1,0,0:0:0:0:
256,192,27149,1,0,0:0:0:0:
256,192,27307,1,0,0:0:0:0:
256,192,27465,1,8,0:0:0:0:
256,192,27780,1,0,0:0:0:0:
256,192,28096,1,8,0:0:0:0:
256,192,28254,1,0,0:0:0:0:
256,192,28333,1,0,0:0:0:0:
256,192,28412,1,0,0:0:0:0:
256,192,28570,1,8,0:0:0:0:
256,192,28728,1,0,0:0:0:0:
256,192,28886,1,0,0:0:0:0:
256,192,29044,1,8,0:0:0:0:
256,192,29359,1,8,0:0:0:0:
256,192,29517,1,0,0:0:0:0:
256,192,29596,1,0,0:0:0:0:
256,192,29675,1,0,0:0:0:0:
256,192,29833,1,8,0:0:0:0:
256,192,29991,1,8,0:0:0:0:
256,192,30307,1,0,0:0:0:0:
256,192,30622,1,0,0:0:0:0:
256,192,30780,1,8,0:0:0:0:
256,192,30859,1,8,0:0:0:0:
256,192,30938,1,8,0:0:0:0:
256,192,31096,1,8,0:0:0:0:
256,192,31254,1,0,0:0:0:0:
256,192,31570,1,8,0:0:0:0:
256,192,31886,1,0,0:0:0:0:
256,192,32201,1,8,0:0:0:0:
256,192,32280,1,8,0:0:0:0:
256,192,32359,1,8,0:0:0:0:
256,192,32517,1,0,0:0:0:0:
256,192,32675,1,0,0:0:0:0:
256,192,32833,1,8,0:0:0:0:
256,192,33149,1,0,0:0:0:0:
256,192,33307,1,8,0:0:0:0:
256,192,33386,1,8,0:0:0:0:
256,192,33465,1,8,0:0:0:0:
256,192,33622,1,8,0:0:0:0:
256,192,33780,1,0,0:0:0:0:
256,192,33938,1,0,0:0:0:0:
256,192,34096,1,8,0:0:0:0:
256,192,34412,1,0,0:0:0:0:
256,192,34728,1,8,0:0:0:0:
256,192,35044,1,8,0:0:0:0:
256,192,35359,1,0,0:0:0:0:
256,192,35517,1,8,0:0:0:0:
256,192,35675,1,8,0:0:0:0:
256,192,35991,1,0,0:0:0:0:
256,192,36149,1,8,0:0:0:0:
256,192,36228,1,8,0:0:0:0:
256,192,36307,1,8,0:0:0:0:
256,192,36465,1,8,0:0:0:0:
256,192,36622,1,0,0:0:0:0:
256,192,36938,1,8,0:0:0:0:
256,192,37254,1,8,0:0:0:0:
256,192,37412,1,0,0:0:0:0:
256,192,37570,1,8,0:0:0:0:
256,192,37886,1,0,0:0:0:0:
256,192,38044,1,8,0:0:0:0:
256,192,38201,1,8,0:0:0:0:
256,192,38517,1,0,0:0:0:0:
256,192,38833,1,8,0:0:0:0:
256,192,38991,1,0,0:0:0:0:
256,192,39070,1,0,0:0:0:0:
256,192,39149,1,0,0:0:0:0:
256,192,39307,1,0,0:0:0:0:
256,192,39465,1,8,0:0:0:0:
256,192,39780,1,0,0:0:0:0:
256,192,40096,1,0,0:0:0:0:
256,192,40412,1,8,0:0:0:0:
256,192,40570,1,0,0:0:0:0:
256,192,40728,1,0,0:0:0:0:
256,192,41044,1,8,0:0:0:0:
256,192,41201,1,0,0:0:0:0:
256,192,41280,1,0,0:0:0:0:
256,192,41359,1,0,0:0:0:0:
256,192,41517,1,8,0:0:0:0:
256,192,41675,1,8,0:0:0:0:
256,192,41991,1,0,0:0:0:0:
256,192,42149,1,8,0:0:0:0:
256,192,42307,1,0,0:0:0:0:
256,192,42622,1,0,0:0:0:0:
256,192,42938,1,8,0:0:0:0:
256,192,43096,1,0,0:0:0:0:
256,192,43254,1,0,0:0:0:0:
256,192,43570,1,8,0:0:0:0:
256,192,43886,1,0,0:0:0:0:
256,192,44044,1,8,0:0:0:0:
256,192,44122,1,8,0:0:0:0:
256,192,44201,1,8,0:0:0:0:
256,192,44359,1,0,0:0:0:0:
256,192,44517,1,8,0:0:0:0:
256,192,44675,1,0,0:0:0:0:
256,192,44833,1,8,0:0:0:0:
256,192,45149,1,8,0:0:0:0:
256,192,45465,1,0,0:0:0:0:
256,192,45938,1,8,0:0:0:0:
256,192,46096,1,0,0:0:0:0:
256,192,46254,1,0,0:0:0:0:
256,192,46570,1,0,0:0:0:0:
256,192,46886,1,0,0:0:0:0:
256,192,47044,1,8,0:0:0:0:
256,192,47359,1,0,0:0:0:0:
256,192,47517,1,0,0:0:0:0:
256,192,47833,1,8,0:0:0:0:
256,192,48307,1,0,0:0:0:0:
256,192,48465,1,0,0:0:0:0:
256,192,48780,1,8,0:0:0:0:
256,192,48938,1,0,0:0:0:0:
256,192,49096,1,0,0:0:0:0:
256,192,49254,1,8,0:0:0:0:
256,192,49675,1,8,0:0:0:0:
256,192,49886,1,0,0:0:0:0:
256,192,50307,1,8,0:0:0:0:
256,192,50517,1,0,0:0:0:0:
256,192,50833,1,8,0:0:0:0:
256,192,50991,1,8,0:0:0:0:
256,192,51307,1,0,0:0:0:0:
256,192,51465,1,8,0:0:0:0:
256,192,51780,1,0,0:0:0:0:
256,192,51938,1,8,0:0:0:0:
256,192,52096,1,8,0:0:0:0:
256,192,52254,1,0,0:0:0:0:
256,192,52570,1,0,0:0:0:0:
256,192,53044,1,8,0:0:0:0:
256,192,53359,1,0,0:0:0:0:
256,192,53675,1,0,0:0:0:0:
256,192,53833,1,8,0:0:0:0:
256,192,53991,1,0,0:0:0:0:
256,192,54149,1,0,0:0:0:0:
256,192,54307,1,8,0:0:0:0:
256,192,54622,1,8,0:0:0:0:
256,192,54780,1,0,0:0:0:0:
256,192,55096,1,0,0:0:0:0:
256,192,55570,1,8,0:0:0:0:
256,192,55886,1,0,0:0:0:0:
256,192,56044,1,8,0:0:0:0:
256,192,56359,1,0,0:0:0:0:
256,192,56517,1,0,0:0:0:0:
256,192,56675,1,8,0:0:0:0:
256,192,56833,1,8,0:0:0:0:
256,192,57149,1,8,0:0:0:0:
256,192,57307,1,8,0:0:0:0:
256,192,57465,1,0,0:0:0:0:
256,192,57780,1,8,0:0:0:0:
256,192,58096,1,0,0:0:0:0:
256,192,58570,1,0,0:0:0:0:
256,192,58728,1,8,0:0:0:0:
256,192,59044,1,0,0:0:0:0:
256,192,59201,1,0,0:0:0:0:
256,192,59517,1,8,0:0:0:0:
256,192,59991,1,0,0:0:0:0:
256,192,60307,1,0,0:0:0:0:
256,192,60622,1,8,0:0:0:0:
256,192,60938,1,0,0:0:0:0:
256,192,61096,1,8,0:0:0:0:
256,192,61412,1,8,0:0:0:0:
256,192,61570,1,0,0:0:0:0:
256,192,61728,1,0,0:0:0:0:
256,192,61886,1,8,0:0:0:0:
256,192,62201,1,8,0:0:0:0:
256,192,62359,1,8,0:0:0:0:
256,192,62517,1,0,0:0:0:0:
256,192,62833,1,0,0:0:0:0:
256,192,63149,1,8,0:0:0:0:
256,192,63622,1,0,0:0:0:0:
256,192,63780,1,8,0:0:0:0:
256,192,64096,1,8,0:0:0:0:
256,192,64254,1,0,0:0:0:0:
256,192,64412,1,8,0:0:0:0:
256,192,65675,1,0,0:0:0:0:
256,192,65991,1,8,0:0:0:0:
256,192,66307,1,0,0:0:0:0:
256,192,66465,1,8,0:0:0:0:
256,192,66544,1,8,0:0:0:0:
256,192,66622,1,8,0:0:0:0:
256,192,66780,1,0,0:0:0:0:
256,192,67096,1,8,0:0:0:0:
256,192,67254,1,0,0:0:0:0:
256,192,67570,1,0,0:0:0:0:
256,192,67728,1,0,0:0:0:0:
256,192,67886,1,8,0:0:0:0:
256,192,68044,1,0,0:0:0:0:
256,192,68201,1,8,0:0:0:0:
256,192,68517,1,8,0:0:0:0:
256,192,68833,1,0,0:0:0:0:
256,192,69149,1,8,0:0:0:0:
256,192,69307,1,0,0:0:0:0:
256,192,69386,1,0,0:0:0:0:
256,192,69465,1,0,0:0:0:0:
256,192,69622,1,8,0:0:0:0:
256,192,69780,1,8,0:0:0:0:
256,192,70096,1,0,0:0:0:0:
256,192,70254,1,8,0:0:0:0:
256,192,70412,1,8,0:0:0:0:
256,192,70570,1,8,0:0:0:0:
256,192,70728,1,0,0:0:0:0:
256,192,71044,1,0,0:0:0:0:
256,192,71359,1,8,0:0:0:0:
256,192,71675,1,0,0:0:0:0:
256,192,71833,1,8,0:0:0:0:
256,192,71912,1,8,0:0:0:0:
256,192,71991,1,8,0:0:0:0:
256,192,72149,1,8,0:0:0:0:
256,192,72307,1,0,0:0:0:0:
256,192,72622,1,0,0:0:0:0:
256,192,72780,1,8,0:0:0:0:
256,192,72938,1,0,0:0:0:0:
256,192,73096,1,8,0:0:0:0:
256,192,73254,1,8,0:0:0:0:
256,192,73570,1,0,0:0:0:0:
256,192,73886,1,0,0:0:0:0:
256,192,74044,1,8,0:0:0:0:
256,192,74201,1,0,0:0:0:0:
256,192,74359,1,8,0:0:0:0:
256,192,74517,1,8,0:0:0:0:
256,192,74833,1,0,0:0:0:0:
256,192,75149,1,8,0:0:0:0:
256,192,75780,1,8,0:0:0:0:
256,192,75938,1,8,0:0:0:0:
256,192,76096,1,8,0:0:0:0:
256,192,76412,1,8,0:0:0:0:
256,192,76728,1,0,0:0:0:0:
256,192,77044,1,8,0:0:0:0:
256,192,77359,1,0,0:0:0:0:
256,192,77675,1,8,0:0:0:0:
256,192,78307,1,0,0:0:0:0:
256,192,78622,1,0,0:0:0:0:
256,192,78780,1,8,0:0:0:0:
256,192,78859,1,8,0:0:0:0:
256,192,78938,1,8,0:0:0:0:
256,192,79096,1,0,0:0:0:0:
256,192,79254,1,8,0:0:0:0:
256,192,79570,1,0,0:0:0:0:
256,192,79886,1,8,0:0:0:0:
256,192,80044,1,0,0:0:0:0:
256,192,80201,1,8,0:0:0:0:
256,192,80359,1,8,0:0:0:0:
256,192,80833,1,0,0:0:0:0:
256,192,81149,1,8,0:0:0:0:
256,192,81307,1,0,0:0:0:0:
256,192,81386,1,0,0:0:0:0:
256,192,81465,1,0,0:0:0:0:
256,192,81622,1,8,0:0:0:0:
256,192,81938,1,0,0:0:0:0:
256,192,82096,1,8,0:0:0:0:
256,192,82412,1,0,0:0:0:0:
256,192,82570,1,0,0:0:0:0:
256,192,82728,1,8,0:0:0:0:
256,192,82886,1,0,0:0:0:0:
256,192,83201,1,0,0:0:0:0:
256,192,83359,1,8,0:0:0:0:
256,192,83675,1,0,0:0:0:0:
256,192,83833,1,8,0:0:0:0:
256,192,83912,1,8,0:0:0:0:
256,192,83991,1,8,0:0:0:0:
256,192,84149,1,8,0:0:0:0:
256,192,84307,1,0,0:0:0:0:
256,192,84622,1,0,0:0:0:0:
256,192,84938,1,8,0:0:0:0:
256,192,85096,1,0,0:0:0:0:
256,192,85254,1,0,0:0:0:0:
256,192,85570,1,8,0:0:0:0:
256,192,85886,1,0,0:0:0:0:
256,192,86201,1,8,0:0:0:0:
256,192,86359,1,0,0:0:0:0:
256,192,86517,1,8,0:0:0:0:
256,192,86675,1,0,0:0:0:0:
256,192,86991,1,8,0:0:0:0:
256,192,87149,1,0,0:0:0:0:
256,192,87307,1,8,0:0:0:0:
256,192,87386,1,8,0:0:0:0:
256,192,87465,1,8,0:0:0:0:
256,192,87622,1,8,0:0:0:0:
256,192,87780,1,0,0:0:0:0:
256,192,88096,1,0,0:0:0:0:
256,192,88412,1,8,0:0:0:0:
256,192,88727,1,0,0:0:0:0:
256,192,88885,1,8,0:0:0:0:
256,192,89044,1,8,0:0:0:0:
256,192,89201,1,0,0:0:0:0:
256,192,89517,1,8,0:0:0:0:
256,192,89675,1,0,0:0:0:0:
256,192,89833,1,0,0:0:0:0:
256,192,89912,1,0,0:0:0:0:
256,192,89991,1,0,0:0:0:0:
256,192,90148,1,8,0:0:0:0:
256,192,90306,1,0,0:0:0:0:
256,192,90938,1,0,0:0:0:0:
256,192,91096,1,8,0:0:0:0:
256,192,91254,1,8,0:0:0:0:
256,192,91412,1,0,0:0:0:0:
256,192,91570,1,8,0:0:0:0:
256,192,91886,1,0,0:0:0:0:
256,192,92044,1,0,0:0:0:0:
256,192,92201,1,8,0:0:0:0:
256,192,92359,1,0,0:0:0:0:
256,192,92438,1,0,0:0:0:0:
256,192,92517,1,0,0:0:0:0:
256,192,92675,1,8,0:0:0:0:
256,192,92833,1,0,0:0:0:0:
256,192,93149,1,8,0:0:0:0:
256,192,93465,1,0,0:0:0:0:
256,192,93780,1,0,0:0:0:0:
256,192,93938,1,8,0:0:0:0:
256,192,94096,1,0,0:0:0:0:
256,192,94254,1,0,0:0:0:0:
256,192,94412,1,8,0:0:0:0:
256,192,94728,1,0,0:0:0:0:
256,192,94886,1,8,0:0:0:0:
256,192,94965,1,8,0:0:0:0:
256,192,95044,1,8,0:0:0:0:
256,192,95201,1,0,0:0:0:0:
256,192,95359,1,8,0:0:0:0:
256,192,95675,1,0,0:0:0:0:
256,192,95991,1,12,0:0:0:0:
256,192,104833,12,0,106096,0:0:0:0:
