osu file format v14

[General]
AudioFilename: audio.mp3
AudioLeadIn: 0
PreviewTime: -1
Countdown: 1
SampleSet: None
StackLeniency: 0.9
Mode: 0
LetterboxInBreaks: 0
WidescreenStoryboard: 0

[Editor]
Bookmarks: 11245,44979,46385,74781
DistanceSpacing: 1.6
BeatDivisor: 8
GridSize: 16
TimelineZoom: 3.899998

[Metadata]
Title:MOE SHOP RANT
TitleUnicode:MOE SHOP RANT
Artist:Robi en Rose
ArtistUnicode:RobĂ­ en Rose
Creator:Cyllinus
Version:Collab
Source:
Tags:TyTy
BeatmapID:1291600
BeatmapSetID:598772

[Difficulty]
HPDrainRate:7
CircleSize:4
OverallDifficulty:8
ApproachRate:9
SliderMultiplier:1.92
SliderTickRate:4

[Events]
//Background and Video events
//Break Periods
//Storyboard Layer 0 (Background)
//Storyboard Layer 1 (Fail)
//Storyboard Layer 2 (Pass)
//Storyboard Layer 3 (Foreground)
//Storyboard Sound Samples

[TimingPoints]
11246,351.390922401171,4,2,0,60,1,0
11948,-125,4,2,0,60,0,0
12651,-166.666666666667,4,2,0,60,0,0
19679,-142.857142857143,4,2,0,60,0,0
21084,-125,4,2,0,60,0,0
22139,-111.111111111111,4,2,0,60,0,0
22490,-100,4,2,0,60,0,0
33910,-86.9565217391304,4,2,0,60,0,0
34086,-76.9230769230769,4,2,0,60,0,0
34262,-68.9655172413793,4,2,0,60,0,0
34437,-100,4,2,0,60,0,0
37424,-166.666666666667,4,2,0,60,0,0
37951,-100,4,2,0,60,0,0
39532,-86.9565217391304,4,2,0,60,0,0
39708,-76.9230769230769,4,2,0,60,0,0
39884,-68.9655172413793,4,2,0,60,0,0
40060,-100,4,2,0,60,0,0
40235,-166.666666666667,4,2,0,60,0,0
40762,-100,4,2,0,60,0,0
44979,-100,4,2,0,60,0,0
52007,-200,4,2,0,60,0,0
54203,-200,4,1,0,60,0,0
54423,-100,4,2,0,60,0,0
55872,-50,4,2,0,60,0,0
55916,-50,4,2,0,75,0,1
62768,-100,4,2,0,60,0,1
65577,-50,4,2,0,60,0,0
65623,-62.5,4,2,0,60,0,0
67644,-50,4,2,0,75,0,1
67863,-76.9230769230769,4,2,0,75,0,1

[HitObjects]
73,86,11245,6,0,L|84:294,1,192
181,69,11948,2,0,L|172:222,1,153.6
417,123,12651,6,0,P|358:97|293:123,1,115.199996484375
294,200,13178,2,0,P|352:225|418:200,1,115.199996484375
334,296,13705,2,0,L|339:364,1,57.5999982421876
140,306,14057,6,0,P|200:306|266:314,1,115.199996484375
79,255,14584,1,0,0:0:0:0:
103,182,14759,2,0,P|106:151|100:102,1,57.5999982421876
30,41,15111,2,0,P|27:72|33:121,1,57.5999982421876
144,138,15462,6,0,B|192:131|192:131|211:135|211:135|266:128,1,115.199996484375
371,196,15989,2,0,P|309:199|260:246,1,115.199996484375
288,316,16516,2,0,L|373:310,1,57.5999982421876
454,238,16868,6,0,L|448:117,1,115.199996484375
448,122,17571,2,0,P|408:129|319:110,1,115.199996484375
94,70,18273,6,0,P|81:125|115:180,1,115.199996484375
200,161,18800,2,0,P|212:105|178:50,1,115.199996484375
39,256,19327,2,0,L|55:326,1,57.5999982421876
134,338,19679,6,0,B|214:323|194:366|276:350,1,134.399995898438
314,296,20206,1,0,0:0:0:0:
469,352,20382,2,0,P|466:315|453:273,1,67.1999979492188
418,141,20733,2,0,P|410:179|380:224,1,67.1999979492188
257,245,21084,6,0,L|95:212,1,153.6
287,167,21612,2,0,L|449:134,1,153.6
206,46,22139,2,0,P|200:95|221:145,1,86.3999973632813
413,222,22490,6,0,L|299:210,1,96
148,268,22841,1,0,0:0:0:0:
148,268,23017,1,0,0:0:0:0:
377,299,23193,2,0,L|263:287,1,96
114,360,23544,2,0,P|143:308|130:219,1,144
55,113,23896,6,0,L|63:315,1,192
243,211,24423,2,0,L|29:175,1,192
148,327,24950,2,0,L|249:308,1,96
435,246,25301,6,0,P|447:191|428:130,1,96
353,88,25653,1,0,0:0:0:0:
353,88,25828,1,0,0:0:0:0:
327,321,26004,2,0,P|315:266|334:205,1,96
483,127,26355,2,0,P|432:154|337:117,1,144
282,30,26707,6,0,P|312:102|249:213,1,192
397,285,27234,2,0,P|308:225|218:249,1,192
136,117,27761,2,0,P|145:167|135:226,1,96
41,371,28112,6,0,L|32:262,1,96
50,173,28464,1,0,0:0:0:0:
50,173,28639,1,0,0:0:0:0:
134,342,28815,2,0,L|243:333,1,96
340,226,29166,2,0,L|365:390,1,144
269,262,29518,6,0,P|303:190|290:51,1,192
458,184,30045,2,0,L|259:193,1,192
43,137,30572,2,0,L|169:131,1,96
243,305,30923,6,0,P|193:323|86:215,1,192
318,230,31450,1,0,0:0:0:0:
318,230,31626,2,0,P|349:272|339:328,1,96
445,101,31978,2,0,P|414:143|424:199,1,96
135,136,32329,6,0,B|209:147|209:147|244:124|244:124|319:136,1,192
319,137,32856,1,0,0:0:0:0:
133,56,33032,2,0,L|23:80,1,96
188,239,33383,2,0,P|217:188|196:93,1,144
72,251,33735,6,0,L|68:306,1,48
72,251,33910,2,0,L|68:306,1,55.2000010528565
72,250,34086,2,0,L|67:314,1,62.3999971435548
72,251,34262,2,0,L|67:323,1,69.6000021240235
249,303,34437,6,0,L|240:271,2,24
331,337,34613,5,0,0:0:0:0:
251,347,34700,1,0,0:0:0:0:
173,358,34789,2,0,L|186:246,1,96
322,73,35140,6,0,B|300:186|353:147|332:273,1,192
390,304,35667,1,0,0:0:0:0:
450,152,35843,6,0,L|416:146,1,24
234,105,36019,2,0,L|258:110,1,24
354,131,36194,2,0,L|330:126,1,24
138,84,36370,2,0,L|162:89,1,24
284,238,36546,6,0,L|291:176,1,48
240,45,36721,2,0,L|247:107,1,48
405,281,36897,2,0,P|377:269|342:264,1,48
164,286,37073,2,0,P|187:273|223:264,1,48
352,353,37248,5,0,0:0:0:0:
78,345,37424,2,0,L|68:278,2,57.5999982421876
311,196,37951,6,0,P|243:148|128:183,1,192
74,146,38478,1,0,0:0:0:0:
407,28,38654,2,0,L|405:96,1,48
273,199,38830,2,0,L|292:259,1,48
471,184,39005,2,0,L|453:247,1,48
354,129,39181,2,0,L|360:190,1,48
424,328,39357,6,0,P|403:323|333:327,1,48
424,328,39532,2,0,P|403:323|333:327,1,55.2000010528565
424,328,39708,2,0,P|403:323|333:327,1,62.3999971435548
424,328,39884,2,0,P|403:323|333:327,1,69.6000021240235
208,365,40060,5,0,0:0:0:0:
373,239,40235,2,0,L|369:176,2,57.5999982421876
91,174,40762,6,0,B|204:154|174:222|287:201,1,192
327,143,41289,1,0,0:0:0:0:
386,331,41465,6,0,L|348:328,1,24
259,275,41641,2,0,L|297:278,1,24
427,258,41817,2,0,L|389:261,1,24
218,348,41992,2,0,L|256:345,1,24
151,251,42168,6,0,L|146:298,1,48
106,150,42344,2,0,L|110:102,1,48
256,39,42519,2,0,L|260:86,1,48
282,243,42695,2,0,L|278:196,1,48
436,190,42871,5,0,0:0:0:0:
383,132,43046,1,0,0:0:0:0:
413,326,43222,2,0,P|369:302|269:331,1,144
220,372,43573,6,0,L|18:350,1,192
333,264,44101,1,0,0:0:0:0:
333,264,44188,1,0,0:0:0:0:
333,264,44276,2,0,B|253:269|253:269|269:268|269:268|253:269|253:269|269:268|269:268|205:272,1,192
142,314,44803,1,0,0:0:0:0:
24,24,44979,5,14,0:0:0:0:
256,200,45330,1,0,0:0:0:0:
352,288,45506,1,0,0:0:0:0:
256,192,45682,1,0,0:0:0:0:
352,288,45858,6,0,P|320:320|288:336,1,72
144,336,46209,1,0,0:0:0:0:
84,248,46385,6,0,P|100:120|160:84,1,192,14|0,0:0|0:0,0:0:0:0:
160,176,46912,2,8,L|112:176,1,48
0,192,47087,6,8,L|35:224,1,48
488,208,47263,2,8,L|453:176,1,48
0,192,47439,2,8,L|35:224,1,48
488,208,47614,2,8,L|453:176,1,48
428,36,47790,5,8,0:0:0:0:
492,256,48142,1,14,0:0:0:0:
332,92,48493,5,8,0:0:0:0:
364,204,48669,1,8,0:0:0:0:
248,188,48844,2,0,P|218:139|160:142,1,120
64,208,49196,1,8,0:0:0:0:
112,320,49371,1,8,0:0:0:0:
228,352,49547,1,8,0:0:0:0:
336,355,49723,6,10,L|300:320,1,48,10|10,0:1|0:1,0:1:0:0:
112,112,49899,2,10,L|145:148,1,48,10|10,0:1|0:1,0:1:0:0:
301,321,50074,2,10,L|333:356,1,48,10|10,0:1|0:1,0:1:0:0:
112,112,50250,2,10,L|145:148,1,48,10|10,0:1|0:1,0:1:0:0:
333,356,50426,2,10,L|301:321,1,48,10|10,0:1|0:1,1:1:0:0:
144,40,50601,5,10,0:0:0:0:
72,88,50777,1,2,0:0:0:0:
48,168,50953,1,14,0:0:0:0:
248,296,51128,5,2,0:0:0:0:
328,264,51304,1,10,0:0:0:0:
360,184,51480,2,0,L|344:192,4,12
352,192,51655,2,0,L|495:199,1,144
363,135,52007,6,0,P|319:95|280:88,1,96
280,96,52534,6,0,B|248:192|248:192|192:192,1,156
88,256,53412,5,10,0:2:0:0:
212,224,53588,1,10,0:2:0:0:
316,312,53764,1,10,0:2:0:0:
34,123,53939,5,10,0:2:0:0:
243,109,54115,1,10,0:2:0:0:
316,312,54291,1,10,0:2:0:0:
152,224,54467,2,0,L|232:272,2,84
244,96,54818,5,0,0:0:0:0:
244,96,55169,1,0,0:0:0:0:
244,96,55521,2,0,B|199:96|199:96|178:134|248:134|248:134|180:147|197:179|197:179|256:179|256:179|256:179,1,240
352,288,56048,5,8,0:1:0:0:
88,96,56224,1,8,0:1:0:0:
208,360,56399,1,8,0:1:0:0:
400,144,56575,1,8,0:1:0:0:
176,152,56751,5,8,0:1:0:0:
196,180,56926,2,0,L|224:176,6,24
216,216,57102,6,0,L|272:192,7,48
248,320,57453,5,0,0:0:0:0:
144,304,57629,2,0,L|96:304,1,48
16,200,57980,2,2,L|63:202,1,48
272,208,58156,2,2,L|340:200,1,48
364,304,58332,2,2,L|440:296,1,48
216,80,58508,2,2,L|276:72,1,48
80,32,58683,2,2,L|32:38,1,48
72,205,58859,2,2,L|120:200,1,48
227,159,59035,2,0,P|272:160|328:256,4,144
88,288,59605,1,4,0:0:0:0:
96,296,59693,1,4,0:0:0:0:
96,296,59781,1,4,0:0:0:0:
288,344,59913,5,0,0:0:0:0:
384,280,60045,1,0,0:0:0:0:
384,160,60177,1,0,0:0:0:0:
112,320,60308,5,0,0:0:0:0:
256,256,60440,1,0,0:0:0:0:
200,80,60572,1,0,0:0:0:0:
72,72,60792,1,0,0:0:0:0:
72,72,60968,2,0,B|86:94|86:94|96:64|96:64|120:80,1,72
416,160,61144,2,0,B|405:152|405:152|395:183|395:183|381:160,1,72
72,72,61319,2,0,B|86:94|86:94|96:64|96:64|120:80,1,72
416,160,61495,2,0,B|405:152|405:152|395:183|395:183|381:160,1,72
72,72,61670,2,0,B|86:94|86:94|96:64|96:64|120:80,1,72
176,256,61846,5,0,0:0:0:0:
456,240,62021,1,0,0:0:0:0:
160,216,62197,1,0,0:0:0:0:
472,208,62373,1,0,0:0:0:0:
448,176,62549,1,0,0:0:0:0:
184,176,62724,1,0,0:0:0:0:
224,128,62900,2,0,P|280:104|336:112,2,96
192,240,63339,2,0,P|208:272|247:305,1,72
368,320,63603,6,0,L|328:328,1,36
176,288,63778,2,0,L|200:256,1,36
408,120,63954,2,0,L|400:160,1,36
176,288,64130,2,0,L|136:288,1,36
408,112,64306,2,0,L|392:72,1,36
176,288,64481,2,0,L|208:328,1,48
48,112,64657,1,14,0:0:0:0:
80,256,64833,2,0,P|124:273|171:269,1,96
232,192,65096,5,0,0:0:0:0:
288,192,65184,1,0,0:0:0:0:
336,224,65272,1,0,0:0:0:0:
376,272,65360,5,0,0:0:0:0:
488,240,65535,1,0,0:0:0:0:
400,128,65711,1,0,0:0:0:0:
399,249,65887,6,0,B|172:62|172:62|255:326|255:326|336:61|336:61|122:246|122:246|399:250,1,1401.6
336,192,67644,5,8,1:0:0:0:
88,224,67995,1,14,1:0:0:0:
160,288,68171,6,0,B|216:336|216:336|268:280|268:280|192:208,1,249.599988574219,0|0,1:0|1:0,1:0:0:0:
360,208,68874,5,14,1:0:0:0:
68,138,69225,2,8,L|17:180,1,62.3999971435548,8|8,1:0|1:0,1:0:0:0:
403,214,69401,2,8,L|460:169,1,62.3999971435548,8|8,1:0|1:0,1:0:0:0:
68,138,69576,2,8,L|17:180,1,62.3999971435548,8|8,1:0|1:0,1:0:0:0:
403,214,69752,2,8,L|460:169,1,62.3999971435548,8|8,1:0|1:0,1:0:0:0:
68,138,69928,2,8,L|17:180,1,62.3999971435548,8|8,1:0|1:0,1:0:0:0:
403,214,70103,2,8,L|460:169,1,62.3999971435548,8|8,1:0|1:0,1:0:0:0:
264,122,70279,2,0,B|224:176|295:192|256:240,1,124.79999428711,14|0,1:0|1:0,1:0:0:0:
256,344,70631,5,0,1:0:0:0:
256,344,70718,1,0,1:0:0:0:
256,344,70806,1,0,1:0:0:0:
376,48,70982,1,0,1:0:0:0:
288,256,71158,2,0,L|229:234,1,62.3999971435548,0|0,1:0|1:0,1:0:0:0:
56,192,71333,1,0,1:0:0:0:
192,16,71509,6,8,P|248:16|256:16,1,62.3999971435548,8|8,0:1|0:1,0:1:0:0:
368,96,71685,2,8,P|361:96|305:96,1,62.3999971435548,8|8,0:1|0:1,0:1:0:0:
96,96,71860,2,8,P|152:96|160:96,1,62.3999971435548,8|8,0:1|0:1,0:1:0:0:
320,176,72036,2,8,P|313:176|257:176,1,62.3999971435548,8|8,0:1|0:1,0:1:0:0:
0,176,72212,2,10,P|56:176|64:176,1,62.3999971435548,10|10,0:1|0:1,0:1:0:0:
448,256,72388,2,10,P|441:256|385:256,1,62.3999971435548,14|10,0:1|0:1,0:1:0:0:
144,256,72563,2,6,P|200:256|208:256,1,62.3999971435548,6|6,0:1|0:1,0:1:0:0:
336,336,72739,2,14,P|329:336|273:336,1,62.3999971435548,14|14,0:1|0:1,0:1:0:0:
48,336,72915,2,6,P|104:336|112:336,1,62.3999971435548,6|6,0:1|0:1,0:1:0:0:
352,112,73090,5,8,0:0:0:0:
320,240,73266,1,10,0:0:0:0:
184,272,73442,1,8,0:0:0:0:
176,160,73617,1,12,0:0:0:0:
320,224,73793,1,8,0:0:0:0:
256,336,73969,1,10,0:0:0:0:
256,80,74144,1,8,0:0:0:0:
368,160,74496,1,0,0:0:0:0:
368,160,74672,2,0,B|320:192|256:192|240:192,1,124.79999428711
80,112,75111,1,0,0:0:0:0:
64,160,75199,2,8,L|128:144,1,62.3999971435548
240,256,75374,2,8,L|320:256,1,62.3999971435548
416,80,75550,2,8,L|336:64,1,62.3999971435548
32,320,75726,2,8,L|80:272,1,62.3999971435548
192,64,75901,2,8,L|256:96,1,62.3999971435548
336,272,76077,2,8,L|403:318,1,62.3999971435548
64,112,76253,2,8,L|144:96,1,62.3999971435548
352,80,76429,2,8,L|368:160,1,62.3999971435548
176,336,76604,2,8,L|208:272,1,62.3999971435548
352,208,76780,2,8,L|240:176,1,109.199995001221
0,192,77131,5,14,0:3:0:0:
464,368,77307,1,14,0:3:0:0:
16,32,77482,1,14,0:3:0:0:
512,192,77658,1,14,0:3:0:0:
144,16,77834,1,14,0:3:0:0:
352,96,78010,1,14,0:3:0:0:
16,272,78186,1,14,0:3:0:0:
512,224,78361,1,14,0:3:0:0:
48,384,78537,1,14,0:1:0:0:
