osu file format v14

[General]
AudioFilename: audio.mp3
AudioLeadIn: 0
PreviewTime: -1
Countdown: 1
SampleSet: Normal
StackLeniency: 0.7
Mode: 0
LetterboxInBreaks: 0
WidescreenStoryboard: 1

[Editor]
DistanceSpacing: 1
BeatDivisor: 6
GridSize: 4
TimelineZoom: 1

[Metadata]
Title:Tutti Beautiful
TitleUnicode:Tutti Beautiful
Artist:Roberto Colombo
ArtistUnicode:Roberto Colombo
Creator:RamGuyy
Version:EXTRA
Source:
Tags:
BeatmapID:1775921
BeatmapSetID:848728

[Difficulty]
HPDrainRate:8
CircleSize:4
OverallDifficulty:9
ApproachRate:9.3
SliderMultiplier:1.4
SliderTickRate:1

[Events]
//Background and Video events
0,0,"1368509.jpg",0,0
//Break Periods
//Storyboard Layer 0 (Background)
//Storyboard Layer 1 (Fail)
//Storyboard Layer 2 (Pass)
//Storyboard Layer 3 (Foreground)
//Storyboard Sound Samples

[TimingPoints]
4091.94391772628,348.837209302326,4,1,0,100,1,0
6631,-100,4,1,0,100,0,1
14818,-100,4,2,1,100,0,0
21097,-100,4,1,1,100,0,1

[HitObjects]
356,55,429,6,0,L|294:108,1,70
302,100,777,1,0,0:0:0:0:
128,247,952,1,0,0:0:0:0:
128,247,1126,2,0,B|128:242|138:251|226:304,1,105
296,215,1562,1,0,0:0:0:0:
409,127,1736,1,0,0:0:0:0:
472,264,1911,1,0,0:0:0:0:
472,264,2086,6,0,L|376:251,1,70
158,215,2609,1,0,0:0:0:0:
158,215,2783,1,0,0:0:0:0:
52,302,2958,1,0,0:0:0:0:
258,348,3132,1,0,0:0:0:0:
110,70,3394,1,0,0:0:0:0:
110,70,3568,2,0,P|126:115|134:134,1,35
230,258,3743,2,0,L|221:105,1,140
403,53,4440,5,0,0:0:0:0:
328,162,4615,1,0,0:0:0:0:
210,40,4789,1,0,0:0:0:0:
86,142,4964,2,0,L|122:243,1,105
359,75,5429,5,0,0:0:0:0:
274,318,5603,1,0,0:0:0:0:
145,80,5777,5,0,0:0:0:0:
398,298,5952,1,0,0:0:0:0:
82,215,6126,5,0,0:0:0:0:
392,112,6301,1,0,0:0:0:0:
136,73,6475,2,0,L|103:188,1,105
199,299,7057,1,0,0:0:0:0:
302,154,7405,1,0,0:0:0:0:
379,205,7580,2,0,B|286:143|286:143,1,93.3333333333333
258,207,7929,2,0,L|346:265,1,93.3333333333333
352,76,8365,5,0,0:0:0:0:
292,313,8539,1,0,0:0:0:0:
163,77,8714,5,0,0:0:0:0:
420,212,8888,1,0,0:0:0:0:
125,203,9062,5,0,0:0:0:0:
391,113,9237,1,0,0:0:0:0:
260,63,9411,2,0,L|164:93,1,70
110,161,9760,1,0,0:0:0:0:
124,253,9964,2,0,P|209:310|277:326,1,140
319,237,10544,5,0,0:0:0:0:
418,120,10719,1,0,0:0:0:0:
481,270,10894,1,0,0:0:0:0:
133,83,11068,2,0,L|137:191,1,93.3333333333333
220,71,11504,5,0,0:0:0:0:
349,307,11679,1,0,0:0:0:0:
92,172,11853,5,0,0:0:0:0:
387,181,12027,1,0,0:0:0:0:
121,271,12202,5,0,0:0:0:0:
279,333,12376,2,0,L|292:236,1,70
288,263,12638,1,0,0:0:0:0:
154,154,12929,2,0,L|275:141,1,105
386,67,13336,5,0,0:0:0:0:
424,215,13510,1,0,0:0:0:0:
240,112,13684,1,0,0:0:0:0:
177,275,13859,2,0,L|142:190,1,70
358,61,14208,5,0,0:0:0:0:
261,293,14382,1,0,0:0:0:0:
170,77,14557,5,0,0:0:0:0:
400,240,14731,1,0,0:0:0:0:
141,184,14905,5,0,0:0:0:0:
406,106,15138,1,0,0:0:0:0:
206,258,15341,1,0,0:0:0:0:
344,274,15487,2,0,L|196:256,1,140
103,180,16039,1,0,0:0:0:0:
165,46,16214,1,0,0:0:0:0:
297,124,16388,1,0,0:0:0:0:
103,180,16562,2,0,L|111:312,1,105
103,180,16998,5,0,0:0:0:0:
224,333,17173,1,0,0:0:0:0:
341,198,17347,1,0,0:0:0:0:
394,281,17522,2,0,P|257:268|180:262,1,210
153,94,18219,2,0,P|236:149|338:193,1,210
387,59,19033,2,0,L|369:116,2,35
387,59,19353,2,0,L|369:116,2,35
131,53,19731,6,0,P|173:127|175:215,1,175
301,130,20487,1,0,0:0:0:0:
131,53,20661,6,0,P|173:127|175:215,1,175
174,215,21184,1,0,0:0:0:0:
375,41,21359,6,0,L|366:103,1,35
339,261,21621,1,0,0:0:0:0:
233,70,21795,5,0,0:0:0:0:
483,227,21969,1,0,0:0:0:0:
237,202,22144,5,0,0:0:0:0:
476,102,22318,1,0,0:0:0:0:
180,212,22493,1,0,0:0:0:0:
180,212,22667,6,0,P|261:271|385:260,1,210
400,171,23365,2,0,B|348:94|306:86|231:103,1,186.666666666667
242,100,23975,1,0,0:0:0:0:
242,100,24150,1,0,0:0:0:0:
155,342,24324,6,0,L|164:280,1,35
191,122,24673,1,0,0:0:0:0:
297,313,24847,5,0,0:0:0:0:
47,156,25022,1,0,0:0:0:0:
293,181,25196,5,0,0:0:0:0:
54,281,25370,1,0,0:0:0:0:
293,181,25603,2,0,L|234:60,1,105
160,222,26010,2,0,L|261:240,1,70
160,222,26330,2,0,L|261:240,1,70
370,71,26679,2,0,B|343:127|342:133|342:132,1,35
355,102,26882,1,0,0:0:0:0:
208,147,27115,6,0,L|232:205,1,46.6666666666667
370,75,27464,1,0,0:0:0:0:
200,318,27638,1,0,0:0:0:0:
419,172,27812,1,0,0:0:0:0:
144,216,27987,1,0,0:0:0:0:
391,273,28161,1,0,0:0:0:0:
145,107,28336,1,0,0:0:0:0:
370,52,28510,2,0,L|335:182,1,105
202,259,28859,6,0,L|149:150,1,105
326,206,29295,2,0,L|342:93,1,105
135,67,29673,1,0,0:0:0:0:
222,312,29847,1,0,0:0:0:0:
451,45,30022,1,0,0:0:0:0:
256,192,30254,12,0,33045,0:0:0:0:
