osu file format v14

[General]
AudioFilename: audio.mp3
AudioLeadIn: 0
PreviewTime: 5218
Countdown: 0
SampleSet: Normal
StackLeniency: 0.7
Mode: 1
LetterboxInBreaks: 0
WidescreenStoryboard: 0

[Editor]
Bookmarks: 5310,18444,21199,28455
DistanceSpacing: 1
BeatDivisor: 6
GridSize: 4
TimelineZoom: 1.8

[Metadata]
Title:Tutti Beautiful
TitleUnicode:Tutti Beautiful
Artist:Roberto Colombo
ArtistUnicode:Roberto Colombo
Creator:Lime717
Version:Muzukashii
Source:The Bold and the Beautiful
Tags:soap opera opening
BeatmapID:1766856
BeatmapSetID:844668

[Difficulty]
HPDrainRate:7
CircleSize:2
OverallDifficulty:4.5
ApproachRate:0
SliderMultiplier:1.4
SliderTickRate:1

[Events]
//Background and Video events
0,0,"dfadfad.png",0,0
//Break Periods
//Storyboard Layer 0 (Background)
//Storyboard Layer 1 (Fail)
//Storyboard Layer 2 (Pass)
//Storyboard Layer 3 (Foreground)
//Storyboard Sound Samples

[TimingPoints]
810,367.376928728876,4,1,0,100,1,0

[HitObjects]
255,193,442,5,8,0:0:0:0:
255,193,810,1,4,0:0:0:0:
255,193,993,1,0,0:0:0:0:
255,193,1177,1,8,0:0:0:0:
255,193,1361,1,0,0:0:0:0:
255,193,1728,1,0,0:0:0:0:
255,193,1912,1,8,0:0:0:0:
255,193,2095,1,8,0:0:0:0:
255,193,2279,1,0,0:0:0:0:
255,193,2646,1,8,0:0:0:0:
255,193,2830,1,8,0:0:0:0:
255,193,3197,1,0,0:0:0:0:
255,193,3381,1,8,0:0:0:0:
255,193,3565,1,0,0:0:0:0:
255,193,3657,1,0,0:0:0:0:
255,193,3749,1,0,0:0:0:0:
255,193,4116,1,8,0:0:0:0:
255,193,4483,1,0,0:0:0:0:
255,193,4667,1,0,0:0:0:0:
255,193,4851,1,8,0:0:0:0:
255,193,5034,1,0,0:0:0:0:
255,193,5402,5,0,0:0:0:0:
255,193,5585,1,8,0:0:0:0:
255,193,5769,1,8,0:0:0:0:
255,193,6136,1,0,0:0:0:0:
255,193,6228,1,0,0:0:0:0:
255,193,6320,1,0,0:0:0:0:
255,193,6504,1,12,0:0:0:0:
255,193,7055,1,0,0:0:0:0:
255,193,7606,1,0,0:0:0:0:
255,193,7790,1,8,0:0:0:0:
255,193,7973,1,0,0:0:0:0:
255,193,8341,5,0,0:0:0:0:
255,193,8524,1,8,0:0:0:0:
255,193,8708,1,8,0:0:0:0:
255,193,8892,1,0,0:0:0:0:
255,193,9075,1,0,0:0:0:0:
255,193,9259,1,8,0:0:0:0:
255,193,9627,1,0,0:0:0:0:
255,193,9810,1,0,0:0:0:0:
255,193,9994,1,8,0:0:0:0:
255,193,10361,1,0,0:0:0:0:
255,193,10729,1,8,0:0:0:0:
255,193,10912,1,0,0:0:0:0:
255,193,11280,1,0,0:0:0:0:
255,193,11463,1,0,0:0:0:0:
255,193,11647,1,8,0:0:0:0:
255,193,11739,1,8,0:0:0:0:
255,193,11831,1,8,0:0:0:0:
255,193,12198,1,0,0:0:0:0:
255,193,12382,1,12,0:0:0:0:
255,193,12933,1,0,0:0:0:0:
255,193,13484,1,0,0:0:0:0:
255,193,13668,1,8,0:0:0:0:
255,193,13851,1,0,0:0:0:0:
255,193,14219,1,0,0:0:0:0:
255,193,14402,1,8,0:0:0:0:
255,193,14586,1,8,0:0:0:0:
255,193,14770,1,0,0:0:0:0:
255,193,14954,1,0,0:0:0:0:
255,193,15137,1,8,0:0:0:0:
255,193,15505,5,8,0:0:0:0:
255,193,15688,1,0,0:0:0:0:
255,193,15872,1,8,0:0:0:0:
255,193,16239,1,0,0:0:0:0:
255,193,16423,1,8,0:0:0:0:
255,193,16607,1,8,0:0:0:0:
255,193,16790,1,0,0:0:0:0:
255,193,17158,1,0,0:0:0:0:
255,193,17341,1,0,0:0:0:0:
255,193,17525,1,12,0:0:0:0:
255,193,18076,1,8,0:0:0:0:
255,193,18260,1,4,0:0:0:0:
255,193,18627,1,0,0:0:0:0:
255,193,18811,1,8,0:0:0:0:
255,193,19362,1,8,0:0:0:0:
255,193,19546,1,0,0:0:0:0:
255,193,19729,1,8,0:0:0:0:
255,193,20648,1,12,0:0:0:0:
255,193,21383,5,4,0:0:0:0:
255,193,21750,1,8,0:0:0:0:
255,193,21934,1,0,0:0:0:0:
255,193,22117,1,8,0:0:0:0:
255,193,22301,1,0,0:0:0:0:
255,193,22668,1,12,0:0:0:0:
255,193,23036,1,0,0:0:0:0:
255,193,23403,1,12,0:0:0:0:
255,193,23771,1,0,0:0:0:0:
255,193,23954,1,8,0:0:0:0:
255,193,24322,5,0,0:0:0:0:
255,193,24689,1,8,0:0:0:0:
255,193,24873,1,0,0:0:0:0:
255,193,25056,1,8,0:0:0:0:
255,193,25240,1,8,0:0:0:0:
255,193,25607,1,12,0:0:0:0:
255,193,25975,1,0,0:0:0:0:
255,193,26342,1,12,0:0:0:0:
255,193,26893,1,8,0:0:0:0:
255,193,27261,1,0,0:0:0:0:
255,193,27628,1,8,0:0:0:0:
255,193,27812,1,0,0:0:0:0:
255,193,27995,1,8,0:0:0:0:
255,193,28179,1,0,0:0:0:0:
255,193,28546,1,12,0:0:0:0:
255,193,28914,1,0,0:0:0:0:
255,193,29281,1,12,0:0:0:0:
255,193,29649,1,0,0:0:0:0:
255,193,29740,1,0,0:0:0:0:
255,193,29832,1,0,0:0:0:0:
255,193,30016,1,12,0:0:0:0:
256,192,30200,12,0,32955,0:0:0:0:
256,192,33077,5,12,0:0:0:0:
