osu file format v14

[General]
AudioFilename: audio.mp3
AudioLeadIn: 0
PreviewTime: 5218
Countdown: 0
SampleSet: Normal
StackLeniency: 0.7
Mode: 1
LetterboxInBreaks: 0
WidescreenStoryboard: 0

[Editor]
Bookmarks: 5310,12933,18260,18444,21199,28455
DistanceSpacing: 1
BeatDivisor: 6
GridSize: 4
TimelineZoom: 1.5

[Metadata]
Title:Tutti Beautiful
TitleUnicode:Tutti Beautiful
Artist:Roberto Colombo
ArtistUnicode:Roberto Colombo
Creator:Lime717
Version:Kantan
Source:The Bold and the Beautiful
Tags:soap opera opening
BeatmapID:1942818
BeatmapSetID:844668

[Difficulty]
HPDrainRate:9
CircleSize:2
OverallDifficulty:3
ApproachRate:0
SliderMultiplier:1.4
SliderTickRate:1

[Events]
//Background and Video events
0,0,"dfadfad.png",0,0
//Break Periods
//Storyboard Layer 0 (Background)
//Storyboard Layer 1 (Fail)
//Storyboard Layer 2 (Pass)
//Storyboard Layer 3 (Foreground)
//Storyboard Sound Samples

[TimingPoints]
810,367.376928728876,4,1,0,100,1,0

[HitObjects]
256,192,442,5,8,0:0:0:0:
256,192,810,1,4,0:0:0:0:
256,192,1544,1,8,0:0:0:0:
256,192,2279,1,0,0:0:0:0:
256,192,3014,1,8,0:0:0:0:
256,192,3381,1,8,0:0:0:0:
256,192,3749,1,0,0:0:0:0:
256,192,4483,1,8,0:0:0:0:
256,192,5218,5,8,0:0:0:0:
256,192,6504,1,12,0:0:0:0:
256,192,7055,1,0,0:0:0:0:
256,192,7790,1,0,0:0:0:0:
256,192,8524,1,8,0:0:0:0:
256,192,9259,1,8,0:0:0:0:
256,192,9627,1,0,0:0:0:0:
256,192,9994,1,8,0:0:0:0:
256,192,10729,1,8,0:0:0:0:
256,192,11096,1,0,0:0:0:0:
256,192,11463,1,8,0:0:0:0:
256,192,12382,1,4,0:0:0:0:
256,192,12933,1,8,0:0:0:0:
256,192,13668,1,0,0:0:0:0:
256,192,14402,1,8,0:0:0:0:
256,192,15137,1,8,0:0:0:0:
256,192,15505,1,0,0:0:0:0:
256,192,15872,1,8,0:0:0:0:
256,192,16607,1,8,0:0:0:0:
256,192,16974,1,0,0:0:0:0:
256,192,17525,1,8,0:0:0:0:
256,192,18260,5,4,0:0:0:0:
256,192,18811,1,8,0:0:0:0:
256,192,19362,1,0,0:0:0:0:
256,192,19729,1,0,0:0:0:0:
256,192,20648,1,12,0:0:0:0:
256,192,21383,5,4,0:0:0:0:
256,192,22117,1,8,0:0:0:0:
256,192,22668,1,8,0:0:0:0:
256,192,23403,1,8,0:0:0:0:
256,192,24322,5,4,0:0:0:0:
256,192,25056,1,8,0:0:0:0:
256,192,25607,1,8,0:0:0:0:
256,192,26342,1,8,0:0:0:0:
256,192,27261,5,4,0:0:0:0:
256,192,27995,1,8,0:0:0:0:
256,192,28546,1,0,0:0:0:0:
256,192,28914,1,8,0:0:0:0:
256,192,29281,1,0,0:0:0:0:
256,192,30016,1,12,0:0:0:0:
256,192,30200,12,0,32404,0:0:0:0:
254,191,33077,5,12,0:0:0:0:
