osu file format v14

[General]
AudioFilename: audio.mp3
AudioLeadIn: 0
PreviewTime: 5218
Countdown: 0
SampleSet: Normal
StackLeniency: 0.7
Mode: 1
LetterboxInBreaks: 0
WidescreenStoryboard: 0

[Editor]
Bookmarks: 5310,18444,21199,28455
DistanceSpacing: 1
BeatDivisor: 6
GridSize: 32
TimelineZoom: 1.2

[Metadata]
Title:Tutti Beautiful
TitleUnicode:Tutti Beautiful
Artist:Roberto Colombo
ArtistUnicode:Roberto Colombo
Creator:Lime717
Version:Futsuu
Source:The Bold and the Beautiful
Tags:soap opera opening
BeatmapID:1766854
BeatmapSetID:844668

[Difficulty]
HPDrainRate:8
CircleSize:2
OverallDifficulty:4
ApproachRate:0
SliderMultiplier:1.4
SliderTickRate:1

[Events]
//Background and Video events
0,0,"dfadfad.png",0,0
//Break Periods
//Storyboard Layer 0 (Background)
//Storyboard Layer 1 (Fail)
//Storyboard Layer 2 (Pass)
//Storyboard Layer 3 (Foreground)
//Storyboard Sound Samples

[TimingPoints]
810,367.376928728876,4,1,0,100,1,0

[HitObjects]
256,192,442,5,8,0:0:0:0:
256,192,810,1,4,0:0:0:0:
256,192,1177,1,8,0:0:0:0:
256,192,1544,1,0,0:0:0:0:
256,192,1728,1,0,0:0:0:0:
256,192,1912,1,8,0:0:0:0:
256,192,2279,1,0,0:0:0:0:
256,192,2646,1,8,0:0:0:0:
256,192,2830,1,0,0:0:0:0:
256,192,3381,1,8,0:0:0:0:
256,192,3749,1,0,0:0:0:0:
256,192,4116,1,8,0:0:0:0:
256,192,4851,1,8,0:0:0:0:
256,192,5585,1,8,0:0:0:0:
256,192,5953,1,8,0:0:0:0:
256,192,6320,1,0,0:0:0:0:
256,192,6504,1,12,0:0:0:0:
256,192,7055,1,0,0:0:0:0:
256,192,7606,1,0,0:0:0:0:
256,192,7790,1,8,0:0:0:0:
256,192,7973,1,0,0:0:0:0:
256,192,8341,1,0,0:0:0:0:
256,192,8524,1,8,0:0:0:0:
256,192,8892,1,0,0:0:0:0:
256,192,9259,1,8,0:0:0:0:
256,192,9627,5,0,0:0:0:0:
256,192,9810,1,8,0:0:0:0:
256,192,9994,1,0,0:0:0:0:
256,192,10729,1,0,0:0:0:0:
256,192,10912,1,8,0:0:0:0:
256,192,11647,1,0,0:0:0:0:
256,192,12198,1,0,0:0:0:0:
256,192,12382,1,12,0:0:0:0:
256,192,12933,1,0,0:0:0:0:
256,192,13484,5,0,0:0:0:0:
256,192,13668,1,8,0:0:0:0:
256,192,13851,1,0,0:0:0:0:
256,192,14219,1,0,0:0:0:0:
256,192,14402,1,8,0:0:0:0:
256,192,14770,1,8,0:0:0:0:
256,192,15137,1,0,0:0:0:0:
256,192,15505,1,0,0:0:0:0:
256,192,15688,1,8,0:0:0:0:
256,192,15872,1,0,0:0:0:0:
256,192,16423,1,8,0:0:0:0:
256,192,16607,1,0,0:0:0:0:
256,192,16790,1,8,0:0:0:0:
256,192,17525,1,12,0:0:0:0:
256,192,18260,1,4,0:0:0:0:
256,192,18811,1,0,0:0:0:0:
256,192,19362,1,8,0:0:0:0:
256,192,19729,1,8,0:0:0:0:
256,192,20648,1,12,0:0:0:0:
256,192,21383,5,4,0:0:0:0:
256,192,21750,1,8,0:0:0:0:
256,192,22117,1,0,0:0:0:0:
256,192,22301,1,0,0:0:0:0:
256,192,22668,1,12,0:0:0:0:
256,192,23036,1,0,0:0:0:0:
256,192,23403,1,12,0:0:0:0:
256,192,24322,5,0,0:0:0:0:
256,192,24689,1,8,0:0:0:0:
256,192,25056,1,0,0:0:0:0:
256,192,25240,1,8,0:0:0:0:
256,192,25607,1,12,0:0:0:0:
256,192,25975,1,0,0:0:0:0:
256,192,26342,1,12,0:0:0:0:
256,192,27261,5,0,0:0:0:0:
256,192,27628,1,8,0:0:0:0:
256,192,27995,1,0,0:0:0:0:
256,192,28179,1,0,0:0:0:0:
256,192,28546,1,12,0:0:0:0:
256,192,28914,1,0,0:0:0:0:
256,192,29281,1,4,0:0:0:0:
256,192,29649,1,8,0:0:0:0:
256,192,30016,1,12,0:0:0:0:
256,192,30200,12,0,32771,0:0:0:0:
256,192,33077,5,12,0:0:0:0:
