osu file format v14

[General]
AudioFilename: audio.mp3
AudioLeadIn: 0
PreviewTime: 82516
Countdown: 1
SampleSet: Normal
StackLeniency: 0.7
Mode: 0
LetterboxInBreaks: 0
WidescreenStoryboard: 1

[Editor]
DistanceSpacing: 1
BeatDivisor: 4
GridSize: 4
TimelineZoom: 1.2

[Metadata]
Title:Redshift (feat. Robertha Sepulveda) NCS Release
TitleUnicode:Redshift (feat. Robertha Sepulveda) NCS Release
Artist:Robert Chacon
ArtistUnicode:Robert Chacon
Creator:AxE Galaxy
Version:Green
Source:
Tags:science light rays color colour space star cosmos dnb drum and bass
BeatmapID:1216459
BeatmapSetID:573777

[Difficulty]
HPDrainRate:4
CircleSize:2.6
OverallDifficulty:3
ApproachRate:6
SliderMultiplier:0.799999999999999
SliderTickRate:1

[Events]
//Background and Video events
0,0,"bgGreen.jpg",0,0
//Break Periods
//Storyboard Layer 0 (Background)
//Storyboard Layer 1 (Fail)
//Storyboard Layer 2 (Pass)
//Storyboard Layer 3 (Foreground)
//Storyboard Sound Samples

[TimingPoints]
230,374.028154431485,4,1,1,40,1,0
24167,-166.666666666667,4,1,1,40,0,0
25663,-100,4,1,1,40,0,0
84012,-100,4,1,1,40,0,1
107950,-100,4,1,1,40,0,0

[HitObjects]
88,264,230,6,0,P|144:248|200:272,1,120
228,296,978,2,0,L|316:288,1,79.9999999999999
384,312,1726,1,0,0:0:0:0:
424,240,2100,1,0,0:0:0:0:
412,160,2474,1,0,0:0:0:0:
348,108,2848,1,0,0:0:0:0:
276,144,3222,6,0,B|228:156|228:156|156:136,1,120
128,164,3970,2,0,P|136:208|128:244,1,79.9999999999999
208,248,4718,2,0,L|292:244,1,79.9999999999999
304,324,5466,2,0,L|220:328,1,79.9999999999999
148,304,6214,6,0,P|156:248|152:184,1,120
140,148,6962,2,0,L|144:68,1,79.9999999999999
224,68,7710,1,0,0:0:0:0:
252,144,8084,1,0,0:0:0:0:
332,156,8458,1,0,0:0:0:0:
388,100,8832,1,0,0:0:0:0:
452,144,9206,6,0,B|468:196|468:196|460:264,1,120
420,264,9954,2,0,P|376:256|340:264,1,79.9999999999999
264,240,10702,2,0,L|256:160,1,79.9999999999999
332,132,11450,2,0,L|324:52,1,79.9999999999999
244,64,12198,6,0,P|188:88|128:72,1,120
112,108,12946,2,0,L|116:188,1,79.9999999999999
164,252,13695,1,0,0:0:0:0:
240,280,14069,1,0,0:0:0:0:
316,260,14443,1,0,0:0:0:0:
364,196,14817,2,0,L|376:156,1,39.9999999999999
356,124,15191,6,0,P|336:64|348:8,1,120
308,4,15939,2,0,L|224:12,1,79.9999999999999
172,68,16687,2,0,P|160:112|160:152,1,79.9999999999999
192,220,17435,2,0,P|216:260|244:284,1,79.9999999999999
300,336,18183,6,0,L|180:332,1,120
148,308,18931,2,0,L|64:312,1,79.9999999999999
72,232,19679,1,0,0:0:0:0:
80,152,20053,1,0,0:0:0:0:
88,72,20427,1,0,0:0:0:0:
88,72,20801,1,0,0:0:0:0:
160,104,21175,6,0,B|204:120|204:120|276:108,1,120
304,140,21923,2,0,L|384:144,1,79.9999999999999
456,180,22671,2,0,P|448:224|448:264,1,79.9999999999999
448,340,23419,2,0,B|408:356|408:356|372:352,1,79.9999999999999
320,288,24167,6,0,P|248:260|236:348,1,191.999994140625
140,280,26224,2,0,P|96:284|60:300,1,79.9999999999999
32,320,26785,6,0,L|40:240,1,79.9999999999999
96,136,27721,2,0,P|140:124|180:128,1,79.9999999999999
204,152,28282,2,0,P|248:160|288:156,1,79.9999999999999
384,92,29217,2,0,L|384:172,1,79.9999999999999
408,204,29778,6,0,L|412:244,2,40
292,236,30713,2,0,L|208:236,1,79.9999999999999
184,208,31274,2,0,P|144:204|104:208,1,79.9999999999999
36,308,32209,2,0,B|76:316|76:316|116:304,1,79.9999999999999
128,268,32770,6,0,P|120:220|124:184,1,79.9999999999999
196,96,33705,2,0,L|276:100,1,79.9999999999999
288,140,34266,2,0,P|280:184|288:224,1,79.9999999999999
320,292,35014,1,0,0:0:0:0:
396,320,35388,1,0,0:0:0:0:
476,308,35762,1,0,0:0:0:0:
500,232,36136,6,0,B|512:192|512:192|496:112,1,120
464,92,36884,2,0,L|384:96,1,79.9999999999999
320,48,37632,2,0,L|240:44,1,79.9999999999999
160,52,38380,2,0,L|116:56,2,40
212,112,39128,6,0,P|204:176|220:236,1,120
240,260,39876,1,0,0:0:0:0:
316,288,40251,1,0,0:0:0:0:
396,280,40625,2,0,L|476:268,1,79.9999999999999
504,344,41373,2,0,L|424:356,1,79.9999999999999
348,332,42121,6,0,L|224:328,1,120
192,308,42869,2,0,L|144:312,2,40
248,248,43617,2,0,P|256:196|252:168,1,79.9999999999999
212,100,44365,2,0,P|200:52|204:20,1,79.9999999999999
280,0,45113,6,0,L|400:4,1,120
396,44,45861,2,0,P|392:88|396:128,1,79.9999999999999
428,196,46609,1,0,0:0:0:0:
412,276,46983,1,0,0:0:0:0:
340,316,47357,1,0,0:0:0:0:
260,304,47731,1,0,0:0:0:0:
188,268,48105,6,0,P|136:252|72:264,1,120
52,228,48853,2,0,B|64:184|64:184|60:148,1,79.9999999999999
24,80,49601,1,0,0:0:0:0:
100,60,49975,1,0,0:0:0:0:
180,44,50349,2,0,L|224:36,2,40
172,124,51097,6,0,L|168:244,1,120
200,268,51845,2,0,P|252:264|280:264,1,79.9999999999999
360,280,52593,1,0,0:0:0:0:
420,228,52967,1,0,0:0:0:0:
432,148,53341,1,0,0:0:0:0:
368,96,53716,1,0,0:0:0:0:
256,192,54090,12,0,58578,0:0:0:0:
256,316,60074,6,0,P|248:260|256:196,1,120
268,160,60822,2,0,L|264:80,1,79.9999999999999
216,16,61570,1,0,0:0:0:0:
136,20,61944,1,0,0:0:0:0:
68,64,62318,1,0,0:0:0:0:
32,136,62692,1,0,0:0:0:0:
32,176,62879,1,0,0:0:0:0:
32,216,63066,6,0,P|36:284|24:340,1,120
52,364,63814,2,0,L|132:372,1,79.9999999999999
204,336,64562,2,0,L|248:332,2,40
148,280,65310,2,0,L|104:276,2,40
212,228,66058,6,0,L|332:232,1,120
336,192,66807,2,0,P|332:144|340:112,1,79.9999999999999
284,56,67555,2,0,L|200:64,1,79.9999999999999
196,144,68303,2,0,L|275:136,1,79.9999999999999
352,152,69051,6,0,B|388:188|388:188|400:256,1,120
380,292,69799,2,0,P|336:288|296:292,1,79.9999999999999
224,316,70547,1,0,0:0:0:0:
144,300,70921,1,0,0:0:0:0:
88,244,71295,1,0,0:0:0:0:
84,164,71669,1,0,0:0:0:0:
116,92,72043,6,0,L|236:96,1,120
276,100,72791,1,0,0:0:0:0:
272,180,73165,1,0,0:0:0:0:
316,248,73539,2,0,P|348:276|384:284,1,79.9999999999999
444,232,74287,2,0,B|432:148|432:148|444:112,1,120
420,80,75035,6,0,L|300:76,1,120
260,76,75783,1,0,0:0:0:0:
184,104,76157,1,0,0:0:0:0:
108,76,76531,1,0,0:0:0:0:
132,152,76905,1,0,0:0:0:0:
104,228,77279,1,0,0:0:0:0:
36,272,77653,1,0,0:0:0:0:
104,312,78027,6,0,L|184:320,1,79.9999999999999
248,272,78775,2,0,L|328:280,1,79.9999999999999
396,240,79523,2,0,L|392:160,1,79.9999999999999
312,148,80272,2,0,L|316:228,1,79.9999999999999
328,308,81020,5,0,0:0:0:0:
248,300,81394,1,0,0:0:0:0:
168,292,81768,1,0,0:0:0:0:
88,280,82142,1,0,0:0:0:0:
76,200,82516,2,0,L|68:140,2,59.9999999999999
108,224,83264,2,0,L|228:228,1,120
264,216,84012,6,0,P|276:168|272:136,1,79.9999999999999
220,80,84760,2,0,L|216:16,2,59.9999999999999
200,116,85508,2,0,P|144:136|88:120,1,120
56,144,86256,2,0,L|60:224,1,79.9999999999999
108,288,87004,6,0,L|152:292,1,40
168,256,87378,2,0,L|208:252,1,40
232,284,87752,2,0,B|316:292|316:292|352:280,1,120
388,268,88500,1,0,0:0:0:0:
340,204,88874,1,0,0:0:0:0:
336,124,89248,1,0,0:0:0:0:
384,60,89622,1,0,0:0:0:0:
304,44,89996,6,0,P|260:40|220:52,1,79.9999999999999
176,112,90744,2,0,P|144:120|116:116,2,59.9999999999999
212,132,91492,2,0,L|204:216,1,79.9999999999999
200,252,92053,1,0,0:0:0:0:
216,288,92240,2,0,P|276:312|328:292,1,120
356,268,92988,6,0,L|440:272,1,79.9999999999999
448,192,93737,2,0,L|364:188,1,79.9999999999999
288,200,94485,1,0,0:0:0:0:
216,164,94859,1,0,0:0:0:0:
140,192,95233,1,0,0:0:0:0:
68,156,95607,1,0,0:0:0:0:
68,236,95981,6,0,P|96:264|136:276,1,79.9999999999999
208,252,96729,2,0,L|272:260,2,59.9999999999999
200,212,97477,2,0,B|212:132|212:132|200:92,1,120
176,64,98225,2,0,L|256:56,1,79.9999999999999
324,100,98973,6,0,L|332:144,1,40
304,172,99347,2,0,L|300:212,1,40
268,236,99721,2,0,P|328:248|364:292,1,120
404,296,100469,2,0,L|408:216,1,79.9999999999999
468,160,101217,2,0,L|464:80,1,79.9999999999999
388,104,101965,5,0,0:0:0:0:
312,76,102339,1,0,0:0:0:0:
248,28,102713,2,0,P|220:24|188:28,2,59.9999999999999
260,68,103461,2,0,P|248:128|264:192,1,120
284,216,104209,2,0,P|228:228|164:224,1,120
128,212,104957,5,0,0:0:0:0:
48,228,105331,1,0,0:0:0:0:
0,292,105705,1,0,0:0:0:0:
8,372,106079,1,0,0:0:0:0:
80,336,106453,2,0,L|160:328,1,79.9999999999999
228,284,107202,2,0,L|308:292,1,79.9999999999999
388,304,107950,5,0,0:0:0:0:
