osu file format v14

[General]
AudioFilename: audio.mp3
AudioLeadIn: 0
PreviewTime: 23272
Countdown: 1
SampleSet: Soft
StackLeniency: 0.7
Mode: 0
LetterboxInBreaks: 0
WidescreenStoryboard: 1

[Editor]
DistanceSpacing: 1
BeatDivisor: 4
GridSize: 32
TimelineZoom: 1.8

[Metadata]
Title:Random Song 06
TitleUnicode:Random Song 06
Artist:RobTop
ArtistUnicode:RobTop
Creator:xXOsuPersonXx
Version:Terminal RNG
Source:Geometry Dash
Tags:robtop gd 2.1 geometry dash
BeatmapID:1523267
BeatmapSetID:679668

[Difficulty]
HPDrainRate:6
CircleSize:4.6
OverallDifficulty:8.8
ApproachRate:9.8
SliderMultiplier:2.7
SliderTickRate:1

[Events]
//Background and Video events
0,0,"gdbackground.png",0,0
//Break Periods
//Storyboard Layer 0 (Background)
//Storyboard Layer 1 (Fail)
//Storyboard Layer 2 (Pass)
//Storyboard Layer 3 (Foreground)
//Storyboard Sound Samples

[TimingPoints]
0,363.636363636364,4,2,0,65,1,0
22909,-200,4,2,0,60,0,0
23272,-100,4,2,0,70,0,1

[Colours]
Combo1 : 255,193,7
Combo2 : 244,67,54
Combo3 : 3,169,244

[HitObjects]
26,219,0,5,8,0:0:0:0:
140,31,181,1,2,0:0:0:0:
245,224,363,1,0,0:0:0:0:
63,282,545,1,0,0:0:0:0:
13,82,727,1,2,0:0:0:0:
212,33,909,1,8,0:0:0:0:
263,232,1090,1,2,0:0:0:0:
63,282,1272,1,0,0:0:0:0:
327,30,1454,5,8,0:0:0:0:
327,304,1636,1,2,0:0:0:0:
366,54,1818,1,0,0:0:0:0:
296,319,2000,1,2,0:0:0:0:
399,87,2181,1,0,0:0:0:0:
261,324,2363,1,10,0:0:0:0:
421,127,2545,1,0,0:0:0:0:
226,322,2727,1,2,0:0:0:0:
259,204,2909,5,8,0:0:0:0:
288,64,3090,1,2,0:0:0:0:
116,207,3272,1,0,0:0:0:0:
356,235,3454,1,0,0:0:0:0:
383,55,3636,1,2,0:0:0:0:
146,26,3818,1,8,0:0:0:0:
116,207,4000,1,2,0:0:0:0:
313,131,4181,1,0,0:0:0:0:
101,379,4363,5,8,0:0:0:0:
126,228,4545,1,2,0:0:0:0:
278,215,4727,1,0,0:0:0:0:
251,365,4909,1,0,0:0:0:0:
154,331,5090,1,2,0:0:0:0:
176,194,5272,1,8,0:0:0:0:
313,181,5454,1,2,0:0:0:0:
290,317,5636,1,0,0:0:0:0:
165,251,5818,5,8,0:0:0:0:
165,45,5999,1,2,0:0:0:0:
342,147,6181,1,0,0:0:0:0:
165,251,6363,1,0,0:0:0:0:
342,147,6545,1,2,0:0:0:0:
383,350,6727,1,8,0:0:0:0:
258,192,6909,1,2,0:0:0:0:
256,192,7090,1,0,0:0:0:0:
20,342,7272,5,8,0:0:0:0:
143,92,7454,1,2,0:0:0:0:
312,311,7636,1,0,0:0:0:0:
156,224,7818,1,0,0:0:0:0:
488,342,8000,1,2,0:0:0:0:
364,92,8182,1,8,0:0:0:0:
351,224,8364,1,2,0:0:0:0:
351,224,8546,1,0,0:0:0:0:
73,108,8727,5,8,0:0:0:0:
248,41,8909,1,2,0:0:0:0:
73,108,9090,1,0,0:0:0:0:
248,41,9272,1,0,0:0:0:0:
0,108,9454,1,2,0:0:0:0:
245,41,9636,1,8,0:0:0:0:
0,108,9817,1,2,0:0:0:0:
245,41,9999,1,0,0:0:0:0:
73,272,10181,5,8,0:0:0:0:
248,339,10363,1,2,0:0:0:0:
73,272,10544,1,0,0:0:0:0:
248,339,10726,1,0,0:0:0:0:
0,272,10909,1,2,0:0:0:0:
245,339,11090,1,8,0:0:0:0:
0,272,11271,1,2,0:0:0:0:
245,339,11453,1,0,0:0:0:0:
126,62,11636,5,2,0:0:0:0:
330,116,11818,1,2,0:0:0:0:
184,241,12000,1,0,0:0:0:0:
107,35,12182,1,2,0:0:0:0:
255,46,12363,1,2,0:0:0:0:
172,168,12545,1,0,0:0:0:0:
107,35,12727,1,0,0:0:0:0:
255,46,12909,1,2,0:0:0:0:
95,79,13090,5,2,0:0:0:0:
205,76,13272,2,0,P|191:119|185:128,3,45
205,76,13636,1,2,0:0:0:0:
115,291,13818,1,2,0:0:0:0:
188,240,14000,1,0,0:0:0:0:
256,297,14181,1,4,0:0:0:0:
335,35,14545,5,2,0:0:0:0:
381,192,14727,1,2,0:0:0:0:
301,334,14909,1,0,0:0:0:0:
256,177,15090,1,2,0:0:0:0:
398,98,15272,1,2,0:0:0:0:
241,51,15454,1,0,0:0:0:0:
99,133,15636,1,2,0:0:0:0:
256,177,15817,1,0,0:0:0:0:
347,342,16000,5,2,0:0:0:0:
423,68,16181,1,2,0:0:0:0:
347,342,16363,1,0,0:0:0:0:
87,68,16544,1,2,0:0:0:0:
163,342,16727,1,2,0:0:0:0:
87,68,16908,1,0,0:0:0:0:
163,342,17090,1,2,0:0:0:0:
423,68,17271,1,0,0:0:0:0:
135,288,17454,5,2,0:0:0:0:
402,168,17636,1,2,0:0:0:0:
351,311,17818,1,0,0:0:0:0:
232,42,18000,1,2,0:0:0:0:
375,92,18181,1,2,0:0:0:0:
106,211,18363,1,0,0:0:0:0:
156,71,18545,1,2,0:0:0:0:
277,338,18727,1,0,0:0:0:0:
188,137,18909,5,2,0:0:0:0:
269,40,19090,1,0,0:0:0:0:
296,86,19150,1,0,0:0:0:0:
312,137,19211,1,0,0:0:0:0:
314,192,19271,1,0,0:0:0:0:
188,137,19454,1,2,0:0:0:0:
316,294,19636,1,2,0:0:0:0:
369,215,19818,1,0,0:0:0:0:
434,283,20000,1,4,0:0:0:0:
238,34,20363,5,2,0:0:0:0:
414,174,20545,1,2,0:0:0:0:
238,34,20727,1,0,0:0:0:0:
250,201,20909,1,2,0:0:0:0:
414,174,21090,1,2,0:0:0:0:
250,201,21272,1,0,0:0:0:0:
238,34,21454,1,2,0:0:0:0:
304,261,21636,1,0,0:0:0:0:
161,184,21818,5,2,0:0:0:0:
273,136,22000,1,2,0:0:0:0:
273,136,22181,1,0,0:0:0:0:
161,184,22363,1,0,0:0:0:0:
234,114,22545,1,2,0:0:0:0:
234,114,22727,1,0,0:0:0:0:
382,149,22909,1,6,0:0:0:0:
407,184,22999,1,4,0:0:0:0:
422,225,23090,1,4,0:0:0:0:
421,269,23181,1,4,0:0:0:0:
407,311,23272,5,6,0:0:0:0:
112,62,23454,1,6,0:0:0:0:
283,240,23636,1,0,0:0:0:0:
150,29,23818,1,0,0:0:0:0:
270,244,24000,1,6,0:0:0:0:
196,8,24182,1,0,0:0:0:0:
256,246,24364,1,6,0:0:0:0:
244,0,24546,1,0,0:0:0:0:
107,165,24727,5,0,0:0:0:0:
235,112,24909,1,6,0:0:0:0:
231,166,24969,1,2,0:0:0:0:
218,220,25030,1,2,0:0:0:0:
198,272,25090,1,0,0:0:0:0:
107,165,25272,1,0,0:0:0:0:
235,112,25454,1,6,0:0:0:0:
158,323,25636,1,0,0:0:0:0:
235,112,25818,1,12,0:0:0:0:
78,258,26181,5,0,0:0:0:0:
203,24,26363,1,6,0:0:0:0:
457,104,26545,1,0,0:0:0:0:
203,24,26727,1,0,0:0:0:0:
308,332,26909,1,6,0:0:0:0:
427,69,27090,1,0,0:0:0:0:
308,332,27272,1,6,0:0:0:0:
370,118,27453,1,0,0:0:0:0:
217,285,27636,5,0,0:0:0:0:
241,84,27818,1,6,0:0:0:0:
379,232,28000,1,0,0:0:0:0:
217,285,28181,1,0,0:0:0:0:
303,187,28363,1,6,0:0:0:0:
426,116,28545,1,0,0:0:0:0:
511,232,28727,1,6,0:0:0:0:
426,116,28909,1,0,0:0:0:0:
217,285,29090,5,0,0:0:0:0:
235,71,29272,1,6,0:0:0:0:
27,121,29454,1,0,0:0:0:0:
217,285,29636,1,0,0:0:0:0:
27,121,29818,1,6,0:0:0:0:
235,71,30000,1,0,0:0:0:0:
27,121,30181,1,6,0:0:0:0:
217,285,30363,1,0,0:0:0:0:
153,109,30545,5,0,0:0:0:0:
237,52,30727,1,12,0:0:0:0:
250,104,30787,1,4,0:0:0:0:
242,158,30848,1,4,0:0:0:0:
217,205,30908,1,12,0:0:0:0:
153,109,31090,1,0,0:0:0:0:
267,278,31272,1,6,0:0:0:0:
298,171,31454,1,0,0:0:0:0:
398,217,31636,1,8,0:0:0:0:
117,53,32000,5,0,0:0:0:0:
292,81,32181,1,6,0:0:0:0:
346,250,32363,1,0,0:0:0:0:
179,124,32545,1,0,0:0:0:0:
197,321,32727,1,6,0:0:0:0:
326,123,32909,1,0,0:0:0:0:
316,357,33090,1,6,0:0:0:0:
418,130,33272,1,0,0:0:0:0:
174,78,33454,5,0,0:0:0:0:
309,206,33636,1,6,0:0:0:0:
132,261,33818,1,0,0:0:0:0:
174,78,34000,1,0,0:0:0:0:
309,206,34181,1,6,0:0:0:0:
132,261,34363,1,2,0:0:0:0:
233,333,34545,1,6,0:0:0:0:
263,295,34635,1,8,0:0:0:0:
267,247,34726,1,12,0:0:0:0:
247,204,34817,1,8,0:0:0:0:
206,178,34908,5,14,0:0:0:0:
