osu file format v14

[General]
AudioFilename: audio.mp3
AudioLeadIn: 0
PreviewTime: 23272
Countdown: 1
SampleSet: Normal
StackLeniency: 0.7
Mode: 0
LetterboxInBreaks: 0
WidescreenStoryboard: 1

[Editor]
DistanceSpacing: 0.8
BeatDivisor: 6
GridSize: 32
TimelineZoom: 1.8

[Metadata]
Title:Random Song 06
TitleUnicode:Random Song 06
Artist:RobTop
ArtistUnicode:RobTop
Creator:xXOsuPersonXx
Version:Rich in RNG
Source:Geometry Dash
Tags:robtop gd 2.1 geometry dash
BeatmapID:1501657
BeatmapSetID:679668

[Difficulty]
HPDrainRate:5.7
CircleSize:4
OverallDifficulty:7.3
ApproachRate:8.9
SliderMultiplier:1.8
SliderTickRate:1

[Events]
//Background and Video events
0,0,"gdbackground.png",0,0
//Break Periods
//Storyboard Layer 0 (Background)
//Storyboard Layer 1 (Fail)
//Storyboard Layer 2 (Pass)
//Storyboard Layer 3 (Foreground)
//Storyboard Sound Samples

[TimingPoints]
0,363.636363636364,4,2,0,50,1,0
23272,-83.3333333333333,4,1,0,70,0,1
34909,-200,4,2,0,50,0,0

[Colours]
Combo1 : 255,193,7
Combo2 : 244,67,54
Combo3 : 3,169,244

[HitObjects]
74,80,0,5,0,0:0:0:0:
119,218,181,1,0,0:0:0:0:
171,128,363,1,0,0:0:0:0:
213,255,545,1,0,0:0:0:0:
285,203,727,2,0,B|293:147|293:147|322:105,1,90
357,206,1090,2,0,B|349:262|349:262|330:289,1,90
267,257,1454,5,0,0:0:0:0:
110,231,1636,1,0,0:0:0:0:
212,161,1818,1,0,0:0:0:0:
146,340,2000,1,0,0:0:0:0:
223,283,2181,2,0,B|248:242|248:242|297:207,1,90
301,289,2545,2,0,B|276:330|276:330|241:354,1,90
204,167,2909,6,0,B|176:205|176:205|164:256,1,90
355,266,3272,1,0,0:0:0:0:
355,149,3454,1,0,0:0:0:0:
254,207,3636,1,0,0:0:0:0:
374,227,3818,1,0,0:0:0:0:
334,117,4000,1,0,0:0:0:0:
259,207,4181,1,0,0:0:0:0:
149,86,4363,5,0,0:0:0:0:
366,279,4545,1,0,0:0:0:0:
326,119,4727,1,0,0:0:0:0:
177,216,4909,1,0,0:0:0:0:
286,75,5090,5,0,0:0:0:0:
239,303,5272,1,0,0:0:0:0:
334,211,5454,1,0,0:0:0:0:
207,146,5636,1,0,0:0:0:0:
239,303,5818,6,0,B|242:242|242:242|256:216,1,90
297,124,6181,1,0,0:0:0:0:
446,75,6363,1,0,0:0:0:0:
419,242,6545,1,0,0:0:0:0:
297,124,6727,1,0,0:0:0:0:
446,75,6909,1,0,0:0:0:0:
419,242,7090,1,0,0:0:0:0:
331,123,7272,5,0,0:0:0:0:
231,186,7454,1,0,0:0:0:0:
222,68,7636,1,0,0:0:0:0:
331,123,7818,1,0,0:0:0:0:
263,218,8000,2,0,B|276:272|276:272|314:303,1,90
338,220,8363,2,0,B|325:166|325:166|298:144,1,90
249,196,8727,5,0,0:0:0:0:
223,102,8909,1,0,0:0:0:0:
183,209,9090,1,0,0:0:0:0:
155,121,9272,1,0,0:0:0:0:
250,45,9454,5,0,0:0:0:0:
278,133,9636,1,0,0:0:0:0:
318,26,9818,1,0,0:0:0:0:
344,120,10000,1,0,0:0:0:0:
382,213,10181,5,0,0:0:0:0:
354,301,10363,1,0,0:0:0:0:
314,194,10545,1,0,0:0:0:0:
288,288,10727,1,0,0:0:0:0:
249,196,10909,5,0,0:0:0:0:
221,108,11090,1,0,0:0:0:0:
181,215,11272,1,0,0:0:0:0:
155,121,11454,1,0,0:0:0:0:
317,67,11636,6,0,B|297:124|297:124|301:153,1,90
317,239,12000,2,0,B|321:209|321:209|301:152,1,90
158,175,12363,1,0,0:0:0:0:
253,229,12545,1,0,0:0:0:0:
172,279,12727,1,0,0:0:0:0:
267,333,12909,1,0,0:0:0:0:
270,165,13090,5,0,0:0:0:0:
278,260,13272,1,0,0:0:0:0:
305,247,13333,1,0,0:0:0:0:
327,226,13393,1,0,0:0:0:0:
340,199,13454,1,0,0:0:0:0:
280,96,13636,1,0,0:0:0:0:
306,220,13818,1,0,0:0:0:0:
378,134,14000,1,0,0:0:0:0:
313,295,14181,1,0,0:0:0:0:
148,322,14545,6,0,B|184:279|184:279|228:266,1,90
364,322,14909,2,0,B|328:279|328:279|295:269,1,90
115,251,15272,6,0,B|162:195|162:195|219:179,1,90
396,251,15636,2,0,B|349:195|349:195|307:183,1,90
118,117,16000,6,0,B|142:73|142:73|190:55,1,90
263,179,16363,1,0,0:0:0:0:
355,93,16545,1,0,0:0:0:0:
383,215,16727,1,0,0:0:0:0:
241,183,16909,1,0,0:0:0:0:
361,72,17090,1,0,0:0:0:0:
397,230,17272,1,0,0:0:0:0:
66,68,17454,5,0,0:0:0:0:
149,166,17636,1,0,0:0:0:0:
217,66,17818,1,0,0:0:0:0:
149,208,18000,1,0,0:0:0:0:
144,303,18181,2,0,B|194:298|194:298|225:261,1,90
368,303,18545,2,0,B|318:298|318:298|292:267,1,90
271,123,18909,5,0,0:0:0:0:
304,207,19090,1,0,0:0:0:0:
327,189,19151,1,0,0:0:0:0:
346,165,19212,1,0,0:0:0:0:
356,137,19272,1,0,0:0:0:0:
303,292,19454,1,0,0:0:0:0:
376,199,19636,2,0,B|376:151|376:151|342:104,1,90
254,50,20000,1,0,0:0:0:0:
86,284,20363,5,0,0:0:0:0:
206,119,20545,1,0,0:0:0:0:
203,322,20727,1,0,0:0:0:0:
86,157,20909,1,0,0:0:0:0:
280,221,21090,1,0,0:0:0:0:
86,157,21272,1,0,0:0:0:0:
280,221,21454,1,0,0:0:0:0:
86,157,21636,1,0,0:0:0:0:
195,130,21818,6,0,B|226:92|226:92|265:81,1,90
323,168,22181,6,0,B|292:206|292:206|253:217,1,90
171,248,22545,1,0,0:0:0:0:
148,156,22727,1,0,0:0:0:0:
125,29,22909,1,0,0:0:0:0:
167,17,23000,1,0,0:0:0:0:
210,28,23090,1,0,0:0:0:0:
241,60,23181,1,0,0:0:0:0:
251,104,23272,5,0,0:0:0:0:
97,196,23454,1,0,0:0:0:0:
263,210,23636,2,0,B|306:170|306:170|371:143,1,107.999996704102
416,222,24000,1,0,0:0:0:0:
342,356,24181,1,0,0:0:0:0:
174,268,24363,2,0,B|217:228|217:228|262:209,1,107.999996704102
343,174,24727,5,0,0:0:0:0:
414,231,24909,1,0,0:0:0:0:
423,264,24969,1,0,0:0:0:0:
407,295,25030,1,0,0:0:0:0:
373,306,25090,1,0,0:0:0:0:
325,132,25272,1,0,0:0:0:0:
321,269,25454,1,0,0:0:0:0:
49,191,25636,1,0,0:0:0:0:
325,132,25818,1,0,0:0:0:0:
440,335,26181,6,0,B|436:272|436:272|401:237,1,107.999996704102
357,133,26545,1,0,0:0:0:0:
198,221,26727,1,0,0:0:0:0:
371,211,26909,1,0,0:0:0:0:
192,176,27090,1,0,0:0:0:0:
331,281,27272,1,0,0:0:0:0:
217,139,27454,1,0,0:0:0:0:
331,281,27636,6,0,B|382:290|382:290|432:266,1,107.999996704102
432,179,28000,1,0,0:0:0:0:
340,105,28181,1,0,0:0:0:0:
301,217,28363,1,0,0:0:0:0:
446,181,28545,1,0,0:0:0:0:
336,92,28727,1,0,0:0:0:0:
289,227,28909,1,0,0:0:0:0:
446,181,29090,6,0,B|416:220|416:220|359:235,1,107.999996704102
259,153,29454,1,0,0:0:0:0:
362,43,29636,1,0,0:0:0:0:
450,165,29818,1,0,0:0:0:0:
239,159,30000,1,0,0:0:0:0:
363,27,30181,1,0,0:0:0:0:
468,173,30363,1,0,0:0:0:0:
239,159,30545,5,0,0:0:0:0:
217,265,30727,1,0,0:0:0:0:
253,268,30787,1,0,0:0:0:0:
287,256,30848,1,0,0:0:0:0:
314,232,30909,1,0,0:0:0:0:
217,265,31090,1,0,0:0:0:0:
170,145,31272,1,0,0:0:0:0:
290,98,31454,1,0,0:0:0:0:
337,218,31636,1,0,0:0:0:0:
83,123,32000,6,0,B|128:86|128:86|213:78,1,107.999996704102
192,181,32363,1,0,0:0:0:0:
289,124,32545,1,0,0:0:0:0:
372,194,32727,2,0,B|327:231|327:231|277:235,1,107.999996704102
289,124,33090,1,0,0:0:0:0:
192,181,33272,1,0,0:0:0:0:
174,94,33454,5,0,0:0:0:0:
190,228,33636,1,0,0:0:0:0:
292,39,33818,1,0,0:0:0:0:
282,265,34000,1,0,0:0:0:0:
389,49,34181,1,0,0:0:0:0:
417,265,34363,1,0,0:0:0:0:
191,165,34545,1,0,0:0:0:0:
237,138,34636,1,0,0:0:0:0:
289,124,34727,1,0,0:0:0:0:
343,122,34818,1,0,0:0:0:0:
396,134,34909,5,14,0:0:0:0:
