osu file format v14

[General]
AudioFilename: audio.mp3
AudioLeadIn: 0
PreviewTime: 23272
Countdown: 1
SampleSet: Soft
StackLeniency: 0.7
Mode: 0
LetterboxInBreaks: 0
WidescreenStoryboard: 0

[Editor]
DistanceSpacing: 0.8
BeatDivisor: 4
GridSize: 8
TimelineZoom: 1

[Metadata]
Title:Random Song 06
TitleUnicode:Random Song 06
Artist:RobTop
ArtistUnicode:RobTop
Creator:xXOsuPersonXx
Version:Random Number Generation
Source:Geometry Dash
Tags:robtop gd 2.1 geometry dash
BeatmapID:1607741
BeatmapSetID:679668

[Difficulty]
HPDrainRate:8
CircleSize:4.2
OverallDifficulty:8.6
ApproachRate:9.6
SliderMultiplier:2.7
SliderTickRate:1

[Events]
//Background and Video events
0,0,"gdbackground.png",0,0
//Break Periods
//Storyboard Layer 0 (Background)
//Storyboard Layer 1 (Fail)
//Storyboard Layer 2 (Pass)
//Storyboard Layer 3 (Foreground)
//Storyboard Sound Samples

[TimingPoints]
0,363.636363636364,4,2,0,50,1,0
22909,-200,4,2,0,50,0,0
23272,-100,4,2,0,70,0,1

[Colours]
Combo1 : 255,193,7
Combo2 : 244,67,54
Combo3 : 3,169,244

[HitObjects]
152,64,0,6,0,P|98:122|102:185,1,135
197,211,363,1,0,0:0:0:0:
289,133,545,1,0,0:0:0:0:
360,64,727,2,0,P|414:122|410:185,1,135
192,288,1090,1,0,0:0:0:0:
320,288,1272,1,0,0:0:0:0:
139,177,1454,6,0,B|148:106|148:106|228:64,1,135
241,309,1818,2,0,B|170:300|170:300|140:243,1,135
373,207,2181,2,0,B|364:278|364:278|307:307,1,135
271,75,2545,2,0,B|342:84|342:84|371:140,1,135
225,5,2909,5,0,0:0:0:0:
404,210,3090,1,0,0:0:0:0:
225,5,3272,1,0,0:0:0:0:
404,210,3453,1,0,0:0:0:0:
108,174,3636,1,0,0:0:0:0:
287,379,3817,1,0,0:0:0:0:
108,174,3999,1,0,0:0:0:0:
287,379,4180,1,0,0:0:0:0:
172,253,4363,5,0,0:0:0:0:
287,93,4545,1,0,0:0:0:0:
288,290,4727,1,0,0:0:0:0:
172,131,4909,1,0,0:0:0:0:
359,192,5090,1,0,0:0:0:0:
172,131,5272,1,0,0:0:0:0:
288,290,5454,1,0,0:0:0:0:
287,93,5636,1,0,0:0:0:0:
172,253,5818,5,0,0:0:0:0:
340,131,6000,1,0,0:0:0:0:
340,253,6181,1,0,0:0:0:0:
172,131,6363,1,0,0:0:0:0:
340,131,6545,1,0,0:0:0:0:
340,253,6726,1,0,0:0:0:0:
172,253,6909,1,0,0:0:0:0:
172,131,7090,1,0,0:0:0:0:
349,285,7272,5,0,0:0:0:0:
162,285,7454,1,0,0:0:0:0:
256,324,7636,1,0,0:0:0:0:
162,98,7818,1,0,0:0:0:0:
123,191,8000,1,0,0:0:0:0:
349,98,8181,1,0,0:0:0:0:
256,59,8363,1,0,0:0:0:0:
388,192,8545,1,0,0:0:0:0:
167,114,8727,5,0,0:0:0:0:
345,114,8909,1,0,0:0:0:0:
345,270,9090,1,0,0:0:0:0:
167,270,9272,1,0,0:0:0:0:
131,82,9454,5,0,0:0:0:0:
380,301,9636,1,0,0:0:0:0:
380,82,9818,1,0,0:0:0:0:
131,301,9999,1,0,0:0:0:0:
131,82,10181,5,0,0:0:0:0:
380,82,10363,1,0,0:0:0:0:
380,301,10544,1,0,0:0:0:0:
131,301,10726,1,0,0:0:0:0:
81,38,10908,5,0,0:0:0:0:
429,344,11090,1,0,0:0:0:0:
429,38,11272,1,0,0:0:0:0:
81,344,11453,1,0,0:0:0:0:
232,232,11636,5,0,0:0:0:0:
232,151,11818,1,0,0:0:0:0:
302,192,12000,1,0,0:0:0:0:
209,273,12181,5,0,0:0:0:0:
209,111,12363,1,0,0:0:0:0:
349,192,12545,1,0,0:0:0:0:
209,111,12727,1,0,0:0:0:0:
209,273,12909,1,0,0:0:0:0:
209,273,13090,5,0,0:0:0:0:
209,111,13272,1,0,0:0:0:0:
252,103,13332,1,0,0:0:0:0:
294,119,13393,1,0,0:0:0:0:
322,154,13453,1,0,0:0:0:0:
171,307,13635,5,0,0:0:0:0:
171,61,13817,1,0,0:0:0:0:
384,184,13999,1,0,0:0:0:0:
171,307,14181,1,0,0:0:0:0:
171,307,14545,6,0,B|241:321|241:321|285:365,1,135
371,277,14909,2,0,B|385:207|385:207|433:159,1,135
341,77,15272,2,0,B|271:63|271:63|223:15,1,135
141,107,15636,2,0,B|127:177|127:177|79:225,1,135
26,95,16000,5,0,0:0:0:0:
186,242,16181,1,0,0:0:0:0:
26,95,16363,1,0,0:0:0:0:
186,242,16545,1,0,0:0:0:0:
93,145,16727,1,0,0:0:0:0:
190,51,16909,1,0,0:0:0:0:
283,148,17090,1,0,0:0:0:0:
186,242,17272,1,0,0:0:0:0:
92,145,17454,6,0,B|115:101|96:57|96:57|188:53,1,135
372,55,17818,6,0,B|416:57|416:57|397:101|420:145,1,135
346,223,18181,1,0,0:0:0:0:
165,160,18363,1,0,0:0:0:0:
287,101,18545,1,0,0:0:0:0:
224,282,18727,1,0,0:0:0:0:
144,235,18909,5,0,0:0:0:0:
44,82,19090,1,0,0:0:0:0:
81,57,19150,1,0,0:0:0:0:
123,42,19211,1,0,0:0:0:0:
169,40,19271,1,0,0:0:0:0:
286,207,19454,1,0,0:0:0:0:
160,160,19636,2,0,L|305:215,2,135
96,32,20363,5,0,0:0:0:0:
256,320,20545,1,0,0:0:0:0:
176,1,20727,1,0,0:0:0:0:
256,320,20909,1,0,0:0:0:0:
136,171,21090,1,0,0:0:0:0:
136,171,21272,1,0,0:0:0:0:
376,171,21454,1,0,0:0:0:0:
376,171,21636,1,0,0:0:0:0:
38,81,21818,6,0,B|72:148|72:148|148:167,1,135
474,81,22181,2,0,B|440:148|440:148|381:162,1,135
38,303,22545,2,0,B|72:236|72:236|148:217,1,135
474,303,22909,1,0,0:0:0:0:
458,272,22999,1,0,0:0:0:0:
443,242,23090,1,0,0:0:0:0:
414,229,23181,1,0,0:0:0:0:
381,221,23272,5,0,0:0:0:0:
258,73,23454,1,0,0:0:0:0:
191,255,23636,1,0,0:0:0:0:
258,73,23818,1,0,0:0:0:0:
100,154,24000,2,0,B|178:174|178:174|212:223,1,135
412,154,24363,2,0,B|334:174|334:174|302:218,1,135
33,34,24727,5,0,0:0:0:0:
173,71,24909,1,0,0:0:0:0:
180,114,24969,1,0,0:0:0:0:
158,152,25030,1,0,0:0:0:0:
117,168,25090,1,0,0:0:0:0:
33,34,25272,1,0,0:0:0:0:
177,131,25454,2,0,B|241:119|241:119|294:171,2,135
448,161,26181,5,0,0:0:0:0:
113,332,26363,1,0,0:0:0:0:
448,161,26545,1,0,0:0:0:0:
113,332,26727,1,0,0:0:0:0:
52,181,26909,1,0,0:0:0:0:
399,52,27091,1,0,0:0:0:0:
52,181,27273,1,0,0:0:0:0:
399,52,27455,1,0,0:0:0:0:
52,181,27636,5,0,0:0:0:0:
258,73,27818,1,0,0:0:0:0:
101,24,28000,1,0,0:0:0:0:
209,230,28181,1,0,0:0:0:0:
52,370,28363,1,0,0:0:0:0:
52,181,28545,1,0,0:0:0:0:
241,181,28727,1,0,0:0:0:0:
241,370,28909,1,0,0:0:0:0:
93,145,29090,5,0,0:0:0:0:
419,145,29272,1,0,0:0:0:0:
93,239,29454,1,0,0:0:0:0:
419,239,29636,1,0,0:0:0:0:
93,121,29818,1,0,0:0:0:0:
419,262,30000,1,0,0:0:0:0:
419,121,30181,1,0,0:0:0:0:
93,262,30363,1,0,0:0:0:0:
21,26,30545,5,0,0:0:0:0:
48,156,30727,1,0,0:0:0:0:
92,157,30787,1,0,0:0:0:0:
129,132,30848,1,0,0:0:0:0:
143,90,30908,1,0,0:0:0:0:
143,241,31090,1,0,0:0:0:0:
251,22,31272,1,0,0:0:0:0:
143,241,31454,1,0,0:0:0:0:
251,22,31636,1,0,0:0:0:0:
202,246,32000,5,0,0:0:0:0:
202,138,32181,1,0,0:0:0:0:
310,138,32363,1,0,0:0:0:0:
310,246,32545,1,0,0:0:0:0:
175,110,32727,5,0,0:0:0:0:
337,110,32908,1,0,0:0:0:0:
337,273,33090,1,0,0:0:0:0:
175,273,33272,1,0,0:0:0:0:
377,70,33454,5,0,0:0:0:0:
377,313,33635,1,0,0:0:0:0:
134,313,33817,1,0,0:0:0:0:
134,70,33999,1,0,0:0:0:0:
377,313,34181,5,0,0:0:0:0:
134,313,34362,1,0,0:0:0:0:
119,141,34545,1,2,0:0:0:0:
176,109,34635,1,0,0:0:0:0:
241,122,34726,1,2,0:0:0:0:
281,175,34817,1,0,0:0:0:0:
276,240,34908,1,0,0:0:0:0:
