osu file format v14

[General]
AudioFilename: audio.mp3
AudioLeadIn: 0
PreviewTime: 23272
Countdown: 1
SampleSet: Soft
StackLeniency: 0.7
Mode: 0
LetterboxInBreaks: 0
WidescreenStoryboard: 1

[Editor]
DistanceSpacing: 0.9
BeatDivisor: 4
GridSize: 32
TimelineZoom: 1

[Metadata]
Title:Random Song 06
TitleUnicode:Random Song 06
Artist:RobTop
ArtistUnicode:RobTop
Creator:xXOsuPersonXx
Version:RNG-less
Source:Geometry Dash
Tags:robtop gd 2.1 geometry dash
BeatmapID:1501660
BeatmapSetID:679668

[Difficulty]
HPDrainRate:3
CircleSize:3
OverallDifficulty:2
ApproachRate:4
SliderMultiplier:0.699999999999999
SliderTickRate:1

[Events]
//Background and Video events
0,0,"gdbackground.png",0,0
//Break Periods
//Storyboard Layer 0 (Background)
//Storyboard Layer 1 (Fail)
//Storyboard Layer 2 (Pass)
//Storyboard Layer 3 (Foreground)
//Storyboard Sound Samples

[TimingPoints]
0,363.636363636364,4,2,0,70,1,0
23272,-100,4,2,0,100,0,1
34909,-100,4,1,0,100,0,0

[Colours]
Combo1 : 255,193,7
Combo2 : 244,67,54
Combo3 : 3,169,244

[HitObjects]
28,55,0,6,0,P|82:36|107:111,1,140
116,161,1090,1,0,0:0:0:0:
116,224,1454,6,0,B|172:260|222:186|260:242,1,140
312,219,2545,1,0,0:0:0:0:
373,205,2909,6,0,P|435:189|495:236,1,140
462,286,4000,1,0,0:0:0:0:
399,287,4363,5,0,0:0:0:0:
338,270,4727,1,0,0:0:0:0:
278,249,5090,2,0,P|278:214|294:183,1,69.9999999999999
308,121,5818,6,0,P|325:60|405:25,1,140
448,45,6909,1,0,0:0:0:0:
493,88,7272,6,0,P|476:149|396:184,1,140
366,228,8363,1,0,0:0:0:0:
305,209,8727,6,0,P|244:177|224:112,1,140
269,68,9818,1,0,0:0:0:0:
330,55,10181,6,0,P|391:72|426:152,1,140
406,195,11272,1,0,0:0:0:0:
346,217,11636,5,0,0:0:0:0:
299,259,12000,1,0,0:0:0:0:
238,275,12364,1,0,0:0:0:0:
177,261,12727,1,0,0:0:0:0:
178,198,13090,5,0,0:0:0:0:
225,156,13454,1,0,0:0:0:0:
286,140,13818,1,0,0:0:0:0:
347,154,14181,1,0,0:0:0:0:
321,211,14545,6,0,B|281:225|254:188,1,69.9999999999999
251,130,15272,2,0,B|224:93|184:107|184:107,1,69.9999999999999
142,147,16000,2,0,P|180:173|213:165,1,69.9999999999999
255,203,16727,1,0,0:0:0:0:
298,150,17090,1,0,0:0:0:0:
350,114,17454,6,0,B|328:195,1,69.9999999999999
329,244,18181,2,0,L|386:243,1,35
386,265,18545,2,0,L|443:264,1,35
456,224,18909,1,0,0:0:0:0:
438,163,19272,1,0,0:0:0:0:
418,103,19636,1,0,0:0:0:0:
395,48,20000,1,0,0:0:0:0:
332,46,20363,6,0,L|240:59,1,69.9999999999999
200,62,21090,2,0,L|118:74,1,69.9999999999999
80,111,21818,5,0,0:0:0:0:
73,173,22181,1,0,0:0:0:0:
83,235,22545,1,0,0:0:0:0:
132,273,22909,1,0,0:0:0:0:
169,222,23272,6,0,B|212:163|212:163|272:204,1,140
327,219,24363,1,0,0:0:0:0:
360,168,24727,5,0,0:0:0:0:
326,114,25090,1,0,0:0:0:0:
274,78,25454,1,0,0:0:0:0:
212,57,25818,1,0,0:0:0:0:
156,86,26181,6,0,B|114:156,1,69.9999999999999
155,186,26909,1,0,0:0:0:0:
203,225,27272,2,0,L|235:238,1,35
256,214,27636,6,0,B|273:150|273:150|259:78,1,140
221,26,28727,1,0,0:0:0:0:
158,35,29090,6,0,P|107:60|96:87,1,69.9999999999999
94,132,29818,6,0,P|116:184|142:196,1,69.9999999999999
188,190,30545,5,0,0:0:0:0:
250,178,30909,1,0,0:0:0:0:
312,167,31272,2,0,B|351:164|351:164|372:129,1,69.9999999999999
361,74,32000,5,0,0:0:0:0:
307,41,32363,1,0,0:0:0:0:
245,43,32727,1,0,0:0:0:0:
184,59,33090,1,0,0:0:0:0:
135,98,33454,6,0,B|90:135|90:135|79:155,1,69.9999999999999
72,207,34181,6,0,B|79:264|79:264|92:289,1,69.9999999999999
137,310,34909,1,0,0:0:0:0:
