osu file format v14

[General]
AudioFilename: audio.mp3
AudioLeadIn: 0
PreviewTime: 23272
Countdown: 1
SampleSet: Soft
StackLeniency: 0.7
Mode: 0
LetterboxInBreaks: 0
WidescreenStoryboard: 1

[Editor]
DistanceSpacing: 0.8
BeatDivisor: 4
GridSize: 8
TimelineZoom: 2.2

[Metadata]
Title:Random Song 06
TitleUnicode:Random Song 06
Artist:RobTop
ArtistUnicode:RobTop
Creator:xXOsuPersonXx
Version:RNG Power Commencing...
Source:Geometry Dash
Tags:robtop gd 2.1 geometry dash
BeatmapID:1501658
BeatmapSetID:679668

[Difficulty]
HPDrainRate:4
CircleSize:3.7
OverallDifficulty:5.4
ApproachRate:8
SliderMultiplier:1.8
SliderTickRate:1

[Events]
//Background and Video events
0,0,"gdbackground.png",0,0
//Break Periods
//Storyboard Layer 0 (Background)
//Storyboard Layer 1 (Fail)
//Storyboard Layer 2 (Pass)
//Storyboard Layer 3 (Foreground)
//Storyboard Sound Samples

[TimingPoints]
0,363.636363636364,4,2,0,50,1,0
23272,-83.3333333333333,4,1,0,100,0,1
34909,-83.3333333333333,4,1,0,100,0,0

[Colours]
Combo1 : 255,193,7
Combo2 : 244,67,54
Combo3 : 3,169,244

[HitObjects]
81,155,0,5,0,0:0:0:0:
153,147,181,1,0,0:0:0:0:
102,222,363,1,0,0:0:0:0:
174,215,544,1,0,0:0:0:0:
246,218,727,2,0,B|251:161|251:161|282:130,1,90
321,195,1090,1,0,0:0:0:0:
321,195,1272,1,0,0:0:0:0:
221,185,1454,5,0,0:0:0:0:
221,185,1636,1,0,0:0:0:0:
141,220,1818,1,0,0:0:0:0:
141,220,2000,1,0,0:0:0:0:
196,276,2181,2,0,B|223:238|223:238|271:233,1,90
312,289,2545,1,0,0:0:0:0:
312,289,2727,1,0,0:0:0:0:
348,198,2909,5,0,0:0:0:0:
268,198,3090,1,0,0:0:0:0:
307,143,3272,1,0,0:0:0:0:
232,147,3454,1,0,0:0:0:0:
163,196,3636,1,0,0:0:0:0:
100,224,3818,1,0,0:0:0:0:
164,278,4000,1,0,0:0:0:0:
163,196,4181,1,0,0:0:0:0:
232,152,4363,6,0,P|280:132|337:132,1,90
285,203,4727,1,0,0:0:0:0:
281,289,4909,1,0,0:0:0:0:
209,215,5090,2,0,B|238:174|238:174|280:146,1,90
245,268,5454,1,0,0:0:0:0:
245,268,5636,1,0,0:0:0:0:
153,268,5818,5,0,0:0:0:0:
196,193,6000,1,0,0:0:0:0:
271,184,6181,1,0,0:0:0:0:
232,278,6363,1,0,0:0:0:0:
335,259,6545,1,0,0:0:0:0:
271,184,6727,1,0,0:0:0:0:
262,109,6909,2,0,B|263:63|263:63|211:45,1,90
186,161,7272,6,0,B|209:202|209:202|188:251,1,90
276,200,7636,1,0,0:0:0:0:
276,200,7818,1,0,0:0:0:0:
231,261,8000,2,0,B|268:293|268:293|317:284,1,90
357,244,8363,2,0,B|384:199|384:199|370:151,1,90
328,93,8727,5,0,0:0:0:0:
246,91,8909,1,0,0:0:0:0:
288,159,9090,1,0,0:0:0:0:
214,162,9272,1,0,0:0:0:0:
180,89,9454,1,0,0:0:0:0:
81,86,9636,1,0,0:0:0:0:
131,168,9817,1,0,0:0:0:0:
43,171,9999,1,0,0:0:0:0:
139,219,10181,6,0,L|102:304,1,90
207,269,10545,1,0,0:0:0:0:
263,200,10727,1,0,0:0:0:0:
336,290,10909,2,0,B|377:259|377:259|377:215,1,90
323,176,11272,1,0,0:0:0:0:
150,173,11454,1,0,0:0:0:0:
150,173,11545,1,0,0:0:0:0:
150,173,11636,6,0,L|166:272,1,90
284,187,12000,1,0,0:0:0:0:
314,285,12181,1,0,0:0:0:0:
357,228,12363,2,0,B|375:179|375:179|368:126,1,90
285,97,12727,1,0,0:0:0:0:
201,174,12909,1,0,0:0:0:0:
123,224,13090,6,0,B|147:265|147:265|189:275,1,90
231,280,13363,1,0,0:0:0:0:
272,263,13454,2,0,B|314:244|314:244|320:195,1,90
303,112,13818,2,0,B|277:77|277:77|217:86,1,90
186,156,14181,1,0,0:0:0:0:
74,84,14545,5,0,0:0:0:0:
104,192,14727,1,0,0:0:0:0:
143,135,14909,1,0,0:0:0:0:
173,243,15091,1,0,0:0:0:0:
227,165,15272,1,0,0:0:0:0:
256,273,15454,1,0,0:0:0:0:
296,215,15636,1,0,0:0:0:0:
326,324,15818,1,0,0:0:0:0:
361,217,16000,6,0,B|343:170|343:170|293:160,1,90
240,157,16363,2,0,B|195:150|195:150|162:186,1,90
144,242,16727,2,0,B|163:289|163:289|210:302,1,90
255,199,17090,1,0,0:0:0:0:
255,199,17272,1,0,0:0:0:0:
203,114,17454,5,0,0:0:0:0:
331,77,17636,1,0,0:0:0:0:
218,180,17818,5,0,0:0:0:0:
347,144,18000,1,0,0:0:0:0:
247,245,18181,5,0,0:0:0:0:
375,209,18363,1,0,0:0:0:0:
280,319,18545,5,0,0:0:0:0:
409,283,18727,1,0,0:0:0:0:
226,241,18909,6,0,B|206:198|206:198|217:153,1,90
251,116,19181,1,0,0:0:0:0:
251,116,19272,2,0,B|290:94|290:94|328:122,1,90
329,196,19636,2,0,B|331:252|331:252|293:301,2,90
82,69,20363,6,0,B|131:61|131:61|173:84,1,90
209,237,20727,2,0,B|161:245|161:245|124:225,1,90
302,68,21090,2,0,B|350:60|350:60|393:83,1,90
411,243,21454,2,0,B|363:251|363:251|326:231,1,90
242,246,21818,6,0,B|207:220|207:220|196:153,1,90
220,102,22181,1,0,0:0:0:0:
309,67,22363,1,0,0:0:0:0:
365,130,22545,2,0,B|391:160|391:160|393:238,1,90
313,265,22909,2,0,L|260:278,3,45
152,279,23272,6,0,B|156:213|156:213|172:166,1,107.999996704102
218,110,23636,1,0,0:0:0:0:
334,110,23818,1,0,0:0:0:0:
396,181,24000,2,0,B|396:216|396:216|360:297,1,107.999996704102
256,227,24363,1,0,0:0:0:0:
256,227,24545,1,0,0:0:0:0:
281,165,24727,6,0,B|279:98|279:98|256:62,1,107.999996704102
217,105,25000,1,0,0:0:0:0:
173,140,25090,6,0,B|175:206|175:206|198:242,1,107.999996704102
267,185,25454,1,0,0:0:0:0:
339,237,25636,1,0,0:0:0:0:
267,185,25818,1,0,0:0:0:0:
88,174,26181,6,0,B|77:234|77:234|86:281,1,107.999996704102
159,221,26545,1,0,0:0:0:0:
263,194,26727,1,0,0:0:0:0:
365,107,26909,6,0,B|388:163|388:163|367:208,1,107.999996704102
265,290,27272,1,0,0:0:0:0:
349,268,27454,1,0,0:0:0:0:
265,290,27636,6,0,B|215:299|215:299|155:298,1,107.999996704102
208,224,28000,1,0,0:0:0:0:
217,125,28181,1,0,0:0:0:0:
297,184,28363,1,0,0:0:0:0:
208,224,28545,1,0,0:0:0:0:
217,125,28727,2,0,B|271:107|271:107|351:144,1,107.999996704102
396,187,29090,6,0,B|423:229|423:229|417:297,1,107.999996704102
354,332,29454,1,0,0:0:0:0:
238,262,29636,1,0,0:0:0:0:
393,284,29818,1,0,0:0:0:0:
277,215,30000,1,0,0:0:0:0:
393,284,30181,2,0,B|366:230|366:230|324:178,1,107.999996704102
228,329,30545,6,0,B|251:273|251:273|263:208,1,107.999996704102
207,201,30818,1,0,0:0:0:0:
207,201,30909,2,0,L|204:87,1,107.999996704102
132,49,31272,1,0,0:0:0:0:
276,60,31454,1,0,0:0:0:0:
132,49,31636,1,0,0:0:0:0:
165,173,32000,5,0,0:0:0:0:
157,258,32181,1,0,0:0:0:0:
256,182,32363,1,0,0:0:0:0:
242,273,32545,1,0,0:0:0:0:
256,182,32727,2,0,B|256:123|256:123|229:75,1,107.999996704102
190,137,33090,2,0,B|190:195|190:195|215:239,1,107.999996704102
126,189,33454,5,0,0:0:0:0:
165,104,33636,1,0,0:0:0:0:
247,84,33818,1,0,0:0:0:0:
337,110,34000,1,0,0:0:0:0:
365,198,34181,1,0,0:0:0:0:
323,268,34363,1,0,0:0:0:0:
232,261,34545,2,0,L|253:209,4,53.9999983520508,0|0|0|0|14,0:0|0:0|0:0|0:0|0:0,0:0:0:0:
