osu file format v14

[General]
AudioFilename: audio.mp3
AudioLeadIn: 0
PreviewTime: 23272
Countdown: 1
SampleSet: Soft
StackLeniency: 0.7
Mode: 0
LetterboxInBreaks: 0
WidescreenStoryboard: 1

[Editor]
DistanceSpacing: 0.8
BeatDivisor: 4
GridSize: 32
TimelineZoom: 2.7

[Metadata]
Title:Random Song 06
TitleUnicode:Random Song 06
Artist:RobTop
ArtistUnicode:RobTop
Creator:xXOsuPersonXx
Version:RNG Lord
Source:Geometry Dash
Tags:robtop gd 2.1 geometry dash
BeatmapID:1512822
BeatmapSetID:679668

[Difficulty]
HPDrainRate:7
CircleSize:4
OverallDifficulty:7.9
ApproachRate:8.8
SliderMultiplier:1.8
SliderTickRate:1

[Events]
//Background and Video events
0,0,"gdbackground.png",0,0
//Break Periods
//Storyboard Layer 0 (Background)
//Storyboard Layer 1 (Fail)
//Storyboard Layer 2 (Pass)
//Storyboard Layer 3 (Foreground)
//Storyboard Sound Samples

[TimingPoints]
0,363.636363636364,4,2,0,50,1,0
16,-83.3333333333333,4,2,0,50,0,0
11636,-76.9230769230769,4,2,0,50,0,0
23272,-71.4285714285714,4,2,0,70,0,1

[Colours]
Combo1 : 255,255,0
Combo2 : 255,0,0
Combo3 : 0,0,255

[HitObjects]
274,290,0,5,0,0:0:0:0:
180,166,181,1,0,0:0:0:0:
300,226,363,1,0,0:0:0:0:
206,102,545,1,0,0:0:0:0:
324,159,727,1,2,0:0:0:0:
262,78,909,1,0,0:0:0:0:
340,117,1090,1,2,0:0:0:0:
279,36,1272,1,0,0:0:0:0:
282,250,1454,5,0,0:0:0:0:
202,108,1636,1,0,0:0:0:0:
282,250,1818,1,0,0:0:0:0:
111,249,2000,1,0,0:0:0:0:
202,108,2181,1,2,0:0:0:0:
111,249,2363,1,0,0:0:0:0:
202,108,2545,1,2,0:0:0:0:
282,250,2727,1,0,0:0:0:0:
130,149,2909,5,0,0:0:0:0:
247,114,3090,1,0,0:0:0:0:
145,117,3272,1,0,0:0:0:0:
291,113,3454,1,0,0:0:0:0:
168,91,3636,1,2,0:0:0:0:
338,131,3818,1,0,0:0:0:0:
197,72,4000,1,2,0:0:0:0:
382,170,4181,1,0,0:0:0:0:
230,61,4363,5,0,0:0:0:0:
415,231,4545,1,0,0:0:0:0:
264,59,4727,1,0,0:0:0:0:
376,236,4909,1,0,0:0:0:0:
299,66,5090,1,2,0:0:0:0:
350,233,5272,1,0,0:0:0:0:
330,81,5454,1,2,0:0:0:0:
334,227,5636,1,0,0:0:0:0:
207,243,5818,6,0,B|237:286|237:286|292:308,1,107.999996704102
325,97,6181,1,0,0:0:0:0:
313,218,6363,1,0,0:0:0:0:
218,132,6545,2,0,B|188:89|188:89|133:67,1,107.999996704102
173,145,6909,2,0,B|203:188|203:188|254:208,1,107.999996704102
173,145,7272,5,0,0:0:0:0:
330,75,7454,1,0,0:0:0:0:
312,245,7636,1,0,0:0:0:0:
173,145,7818,1,0,0:0:0:0:
330,75,8000,1,2,0:0:0:0:
400,232,8181,1,0,0:0:0:0:
243,302,8363,1,0,0:0:0:0:
173,145,8545,1,0,0:0:0:0:
150,271,8727,5,0,0:0:0:0:
235,173,8909,1,0,0:0:0:0:
277,295,9090,1,0,0:0:0:0:
134,139,9272,5,0,0:0:0:0:
261,164,9454,1,0,0:0:0:0:
177,261,9636,1,0,0:0:0:0:
311,67,9818,1,0,0:0:0:0:
427,187,10000,1,0,0:0:0:0:
178,263,10181,5,0,0:0:0:0:
119,147,10363,1,0,0:0:0:0:
234,88,10545,1,0,0:0:0:0:
293,204,10727,1,0,0:0:0:0:
170,210,10909,1,2,0:0:0:0:
166,177,11090,1,0,0:0:0:0:
198,173,11272,1,2,0:0:0:0:
202,205,11454,1,0,0:0:0:0:
376,271,11636,5,0,0:0:0:0:
412,94,11818,1,0,0:0:0:0:
192,110,12000,2,0,B|214:172|214:172|254:237,1,116.999994644165
301,297,12363,2,0,B|365:308|365:308|441:306,1,116.999994644165
332,108,12727,1,0,0:0:0:0:
254,279,12909,1,0,0:0:0:0:
60,182,13090,5,0,0:0:0:0:
159,103,13272,1,0,0:0:0:0:
159,103,13333,1,0,0:0:0:0:
159,103,13393,1,0,0:0:0:0:
159,103,13454,2,0,B|158:169|158:169|171:222,1,116.999994644165
306,126,13818,1,2,0:0:0:0:
293,277,14000,1,0,0:0:0:0:
306,126,14181,1,2,0:0:0:0:
176,260,14545,5,0,0:0:0:0:
236,89,14727,1,0,0:0:0:0:
354,226,14909,1,0,0:0:0:0:
157,157,15090,5,0,0:0:0:0:
335,123,15272,1,0,0:0:0:0:
275,294,15454,1,0,0:0:0:0:
97,329,15636,5,0,0:0:0:0:
156,157,15818,1,0,0:0:0:0:
319,258,16000,6,0,B|256:277|256:277|193:267,1,116.999994644165
161,191,16363,1,0,0:0:0:0:
55,115,16545,1,0,0:0:0:0:
161,191,16727,1,2,0:0:0:0:
88,84,16909,1,0,0:0:0:0:
161,191,17090,1,2,0:0:0:0:
129,66,17272,1,0,0:0:0:0:
130,280,17454,6,0,B|194:295|194:295|246:273,1,116.999994644165
115,168,17818,1,0,0:0:0:0:
260,171,18000,1,0,0:0:0:0:
100,120,18181,1,0,0:0:0:0:
267,168,18363,1,0,0:0:0:0:
97,60,18545,1,0,0:0:0:0:
276,168,18727,1,0,0:0:0:0:
271,60,18909,5,0,0:0:0:0:
207,196,19090,1,0,0:0:0:0:
207,196,19151,1,0,0:0:0:0:
207,196,19212,1,0,0:0:0:0:
207,196,19272,2,0,B|223:130|223:130|269:106,1,116.999994644165
322,230,19636,1,2,0:0:0:0:
182,264,19818,1,0,0:0:0:0:
322,230,20000,1,2,0:0:0:0:
49,116,20363,5,0,0:0:0:0:
192,49,20545,1,2,0:0:0:0:
258,192,20727,1,0,0:0:0:0:
115,259,20909,1,0,0:0:0:0:
208,77,21090,1,2,0:0:0:0:
190,274,21272,1,0,0:0:0:0:
208,77,21454,1,2,0:0:0:0:
190,274,21636,1,0,0:0:0:0:
190,274,21818,5,0,0:0:0:0:
252,163,22000,1,0,0:0:0:0:
306,282,22181,1,0,0:0:0:0:
368,171,22363,1,0,0:0:0:0:
208,162,22545,2,0,P|151:162|120:209,1,116.999994644165,2|0,0:0|0:0,0:0:0:0:
140,212,22909,1,2,0:0:0:0:
185,199,23000,1,0,0:0:0:0:
232,204,23090,1,0,0:0:0:0:
273,228,23181,1,0,0:0:0:0:
301,266,23272,5,0,0:0:0:0:
199,164,23454,1,0,0:0:0:0:
362,237,23636,1,0,0:0:0:0:
269,125,23818,1,0,0:0:0:0:
110,298,24000,2,0,B|51:263|51:263|50:169,1,125.999996154785,2|0,0:0|0:0,0:0:0:0:
261,146,24363,2,0,B|260:88|260:88|201:53,1,125.999996154785,2|0,0:0|0:0,0:0:0:0:
322,231,24727,5,0,0:0:0:0:
195,273,24909,1,0,0:0:0:0:
185,232,24969,1,0,0:0:0:0:
184,190,25030,1,0,0:0:0:0:
191,149,25090,1,0,0:0:0:0:
103,299,25272,1,0,0:0:0:0:
187,222,25454,2,0,B|249:199|254:274|330:215,2,125.999996154785,2|0|2,0:0|0:0|0:0,0:0:0:0:
111,117,26181,5,0,0:0:0:0:
150,251,26363,1,0,0:0:0:0:
201,125,26545,1,0,0:0:0:0:
150,251,26727,1,0,0:0:0:0:
261,103,26909,1,2,0:0:0:0:
228,283,27090,1,0,0:0:0:0:
261,103,27272,1,2,0:0:0:0:
228,283,27454,1,0,0:0:0:0:
346,258,27636,6,0,B|340:194|340:194|284:141,1,125.999996154785
174,106,28000,1,0,0:0:0:0:
198,218,28181,1,0,0:0:0:0:
296,152,28363,2,0,B|362:172|362:172|433:125,1,125.999996154785,2|0,0:0|0:0,0:0:0:0:
216,232,28727,2,0,B|150:212|150:212|102:243,1,125.999996154785,2|0,0:0|0:0,0:0:0:0:
351,55,29090,5,0,0:0:0:0:
306,226,29272,1,0,0:0:0:0:
351,55,29454,1,0,0:0:0:0:
351,55,29636,1,0,0:0:0:0:
161,55,29818,1,2,0:0:0:0:
206,226,30000,1,0,0:0:0:0:
161,55,30181,1,2,0:0:0:0:
161,55,30363,1,0,0:0:0:0:
109,253,30545,5,0,0:0:0:0:
150,139,30727,1,0,0:0:0:0:
170,102,30787,1,0,0:0:0:0:
204,78,30848,1,0,0:0:0:0:
246,71,30909,1,0,0:0:0:0:
227,254,31090,1,0,0:0:0:0:
293,101,31272,1,2,0:0:0:0:
227,254,31454,1,0,0:0:0:0:
293,101,31636,1,2,0:0:0:0:
315,106,32000,5,0,0:0:0:0:
256,320,32181,1,0,0:0:0:0:
197,106,32363,1,0,0:0:0:0:
256,320,32545,1,0,0:0:0:0:
105,199,32727,1,2,0:0:0:0:
332,109,32909,1,0,0:0:0:0:
97,69,33090,1,2,0:0:0:0:
290,212,33272,1,0,0:0:0:0:
137,145,33454,6,0,B|188:93|188:93|272:82,1,125.999996154785
309,280,33818,1,0,0:0:0:0:
309,280,34000,1,0,0:0:0:0:
187,120,34181,2,0,B|135:171|135:171|124:255,1,125.999996154785,12|0,0:0|0:0,0:0:0:0:
219,217,34545,1,12,0:0:0:0:
230,278,34636,1,0,0:0:0:0:
273,323,34727,1,0,0:0:0:0:
334,336,34818,1,0,0:0:0:0:
391,313,34909,1,14,0:0:0:0:
