osu file format v14

[General]
AudioFilename: audio.mp3
AudioLeadIn: 0
PreviewTime: 23272
Countdown: 1
SampleSet: Soft
StackLeniency: 0.7
Mode: 0
LetterboxInBreaks: 0
WidescreenStoryboard: 1

[Editor]
DistanceSpacing: 1.2
BeatDivisor: 4
GridSize: 32
TimelineZoom: 1

[Metadata]
Title:Random Song 06
TitleUnicode:Random Song 06
Artist:RobTop
ArtistUnicode:RobTop
Creator:xXOsuPersonXx
Version:Low RNG
Source:Geometry Dash
Tags:robtop gd 2.1 geometry dash
BeatmapID:1439980
BeatmapSetID:679668

[Difficulty]
HPDrainRate:3
CircleSize:3
OverallDifficulty:4.4
ApproachRate:5
SliderMultiplier:0.999999999999999
SliderTickRate:1

[Events]
//Background and Video events
0,0,"gdbackground.png",0,0
//Break Periods
//Storyboard Layer 0 (Background)
//Storyboard Layer 1 (Fail)
//Storyboard Layer 2 (Pass)
//Storyboard Layer 3 (Foreground)
//Storyboard Sound Samples

[TimingPoints]
0,363.636363636364,4,2,0,70,1,0
23272,-83.3333333333333,4,2,0,100,0,1
34909,-83.3333333333333,4,1,0,100,0,0

[Colours]
Combo1 : 255,193,7
Combo2 : 244,67,54
Combo3 : 3,169,244

[HitObjects]
76,52,0,6,0,P|89:38|145:89,1,99.9999999999999
156,147,727,2,0,P|186:182|229:162,1,99.9999999999999
204,86,1454,6,0,P|225:42|272:37,1,99.9999999999999
331,91,2181,2,0,L|377:37,2,49.9999999999999
280,153,2909,6,0,B|266:204|213:175|214:232,1,99.9999999999999
249,294,3636,1,0,0:0:0:0:
324,267,4000,1,0,0:0:0:0:
394,228,4363,6,0,P|361:178|323:181,1,99.9999999999999
254,145,5090,1,0,0:0:0:0:
172,148,5454,1,0,0:0:0:0:
117,206,5818,5,0,0:0:0:0:
155,276,6181,1,0,0:0:0:0:
231,299,6545,2,0,P|278:286|309:248,1,99.9999999999999
342,175,7272,5,0,0:0:0:0:
276,129,7636,1,0,0:0:0:0:
195,129,8000,2,0,P|156:132|136:195,1,99.9999999999999
160,257,8727,5,0,0:0:0:0:
207,321,9090,2,0,P|237:352|244:351,1,50
272,329,9454,1,0,0:0:0:0:
333,278,9818,1,0,0:0:0:0:
332,198,10181,6,0,B|351:146|351:146|325:109,1,99.9999999999999
254,71,10909,2,0,P|218:58|160:71,1,99.9999999999999
115,139,11636,5,0,0:0:0:0:
190,112,12000,2,0,B|206:89|206:89|245:89,1,50
275,126,12363,2,0,L|274:185,1,50
309,224,12727,2,0,B|293:247|293:247|254:247,1,50
217,218,13090,5,0,0:0:0:0:
179,147,13454,2,0,P|157:101|144:98,1,50
125,151,13818,2,0,L|97:217,2,50
197,116,14545,6,0,L|270:110,1,50
261,154,14909,2,0,L|315:156,1,50
317,200,15272,1,0,0:0:0:0:
256,266,15636,1,0,0:0:0:0:
265,345,16000,6,0,L|195:334,1,50
187,302,16363,2,0,P|173:259|171:237,1,50
207,225,16727,2,0,L|191:118,1,99.9999999999999
228,110,17454,6,0,B|256:109|256:109|285:133,1,50
294,179,17818,1,0,0:0:0:0:
290,258,18181,1,0,0:0:0:0:
245,305,18545,2,0,B|216:310|216:310|201:277,1,50
224,233,18909,5,0,0:0:0:0:
216,153,19272,2,0,B|190:148|190:148|158:168,1,50
149,217,19636,1,0,0:0:0:0:
172,279,20000,1,0,0:0:0:0:
248,257,20363,6,0,B|238:204,1,50
195,165,20727,2,0,L|197:100,1,50
243,77,21090,2,0,P|290:81|272:131,1,99.9999999999999
231,185,21818,5,0,0:0:0:0:
219,253,22181,2,0,P|254:266|276:264,1,50
306,267,22545,1,0,0:0:0:0:
342,195,22909,2,0,L|319:139,1,50
289,127,23272,6,0,L|230:99,1,50
173,111,23636,2,0,P|149:146|153:167,1,59.9999981689453
161,220,24000,2,0,L|172:301,1,59.9999981689453
203,328,24363,2,0,L|282:318,1,59.9999981689453
304,277,24727,5,0,0:0:0:0:
299,193,25090,2,0,P|276:147|254:125,1,59.9999981689453
206,124,25454,1,0,0:0:0:0:
132,186,25818,1,0,0:0:0:0:
207,242,26181,6,0,P|200:192|224:176,1,59.9999981689453
234,136,26545,2,0,L|286:84,1,59.9999981689453
322,54,26909,2,0,P|357:56|371:85,1,59.9999981689453
368,134,27272,1,0,0:0:0:0:
321,243,27636,6,0,L|264:296,1,59.9999981689453
227,249,28000,2,0,P|185:250|184:230,1,59.9999981689453
202,185,28363,2,0,B|200:143|200:143|220:115,1,59.9999981689453
252,84,28727,2,0,B|282:60|282:60|309:93,1,59.9999981689453
310,154,29090,5,0,0:0:0:0:
311,250,29454,2,0,L|242:300,1,59.9999981689453
203,300,29818,2,0,L|159:253,1,59.9999981689453
176,197,30181,2,0,L|176:119,1,59.9999981689453
221,97,30545,5,0,0:0:0:0:
281,173,30909,2,0,L|237:237,1,59.9999981689453
223,277,31272,2,0,L|246:344,2,59.9999981689453
278,183,32000,6,0,P|274:148|286:102,1,59.9999981689453
317,87,32363,1,0,0:0:0:0:
406,147,32727,2,0,P|433:188|433:213,1,59.9999981689453
435,251,33090,2,0,L|432:328,1,59.9999981689453
378,310,33454,5,0,0:0:0:0:
280,262,33818,1,0,0:0:0:0:
212,178,34181,1,0,0:0:0:0:
176,75,34545,2,0,L|134:81,4,29.9999990844727
