osu file format v14

[General]
AudioFilename: audio.mp3
AudioLeadIn: 0
PreviewTime: 23272
Countdown: 1
SampleSet: Soft
StackLeniency: 0.5
Mode: 0
LetterboxInBreaks: 0
WidescreenStoryboard: 1

[Editor]
Bookmarks: 10272,11636
DistanceSpacing: 1.3
BeatDivisor: 4
GridSize: 32
TimelineZoom: 2

[Metadata]
Title:Random Song 06
TitleUnicode:Random Song 06
Artist:RobTop
ArtistUnicode:RobTop
Creator:xXOsuPersonXx
Version:Frontlines RNG
Source:Geometry Dash
Tags:robtop gd 2.1 geometry dash
BeatmapID:1510073
BeatmapSetID:679668

[Difficulty]
HPDrainRate:4.9
CircleSize:3.5
OverallDifficulty:6.6
ApproachRate:7.5
SliderMultiplier:1.4
SliderTickRate:1

[Events]
//Background and Video events
0,0,"gdbackground.png",0,0
//Break Periods
//Storyboard Layer 0 (Background)
//Storyboard Layer 1 (Fail)
//Storyboard Layer 2 (Pass)
//Storyboard Layer 3 (Foreground)
//Storyboard Sound Samples

[TimingPoints]
0,363.636363636364,4,2,1,50,1,0
11636,-90.9090909090909,4,2,0,60,0,0
23272,-83.3333333333333,4,2,0,80,0,1
34909,-83.3333333333333,4,2,0,80,0,0

[Colours]
Combo1 : 255,193,7
Combo2 : 244,67,54
Combo3 : 3,169,244

[HitObjects]
64,128,0,6,0,B|81:99|81:99|116:70|116:70,2,70
160,160,545,1,0,0:0:0:0:
256,192,727,2,0,B|236:221|236:221|204:250|204:250,2,70
352,224,1272,1,0,0:0:0:0:
416,288,1454,6,0,B|434:319|434:319|480:352|480:352,2,70
352,224,2000,1,0,0:0:0:0:
380,137,2181,2,0,B|371:102|371:102|348:73|348:73,1,70
288,128,2545,1,0,0:0:0:0:
235,22,2727,1,0,0:0:0:0:
136,93,2909,5,0,0:0:0:0:
205,121,3090,1,0,0:0:0:0:
119,146,3272,1,0,0:0:0:0:
190,164,3454,1,0,0:0:0:0:
40,125,3636,2,0,B|57:150|57:150|104:189|104:189,2,70
122,33,4181,1,0,0:0:0:0:
224,64,4363,5,0,0:0:0:0:
224,64,4544,1,0,0:0:0:0:
224,64,4727,2,0,P|274:67|306:87,1,70
291,75,5090,2,0,P|302:114|302:175,1,70
304,143,5454,2,0,P|342:157|371:154,1,70
104,326,5818,6,0,B|87:297|87:297|80:252|80:252,2,70
180,259,6363,1,0,0:0:0:0:
256,192,6545,2,0,B|271:223|271:223|280:266|280:266,2,70
352,192,7090,5,0,0:0:0:0:
419,101,7272,2,0,B|454:101|454:101|506:78|506:78,2,70
339,186,7818,1,0,0:0:0:0:
255,90,8000,2,0,B|224:80|224:80|176:90,2,70
225,182,8545,1,0,0:0:0:0:
133,202,8727,6,0,B|137:232|137:232|165:266|165:266,1,70
242,306,9090,2,0,B|269:317|269:317|313:310|313:310,1,70
383,263,9454,2,0,B|411:229|411:229|414:203,1,70
236,169,9818,1,0,0:0:0:0:
236,169,10000,1,0,0:0:0:0:
220,80,10181,6,0,B|253:66|253:66|304:81,1,70
351,139,10545,1,0,0:0:0:0:
351,139,10727,1,0,0:0:0:0:
387,55,10909,2,0,B|420:69|420:69|471:54,1,70
450,150,11272,2,0,B|471:210|430:246|430:246,1,70
370,163,11636,5,0,0:0:0:0:
370,163,11818,1,0,0:0:0:0:
370,163,12000,2,0,L|355:55,2,77.0000023498536
277,144,12545,1,0,0:0:0:0:
277,144,12727,2,0,L|262:36,1,77.0000023498536
197,16,13090,5,0,0:0:0:0:
182,109,13272,1,0,0:0:0:0:
182,109,13363,1,0,0:0:0:0:
182,109,13454,1,0,0:0:0:0:
133,178,13636,2,0,B|115:208|107:279|107:279,2,77.0000023498536
201,269,14181,2,0,B|205:312|253:345,1,77.0000023498536
288,256,14545,5,0,0:0:0:0:
382,222,14727,1,0,0:0:0:0:
303,159,14909,1,0,0:0:0:0:
215,110,15090,2,0,B|176:105|176:105|114:137|114:137,2,77.0000023498536
210,210,15636,2,0,B|180:239|180:239|170:293,1,77.0000023498536
274,282,16000,5,0,0:0:0:0:
334,203,16181,1,0,0:0:0:0:
384,289,16363,1,0,0:0:0:0:
425,197,16545,2,0,B|459:168|525:169|525:169,2,77.0000023498536
429,96,17090,2,0,P|464:71|468:12,1,77.0000023498536
448,256,17454,6,0,B|431:285|431:285|391:309|391:309,2,77.0000023498536
352,223,17999,1,0,0:0:0:0:
255,191,18181,2,0,B|275:162|275:162|314:128|314:128,2,77.0000023498536
160,160,18726,1,0,0:0:0:0:
178,63,18909,5,0,0:0:0:0:
95,96,19090,2,0,B|73:58|73:58,2,38.5000011749268
186,166,19454,1,0,0:0:0:0:
130,238,19636,2,0,B|138:280|138:280|164:311|164:311,1,77.0000023498536
269,330,20000,2,0,L|360:339|360:339,1,77.0000023498536
369,240,20363,5,0,0:0:0:0:
369,240,20545,2,0,B|384:199|384:199|382:142,2,77.0000023498536
283,187,21090,2,0,P|328:173|354:143,1,77.0000023498536
268,92,21454,1,0,0:0:0:0:
268,92,21636,1,0,0:0:0:0:
183,146,21818,6,0,B|170:187|170:187|190:244|189:245|189:245,1,77.0000023498536
355,226,22181,1,0,0:0:0:0:
355,226,22363,1,0,0:0:0:0:
311,135,22545,2,0,P|392:126|392:126,1,77.0000023498536
403,225,22909,2,0,L|422:282|422:282,3,38.5000011749268
317,280,23272,6,0,B|334:309|334:309|345:398|345:398,2,83.9999974365235
328,184,23818,1,0,0:0:0:0:
242,187,24000,2,0,B|220:147|220:147|215:98|215:98,2,83.9999974365235
214,328,24545,1,0,0:0:0:0:
113,258,24726,5,0,0:0:0:0:
130,135,24909,2,0,B|71:139|71:139,2,41.9999987182618
217,94,25272,1,0,0:0:0:0:
300,146,25454,1,0,0:0:0:0:
320,248,25636,1,0,0:0:0:0:
300,146,25818,1,0,0:0:0:0:
409,192,26181,6,0,B|435:171|435:171|461:108|461:108,2,83.9999974365235
348,101,26726,1,0,0:0:0:0:
302,11,26908,2,0,B|264:31|264:31|230:83|230:83,2,83.9999974365235
229,160,27453,1,0,0:0:0:0:
127,179,27636,6,0,B|93:166|93:166|49:129|49:129,2,83.9999974365235
207,104,28181,1,0,0:0:0:0:
260,54,28363,2,0,B|324:64|324:64|357:81|357:81,1,83.9999974365235
275,182,28727,1,0,0:0:0:0:
395,201,28909,1,0,0:0:0:0:
461,97,29090,6,0,B|461:131|461:131|437:200|437:200,2,83.9999974365235
351,104,29635,1,0,0:0:0:0:
252,151,29817,2,0,B|248:96|248:96|261:53|261:53,2,83.9999974365235
164,216,30362,1,0,0:0:0:0:
252,151,30545,5,0,0:0:0:0:
123,113,30727,2,0,B|105:97|105:97|60:84|60:84,2,41.9999987182618
158,212,31090,1,0,0:0:0:0:
234,290,31272,2,0,B|259:317|259:317|338:349|338:349,1,83.9999974365235
319,225,31636,2,0,L|370:123,1,83.9999974365235
51,287,32000,6,0,B|51:253|51:253|75:184|75:184,2,83.9999974365235
161,280,32545,1,0,0:0:0:0:
260,233,32727,2,0,B|264:288|264:288|251:331|251:331,2,83.9999974365235
164,179,33272,1,0,0:0:0:0:
223,86,33455,6,0,B|261:119|261:119|329:127|329:127,2,83.9999974365235
392,179,34000,1,0,0:0:0:0:
428,93,34181,2,0,B|402:65|402:65|323:33|323:33,1,83.9999974365235
267,110,34546,2,0,L|249:162,4,41.9999987182618,0|0|0|0|14,0:0|0:0|0:0|0:0|0:0,0:0:0:0:
