osu file format v14

[General]
AudioFilename: audio.mp3
AudioLeadIn: 0
PreviewTime: 119118
Countdown: 1
SampleSet: Soft
StackLeniency: 0.7
Mode: 0
LetterboxInBreaks: 0
WidescreenStoryboard: 0

[Editor]
Bookmarks: 35526
DistanceSpacing: 0.8
BeatDivisor: 4
GridSize: 8
TimelineZoom: 1.05

[Metadata]
Title:Bluegoran
TitleUnicode:Bluegoran
Artist:Rob Stein
ArtistUnicode:Rob Stein
Creator:LemonSnail
Version:Insane
Source:
Tags:
BeatmapID:1756278
BeatmapSetID:838890

[Difficulty]
HPDrainRate:6
CircleSize:4
OverallDifficulty:5
ApproachRate:8
SliderMultiplier:1
SliderTickRate:1

[Events]
//Background and Video events
0,0,"black.png",0,0
//Break Periods
2,45910,57744
2,74640,91899
2,96094,376330
//Storyboard Layer 0 (Background)
//Storyboard Layer 1 (Fail)
//Storyboard Layer 2 (Pass)
//Storyboard Layer 3 (Foreground)
//Storyboard Sound Samples

[TimingPoints]
3072,720.948181818182,4,2,0,30,1,0
5870,791.06912751678,4,2,0,30,1,0
11665,759.700000000003,4,2,0,40,1,0
13885,749.600000000003,4,2,0,40,1,0
17178,731.700000000001,4,2,0,40,1,0
18934,764.300000000001,4,2,0,40,1,0
22022,384.060000000003,4,3,0,45,1,0
25066,384.060000000003,4,3,0,45,1,0
26232,386.160000000003,4,3,0,45,1,0
28150,377.346835443038,4,1,0,31,1,0
33388,377.346835443038,4,1,0,31,1,0
46250,-66.6666666666667,4,1,0,85,0,0
49190,379.746835443039,4,1,0,85,1,0
51072,379.746835443039,4,1,0,85,1,0
55185,377.346835443038,4,1,0,85,1,0
58226,377.346835443038,4,1,0,85,1,0
58564,377.346835443038,4,1,0,85,1,0
61998,377.346835443038,4,1,0,85,1,0
64175,380.046835443038,4,1,0,85,1,0
73018,349.532857142856,4,2,0,38,1,0
73367,348.837209302326,4,2,0,30,1,0
74404,370.482857142856,4,2,0,38,1,0
74774,346.622857142856,4,2,0,38,1,0
75813,356.502857142856,4,2,0,38,1,0
77595,342.402857142856,4,2,0,38,1,0
78618,349.532857142856,4,2,0,38,1,0
79317,388.852857142856,4,2,0,38,1,0
80032,361.442857142856,4,2,0,38,1,0
80393,342.462857142856,4,2,0,38,1,0
80735,343.962857142856,4,2,0,38,1,0
81452,349.532857142856,4,2,0,38,1,0
84316,352.832857142856,4,2,0,38,1,0
102684,352.532857142858,4,2,0,38,1,0
104829,348.442857142857,4,2,0,38,1,0
106672,348.442857142857,4,2,0,38,1,0
109502,348.442857142857,4,2,0,38,1,0
110573,361.442857142858,4,2,0,38,1,0
114180,359.272857142858,4,2,0,38,1,0
116339,357.142857142858,4,2,0,38,1,0
117388,357.142857142859,4,2,0,38,1,0
119187,346.822857142859,4,2,0,38,1,0
120697,367.69285714286,4,2,0,38,1,0
122768,357.092857142859,4,2,0,38,1,0
138599,357.392857142859,4,2,0,38,1,0
148867,357.392857142859,4,2,0,38,1,0
157495,357.392857142859,4,2,0,38,1,0
159727,356.892857142859,4,2,0,38,1,0
165488,356.892857142859,4,2,0,38,1,0
173038,356.892857142859,7,2,0,38,1,0
177677,355.192857142859,7,2,0,38,1,0
180135,355.192857142859,7,2,0,38,1,0
192639,355.192857142859,4,2,0,38,1,0
203367,355.192857142859,4,2,0,38,1,0
226272,711.800000000006,4,2,0,25,1,0
229404,713.900000000007,4,2,0,25,1,0
235398,713.900000000007,4,2,0,25,1,0
240268,713.800000000007,4,2,0,25,1,0
243325,715.000000000007,4,2,0,25,1,0
246643,715.000000000007,4,2,0,25,1,0
247443,713.900000000007,4,2,0,25,1,0
254094,767.400000000009,4,2,0,25,1,0
259374,767.400000000009,4,2,0,25,1,0
262405,726.200000000008,4,2,0,25,1,0
271242,731.600000000009,4,2,0,25,1,0
278709,732.80000000001,4,2,0,25,1,0
281605,750.000000000008,4,2,0,25,1,0
284666,763.300000000008,4,2,0,25,1,0
294364,757.700000000008,4,2,0,25,1,0
296579,741.400000000008,4,2,0,25,1,0
298727,728.000000000008,4,2,0,25,1,0
321591,360.025783132528,3,2,0,25,1,0
325897,360.025783132528,3,2,0,25,1,0
329047,360.025783132528,3,2,0,25,1,0
333334,355.63578313253,3,2,0,20,1,0
335467,353.93578313253,3,3,0,35,1,0
338658,355.63563943288,3,2,0,45,1,0
342889,355.63563943288,3,2,0,45,1,0
362041,348.43578313253,7,2,0,100,1,0
366975,348.83578313253,7,2,0,100,1,0
369479,348.83578313253,7,2,0,100,1,0
371981,353.635783132531,7,2,0,100,1,0
374534,363.735783132531,7,2,0,100,1,0
377080,363.735783132531,4,2,0,100,1,0
379195,363.735783132531,4,2,0,100,1,0
380969,363.735783132531,4,2,0,100,1,0
381696,352.435783132531,4,2,0,100,1,0
382690,360.235783132531,4,2,0,100,1,0
385544,360.235783132531,4,2,0,100,1,0
387673,357.93578313253,4,2,0,100,1,0
391202,357.93578313253,4,2,0,100,1,0
395419,357.93578313253,4,2,0,100,1,0
398244,357.03578313253,4,2,0,100,1,0
403890,359.335783132531,4,2,0,100,1,0
406730,359.335783132531,4,2,0,100,1,0
409532,359.335783132531,4,2,0,100,1,0
418115,359.335783132531,7,2,0,100,1,0
420579,359.335783132531,7,2,0,100,1,0
423018,359.335783132531,4,2,0,100,1,0
426537,359.335783132531,4,2,0,100,1,0
429367,359.335783132531,4,2,0,100,1,0
431114,359.335783132531,4,2,0,100,1,0
433227,359.335783132531,4,2,0,100,1,0

[Colours]
Combo1 : 242,121,0
Combo2 : 0,202,0
Combo3 : 18,124,255

[HitObjects]
368,280,30468,6,0,L|416:225,1,50
424,176,31188,1,0,0:0:0:0:
384,120,31549,2,0,P|311:111|269:133,1,100
216,187,32630,5,0,0:0:0:0:
111,244,32991,1,0,0:0:0:0:
51,144,33261,5,0,0:0:0:0:
136,104,33712,2,0,P|179:100|191:81,1,50
368,72,35785,5,0,0:0:0:0:
408,136,36145,1,0,0:0:0:0:
352,184,36505,2,0,P|351:248|289:276,1,137.5,0|2,0:0|0:0,0:0:0:0:
104,288,40290,5,0,0:0:0:0:
247,288,40651,1,0,0:0:0:0:
424,288,41011,1,0,0:0:0:0:
454,220,41372,1,0,0:0:0:0:
360,256,41552,6,0,L|312:232,1,50
152,191,42093,5,0,0:0:0:0:
51,138,42453,1,0,0:0:0:0:
304,160,42724,2,0,L|344:104,2,66.6666666666667
216,288,43625,1,0,0:0:0:0:
333,181,43895,1,0,0:0:0:0:
403,86,44256,1,0,0:0:0:0:
276,53,44616,1,0,0:0:0:0:
162,77,45067,1,0,0:0:0:0:
63,137,45427,2,0,L|85:211,1,75
360,128,58494,6,0,L|344:168,2,33.3333333333333
424,96,58765,2,0,L|440:56,2,33.3333333333333
440,160,59125,2,0,L|424:200,2,33.3333333333333
496,120,59396,6,0,L|512:88,2,33.3333333333333
504,184,59666,1,0,0:0:0:0:
408,312,60117,1,0,0:0:0:0:
320,184,60297,1,0,0:0:0:0:
144,312,61108,6,0,L|120:280,1,33.3333333333333
96,224,61378,2,0,L|120:184,1,33.3333333333333
152,144,61468,2,0,L|192:136,1,33.3333333333333
248,136,61558,1,0,0:0:0:0:
384,280,62099,2,0,L|408:248,2,33.3333333333333
320,280,62460,2,0,L|296:312,2,33.3333333333333
320,216,62820,1,0,0:0:0:0:
272,88,63090,1,0,0:0:0:0:
208,88,63181,2,0,L|192:8,2,66.6666666666667
88,96,63811,2,0,L|80:128,1,33.3333333333333
80,192,64082,2,0,L|104:216,1,33.3333333333333
152,248,64262,2,0,L|192:240,1,33.3333333333333
240,232,64532,2,0,L|264:200,1,33.3333333333333
280,144,64803,6,0,L|264:112,1,33.3333333333333
224,80,64983,2,0,L|184:72,1,33.3333333333333
120,88,65253,1,0,0:0:0:0:
56,248,65343,1,0,0:0:0:0:
160,152,65524,1,0,0:0:0:0:
157,324,65614,1,0,0:0:0:0:
224,192,65794,1,0,0:0:0:0:
280,328,65884,1,0,0:0:0:0:
256,192,66154,12,0,69127,0:0:0:0:
230,104,71471,5,0,0:0:0:0:
256,192,71652,12,0,74440,0:0:0:0:
123,278,92649,6,0,L|97:216,1,50
137,91,93100,1,0,0:0:0:0:
257,267,93460,6,0,L|231:205,1,50
123,278,94001,6,0,L|97:216,1,50
137,91,94542,1,0,0:0:0:0:
123,278,94902,6,0,L|97:216,1,50
278,283,95353,6,0,L|252:221,1,50
292,96,95894,1,0,0:0:0:0:
109,268,377080,5,0,0:0:0:0:
121,137,377807,1,0,0:0:0:0:
267,84,378171,1,0,0:0:0:0:
371,121,378534,2,0,L|405:217,1,100
425,329,379195,2,0,P|353:348|337:326,1,100
172,299,379922,2,0,P|130:277|95:135,1,200
162,62,380969,1,0,0:0:0:0:
276,75,381332,2,0,P|337:85|358:121,1,100
416,208,382048,1,0,0:0:0:0:
385,297,382400,1,0,0:0:0:0:
299,298,382690,6,0,L|241:311,1,50
199,243,383050,2,0,P|146:232|112:182,1,100
98,82,383770,1,0,0:0:0:0:
26,158,384130,1,0,0:0:0:0:
54,298,384851,1,0,0:0:0:0:
123,310,385091,1,0,0:0:0:0:
191,298,385331,1,0,0:0:0:0:
279,224,385544,2,0,L|288:166,2,50
353,342,386624,1,0,0:0:0:0:
399,284,386984,1,0,0:0:0:0:
