osu file format v14

[General]
AudioFilename: audio.mp3
AudioLeadIn: 0
PreviewTime: -1
Countdown: 1
SampleSet: Normal
StackLeniency: 0.7
Mode: 0
LetterboxInBreaks: 0
WidescreenStoryboard: 0

[Editor]
DistanceSpacing: 1
BeatDivisor: 4
GridSize: 8
TimelineZoom: 0.5999999

[Metadata]
Title:Monty on the Run Theme [C64]
TitleUnicode:Monty on the Run Theme [C64]
Artist:Rob Hubbard
ArtistUnicode:Rob Hubbard
Creator:FriendoFox
Version:Run!
Source:
Tags:
BeatmapID:1278568
BeatmapSetID:605157

[Difficulty]
HPDrainRate:6.5
CircleSize:4
OverallDifficulty:8.8
ApproachRate:9.6
SliderMultiplier:2.3
SliderTickRate:1

[Events]
//Background and Video events
0,0,"unknown-space-desktop-background.png",0,0
//Break Periods
2,20937,29805
2,125635,135141
2,253315,261863
//Storyboard Layer 0 (Background)
//Storyboard Layer 1 (Fail)
//Storyboard Layer 2 (Pass)
//Storyboard Layer 3 (Foreground)
//Storyboard Sound Samples

[TimingPoints]
10524.0974425049,319.198936170213,4,1,0,100,1,0
10528,-200,4,1,0,100,0,0
10540,-200,4,1,0,100,0,0
30941,-100,4,1,0,50,0,0
68601,-200,4,1,0,100,0,0
69239,-100,4,1,0,100,0,0
101792,-200,4,1,0,100,0,0
102430,-83.3333333333333,4,1,0,100,0,0
125409,-200,4,1,0,100,0,0
145835,-76.9230769230769,4,1,0,100,0,0
176473,-100,4,1,0,35,0,0
247970,-50,4,1,0,100,0,0
250524,-66.6666666666667,4,1,0,100,0,0
251800,-83.3333333333333,4,1,0,100,0,0
252438,-100,4,1,0,100,0,0

[HitObjects]
104,328,10524,6,0,B|128:312|128:312|152:328|152:328|176:312|208:328|208:328|280:296|328:312,1,230
400,264,11162,2,0,P|408:192|432:144,1,115
376,80,11641,1,0,0:0:0:0:
376,80,11800,2,0,P|309:109|256:112,1,115
232,200,12439,2,0,P|290:242|319:287,1,115
208,304,12918,1,0,0:0:0:0:
208,304,13077,6,0,B|168:280|168:280|136:280|72:240,1,115
72,104,13716,2,0,B|112:128|112:128|144:128|208:168,1,115
304,80,14194,1,0,0:0:0:0:
304,80,14354,6,0,B|344:104|344:104|376:104|440:144,1,115
440,280,14992,2,0,B|400:256|400:256|368:256|304:216,1,115
160,240,15631,6,0,B|192:272|192:272|168:296|168:296|208:336,1,115
352,144,16269,2,0,B|320:112|320:112|344:88|344:88|304:48,1,115
352,240,16748,1,0,0:0:0:0:
352,240,16908,2,0,B|320:272|320:272|344:296|344:296|304:336,1,115
160,144,17546,2,0,B|192:112|192:112|168:88|168:88|208:48,1,115
320,104,18025,1,0,0:0:0:0:
320,104,18184,6,0,B|352:136|352:136|384:128|440:152,1,115
192,280,18823,2,0,B|160:248|160:248|128:256|72:232,1,115
320,280,19302,1,0,0:0:0:0:
320,280,19461,2,0,B|352:248|352:248|384:256|440:232,1,115
112,136,19940,2,0,B|83:139|56:72|56:72|160:64|216:176,1,287.5
360,256,30314,5,0,0:0:0:0:
331,262,30394,1,0,0:0:0:0:
303,268,30474,1,0,0:0:0:0:
274,274,30553,1,0,0:0:0:0:
245,280,30633,1,0,0:0:0:0:
216,286,30713,1,0,0:0:0:0:
187,292,30793,1,0,0:0:0:0:
159,298,30873,1,0,0:0:0:0:
128,304,30952,6,0,B|88:264|120:136|120:136|184:168|352:80|352:80|72:-8|240:216|240:216|272:200|360:176|360:176|376:168|376:168|376:168|376:168,1,862.5
376,176,32229,6,0,L|448:80,1,115
392,280,32548,2,0,L|488:352,1,115
288,288,32868,2,0,L|216:384,1,115
272,184,33187,2,0,L|176:112,1,115
352,96,33506,6,0,B|408:96|408:96|440:104|480:112,1,115
512,192,33825,2,0,B|512:248|512:248|504:280|496:320,1,115
432,368,34144,2,0,B|376:368|376:368|344:360|304:352,1,115
272,272,34464,2,0,B|272:216|272:216|280:184|288:144,1,115
144,64,34783,5,0,0:0:0:0:
112,304,34942,1,0,0:0:0:0:
112,304,35022,1,0,0:0:0:0:
112,304,35102,2,0,L|64:224,1,57.5
192,136,35262,2,0,L|240:216,1,57.5
216,336,35421,2,0,L|196:235,1,57.5
361,192,35581,2,0,L|380:292,1,57.5
456,64,35740,2,0,B|416:88|368:56|368:56|304:88|264:56,1,172.5
264,80,36060,5,0,0:0:0:0:
112,160,36219,1,0,0:0:0:0:
112,160,36299,1,0,0:0:0:0:
112,160,36379,1,0,0:0:0:0:
312,168,36538,1,0,0:0:0:0:
192,32,36698,1,0,0:0:0:0:
208,224,36858,1,0,0:0:0:0:
200,16,37017,1,0,0:0:0:0:
32,128,37177,1,0,0:0:0:0:
120,288,37336,5,0,0:0:0:0:
304,248,37496,1,0,0:0:0:0:
304,248,37576,1,0,0:0:0:0:
304,248,37656,1,0,0:0:0:0:
144,176,37815,1,0,0:0:0:0:
208,360,37975,2,0,P|144:376|88:376,1,115
248,160,38294,2,0,P|312:144|368:144,1,115
304,320,38613,5,0,0:0:0:0:
144,152,38773,1,0,0:0:0:0:
144,152,38853,1,0,0:0:0:0:
144,152,38932,1,0,0:0:0:0:
360,120,39092,1,0,0:0:0:0:
304,336,39252,5,0,0:0:0:0:
192,48,39411,1,0,0:0:0:0:
192,48,39491,1,0,0:0:0:0:
192,48,39571,1,0,0:0:0:0:
432,248,39730,1,0,0:0:0:0:
216,328,39890,6,0,L|80:312,1,115
336,256,40209,2,0,L|208:224,1,115
272,136,40528,2,0,L|136:80,1,115
352,40,40847,2,0,L|224:-48,1,115
352,224,41167,5,0,0:0:0:0:
224,72,41326,1,0,0:0:0:0:
224,72,41406,1,0,0:0:0:0:
224,72,41486,1,0,0:0:0:0:
392,112,41645,1,0,0:0:0:0:
200,200,41805,1,0,0:0:0:0:
400,120,41965,1,0,0:0:0:0:
296,264,42124,1,0,0:0:0:0:
312,48,42284,1,0,0:0:0:0:
400,256,42443,5,0,0:0:0:0:
192,280,42603,1,0,0:0:0:0:
192,280,42683,1,0,0:0:0:0:
192,280,42763,1,0,0:0:0:0:
280,128,42922,1,0,0:0:0:0:
328,360,43082,2,0,P|264:376|208:376,1,115
368,160,43401,2,0,P|432:144|488:144,1,115
128,96,43720,5,0,0:0:0:0:
240,272,43880,1,0,0:0:0:0:
240,272,43960,1,0,0:0:0:0:
240,272,44039,1,0,0:0:0:0:
224,32,44199,1,0,0:0:0:0:
120,320,44359,5,0,0:0:0:0:
440,248,44518,1,0,0:0:0:0:
440,248,44598,1,0,0:0:0:0:
440,248,44678,1,0,0:0:0:0:
122,84,44837,1,0,0:0:0:0:
386,175,44997,5,0,0:0:0:0:
177,237,45157,1,0,0:0:0:0:
177,237,45236,1,0,0:0:0:0:
177,237,45316,1,0,0:0:0:0:
361,53,45476,1,0,0:0:0:0:
368,312,45635,6,0,B|304:360|248:288|312:216|392:296|392:296|480:256|496:144,1,402.5
488,128,46274,6,0,P|432:80|408:32,1,115
304,48,46593,2,0,P|256:104|208:128,1,115
224,240,46912,2,0,P|280:288|304:336,1,115
408,320,47231,2,0,P|456:264|504:240,1,115
472,40,47551,6,0,L|384:120,1,115
200,64,47870,1,0,0:0:0:0:
184,88,47950,1,0,0:0:0:0:
168,112,48029,1,0,0:0:0:0:
152,136,48109,1,0,0:0:0:0:
136,160,48189,1,0,0:0:0:0:
368,112,48349,1,0,0:0:0:0:
72,104,48508,1,0,0:0:0:0:
304,192,48668,1,0,0:0:0:0:
24,256,48827,6,0,P|80:304|104:352,1,115
208,336,49147,2,0,P|256:280|304:256,1,115
288,144,49466,2,0,P|232:96|208:48,1,115
104,64,49785,2,0,P|56:120|8:144,1,115
40,344,50104,6,0,L|128:264,1,115
312,320,50423,1,0,0:0:0:0:
328,296,50503,1,0,0:0:0:0:
344,272,50583,1,0,0:0:0:0:
360,248,50663,1,0,0:0:0:0:
376,224,50743,1,0,0:0:0:0:
144,272,50902,1,0,0:0:0:0:
440,280,51062,1,0,0:0:0:0:
208,192,51221,1,0,0:0:0:0:
296,336,51381,6,0,L|376:224,1,115
248,88,51700,2,0,L|112:120,1,115
301,357,52019,6,0,L|393:228,1,115
246,72,52339,2,0,L|90:109,1,115
384,96,52658,5,0,0:0:0:0:
176,224,52817,1,0,0:0:0:0:
424,200,52977,1,0,0:0:0:0:
384,192,53057,1,0,0:0:0:0:
344,184,53137,1,0,0:0:0:0:
304,176,53216,1,0,0:0:0:0:
264,168,53296,6,0,L|168:144,1,57.5
72,272,53456,2,0,L|168:296,1,57.5
120,120,53615,2,0,L|96:216,1,57.5
224,312,53775,2,0,L|248:216,1,57.5
104,80,53935,6,0,L|72:192,1,115
248,344,54254,2,0,L|280:232,1,115
81,63,54573,2,0,L|44:192,1,115
246,366,54892,2,0,L|283:237,1,115
384,328,55211,5,0,0:0:0:0:
208,168,55371,1,0,0:0:0:0:
464,192,55531,1,0,0:0:0:0:
424,208,55610,1,0,0:0:0:0:
384,224,55690,1,0,0:0:0:0:
344,240,55770,1,0,0:0:0:0:
304,256,55850,6,0,L|208:296,1,57.5
96,96,56009,2,0,L|192:56,1,57.5
120,280,56169,2,0,L|80:184,1,57.5
280,72,56329,2,0,L|320:168,1,57.5
112,304,56488,5,0,0:0:0:0:
192,136,56648,1,0,0:0:0:0:
120,312,56807,1,0,0:0:0:0:
296,288,56967,1,0,0:0:0:0:
128,208,57127,1,0,0:0:0:0:
240,368,57286,1,0,0:0:0:0:
272,144,57446,1,0,0:0:0:0:
224,376,57605,1,0,0:0:0:0:
400,208,57765,5,0,0:0:0:0:
184,280,57925,1,0,0:0:0:0:
408,216,58084,1,0,0:0:0:0:
152,184,58244,1,0,0:0:0:0:
344,296,58403,1,0,0:0:0:0:
272,64,58563,1,0,0:0:0:0:
64,184,58723,1,0,0:0:0:0:
304,200,58882,1,0,0:0:0:0:
136,72,59042,5,0,0:0:0:0:
200,280,59201,1,0,0:0:0:0:
152,64,59361,1,0,0:0:0:0:
80,320,59521,1,0,0:0:0:0:
240,136,59680,1,0,0:0:0:0:
32,224,59840,1,0,0:0:0:0:
320,264,59999,1,0,0:0:0:0:
128,160,60159,1,0,0:0:0:0:
408,336,60319,5,0,0:0:0:0:
336,48,60478,1,0,0:0:0:0:
320,304,60638,1,0,0:0:0:0:
424,88,60797,1,0,0:0:0:0:
216,240,60957,1,0,0:0:0:0:
432,184,61117,1,0,0:0:0:0:
288,144,61276,1,0,0:0:0:0:
312,320,61436,1,0,0:0:0:0:
448,184,61595,5,0,0:0:0:0:
296,320,61755,1,0,0:0:0:0:
376,104,61915,1,0,0:0:0:0:
408,296,62074,1,0,0:0:0:0:
192,240,62234,1,0,0:0:0:0:
264,96,62393,1,0,0:0:0:0:
312,272,62553,1,0,0:0:0:0:
120,136,62713,1,0,0:0:0:0:
352,48,62872,5,0,0:0:0:0:
208,208,63032,1,0,0:0:0:0:
360,56,63191,1,0,0:0:0:0:
312,280,63351,1,0,0:0:0:0:
224,80,63511,1,0,0:0:0:0:
408,176,63670,1,0,0:0:0:0:
192,312,63830,1,0,0:0:0:0:
280,176,63989,1,0,0:0:0:0:
432,328,64149,5,0,0:0:0:0:
168,216,64309,1,0,0:0:0:0:
440,336,64468,1,0,0:0:0:0:
240,96,64628,1,0,0:0:0:0:
280,336,64787,1,0,0:0:0:0:
384,184,64947,1,0,0:0:0:0:
104,112,65107,1,0,0:0:0:0:
360,280,65266,1,0,0:0:0:0:
168,32,65426,5,0,0:0:0:0:
96,280,65585,1,0,0:0:0:0:
256,32,65745,1,0,0:0:0:0:
288,328,65905,1,0,0:0:0:0:
344,32,66064,1,0,0:0:0:0:
192,328,66224,1,0,0:0:0:0:
432,32,66383,1,0,0:0:0:0:
480,336,66543,1,0,0:0:0:0:
152,112,66703,5,0,0:0:0:0:
152,112,66862,1,0,0:0:0:0:
280,160,67181,2,0,B|344:136|344:136|408:208|488:160,2,230
152,256,67979,1,0,0:0:0:0:
192,272,68059,1,0,0:0:0:0:
232,288,68139,1,0,0:0:0:0:
272,304,68219,1,0,0:0:0:0:
312,320,68299,2,0,P|368:304|384:288,1,57.5
312,160,68458,2,0,P|296:104|280:88,1,57.5
144,160,68618,2,0,P|88:176|56:224,1,115
248,304,69256,5,0,0:0:0:0:
400,224,69416,1,0,0:0:0:0:
400,224,69496,1,0,0:0:0:0:
400,224,69575,1,0,0:0:0:0:
200,216,69735,1,0,0:0:0:0:
320,352,69895,1,0,0:0:0:0:
304,160,70054,1,0,0:0:0:0:
312,368,70214,1,0,0:0:0:0:
480,256,70373,1,0,0:0:0:0:
392,96,70533,5,0,0:0:0:0:
208,136,70693,1,0,0:0:0:0:
208,136,70772,1,0,0:0:0:0:
208,136,70852,1,0,0:0:0:0:
368,208,71012,1,0,0:0:0:0:
304,24,71171,2,0,P|368:8|424:8,1,115
264,224,71491,2,0,P|200:240|144:240,1,115
208,64,71810,5,0,0:0:0:0:
368,232,71969,1,0,0:0:0:0:
368,232,72049,1,0,0:0:0:0:
368,232,72129,1,0,0:0:0:0:
152,264,72289,1,0,0:0:0:0:
208,48,72448,5,0,0:0:0:0:
320,336,72608,1,0,0:0:0:0:
320,336,72688,1,0,0:0:0:0:
320,336,72767,1,0,0:0:0:0:
80,136,72927,1,0,0:0:0:0:
296,56,73087,6,0,L|432:72,1,115
176,128,73406,2,0,L|304:160,1,115
240,248,73725,2,0,L|376:304,1,115
160,344,74044,2,0,L|288:432,1,115
160,160,74363,5,0,0:0:0:0:
288,312,74523,1,0,0:0:0:0:
288,312,74603,1,0,0:0:0:0:
288,312,74683,1,0,0:0:0:0:
120,272,74842,1,0,0:0:0:0:
312,184,75002,1,0,0:0:0:0:
112,264,75161,1,0,0:0:0:0:
216,120,75321,1,0,0:0:0:0:
200,336,75481,1,0,0:0:0:0:
112,128,75640,5,0,0:0:0:0:
320,104,75800,1,0,0:0:0:0:
320,104,75880,1,0,0:0:0:0:
320,104,75959,1,0,0:0:0:0:
232,256,76119,1,0,0:0:0:0:
184,24,76279,2,0,P|248:8|304:8,1,115
144,224,76598,2,0,P|80:240|24:240,1,115
384,288,76917,5,0,0:0:0:0:
272,112,77077,1,0,0:0:0:0:
272,112,77156,1,0,0:0:0:0:
272,112,77236,1,0,0:0:0:0:
288,352,77396,1,0,0:0:0:0:
392,64,77555,5,0,0:0:0:0:
72,136,77715,1,0,0:0:0:0:
72,136,77795,1,0,0:0:0:0:
72,136,77875,1,0,0:0:0:0:
390,300,78034,1,0,0:0:0:0:
126,209,78194,5,0,0:0:0:0:
335,147,78353,1,0,0:0:0:0:
335,147,78433,1,0,0:0:0:0:
335,147,78513,1,0,0:0:0:0:
151,331,78673,1,0,0:0:0:0:
144,72,78832,6,0,B|208:24|264:96|200:168|120:88|120:88|32:128|16:240,1,402.5
24,256,79471,6,0,P|80:304|104:352,1,115
208,336,79790,2,0,P|256:280|304:256,1,115
288,144,80109,2,0,P|232:96|208:48,1,115
104,64,80428,2,0,P|56:120|8:144,1,115
40,344,80747,6,0,L|128:264,1,115
312,320,81067,1,0,0:0:0:0:
328,296,81146,1,0,0:0:0:0:
344,272,81226,1,0,0:0:0:0:
360,248,81306,1,0,0:0:0:0:
376,224,81386,1,0,0:0:0:0:
144,272,81545,1,0,0:0:0:0:
440,280,81705,1,0,0:0:0:0:
208,192,81865,1,0,0:0:0:0:
488,128,82024,6,0,P|432:80|408:32,1,115
304,48,82343,2,0,P|256:104|208:128,1,115
224,240,82663,2,0,P|280:288|304:336,1,115
408,320,82982,2,0,P|456:264|504:240,1,115
472,40,83301,6,0,L|384:120,1,115
200,64,83620,1,0,0:0:0:0:
184,88,83700,1,0,0:0:0:0:
168,112,83780,1,0,0:0:0:0:
152,136,83860,1,0,0:0:0:0:
136,160,83939,1,0,0:0:0:0:
368,112,84099,1,0,0:0:0:0:
72,104,84259,1,0,0:0:0:0:
304,192,84418,1,0,0:0:0:0:
216,48,84578,6,0,L|136:160,1,115
264,296,84897,2,0,L|400:264,1,115
211,27,85216,6,0,L|119:156,1,115
266,312,85535,2,0,L|422:275,1,115
128,288,85855,5,0,0:0:0:0:
336,160,86014,1,0,0:0:0:0:
88,184,86174,1,0,0:0:0:0:
128,192,86254,1,0,0:0:0:0:
168,200,86333,1,0,0:0:0:0:
208,208,86413,1,0,0:0:0:0:
248,216,86493,6,0,L|344:240,1,57.5
440,112,86653,2,0,L|344:88,1,57.5
392,264,86812,2,0,L|416:168,1,57.5
288,72,86972,2,0,L|264:168,1,57.5
408,304,87131,6,0,L|440:192,1,115
264,40,87451,2,0,L|232:152,1,115
431,321,87770,2,0,L|468:192,1,115
266,18,88089,2,0,L|229:147,1,115
128,56,88408,5,0,0:0:0:0:
304,216,88568,1,0,0:0:0:0:
48,192,88727,1,0,0:0:0:0:
88,176,88807,1,0,0:0:0:0:
128,160,88887,1,0,0:0:0:0:
168,144,88967,1,0,0:0:0:0:
208,128,89047,6,0,L|304:88,1,57.5
416,288,89206,2,0,L|320:328,1,57.5
392,104,89366,2,0,L|432:200,1,57.5
232,312,89525,2,0,L|192:216,1,57.5
400,80,89685,5,0,0:0:0:0:
208,56,89845,1,0,0:0:0:0:
408,88,90004,1,0,0:0:0:0:
192,200,90164,1,0,0:0:0:0:
320,40,90323,1,0,0:0:0:0:
336,272,90483,1,0,0:0:0:0:
232,104,90643,1,0,0:0:0:0:
344,280,90802,1,0,0:0:0:0:
488,128,90962,5,0,0:0:0:0:
248,208,91121,1,0,0:0:0:0:
496,136,91281,1,0,0:0:0:0:
248,56,91441,1,0,0:0:0:0:
304,304,91600,1,0,0:0:0:0:
320,120,91760,1,0,0:0:0:0:
128,224,91919,1,0,0:0:0:0:
360,216,92079,1,0,0:0:0:0:
136,232,92239,5,0,0:0:0:0:
248,56,92398,1,0,0:0:0:0:
192,320,92558,1,0,0:0:0:0:
152,96,92717,1,0,0:0:0:0:
360,272,92877,1,0,0:0:0:0:
152,104,93037,1,0,0:0:0:0:
360,112,93196,1,0,0:0:0:0:
96,208,93356,1,0,0:0:0:0:
440,32,93515,5,0,0:0:0:0:
152,296,93675,1,0,0:0:0:0:
288,48,93835,1,0,0:0:0:0:
264,296,93994,1,0,0:0:0:0:
384,120,94154,1,0,0:0:0:0:
176,216,94313,1,0,0:0:0:0:
336,216,94473,1,0,0:0:0:0:
256,136,94633,1,0,0:0:0:0:
336,320,94792,5,0,0:0:0:0:
248,144,94952,1,0,0:0:0:0:
456,152,95111,1,0,0:0:0:0:
224,272,95271,1,0,0:0:0:0:
464,160,95431,1,0,0:0:0:0:
320,72,95590,1,0,0:0:0:0:
416,272,95750,1,0,0:0:0:0:
432,40,95909,1,0,0:0:0:0:
224,152,96069,5,0,0:0:0:0:
336,336,96229,1,0,0:0:0:0:
352,96,96388,1,0,0:0:0:0:
344,344,96548,1,0,0:0:0:0:
168,256,96707,1,0,0:0:0:0:
416,192,96867,1,0,0:0:0:0:
224,352,97027,1,0,0:0:0:0:
224,104,97186,1,0,0:0:0:0:
432,304,97346,5,0,0:0:0:0:
128,184,97505,1,0,0:0:0:0:
472,208,97665,5,0,0:0:0:0:
128,320,97825,1,0,0:0:0:0:
464,104,97984,5,0,0:0:0:0:
272,360,98144,1,0,0:0:0:0:
392,8,98303,5,0,0:0:0:0:
416,296,98463,1,0,0:0:0:0:
136,64,98623,5,0,0:0:0:0:
472,232,98782,1,0,0:0:0:0:
88,136,98942,1,0,0:0:0:0:
504,160,99101,1,0,0:0:0:0:
136,56,99261,1,0,0:0:0:0:
472,240,99421,1,0,0:0:0:0:
80,144,99580,1,0,0:0:0:0:
512,160,99740,1,0,0:0:0:0:
128,312,99899,5,0,0:0:0:0:
128,312,100059,1,0,0:0:0:0:
128,312,100378,2,0,B|168:240|168:240|200:232|200:232|200:208|256:208|280:144,1,230
360,320,101016,1,0,0:0:0:0:
424,136,101176,5,0,0:0:0:0:
392,112,101256,1,0,0:0:0:0:
360,88,101336,1,0,0:0:0:0:
328,64,101415,1,0,0:0:0:0:
296,48,101495,2,0,L|208:72,1,57.5
112,152,101655,2,0,L|136:240,1,57.5
216,336,101814,2,0,L|264:232,1,115
408,256,102453,6,0,B|336:208|336:136|336:136|256:152|192:56,1,275.999991577149
72,176,102932,1,0,0:0:0:0:
72,176,103011,1,0,0:0:0:0:
72,176,103091,2,0,P|64:208|24:256,1,68.9999978942872
328,184,103251,2,0,P|360:192|408:232,1,68.9999978942872
152,208,103410,2,0,P|152:246|122:312,1,68.9999978942872
438,141,103570,2,0,P|476:141|541:171,1,68.9999978942872
224,320,103730,6,0,B|168:304|152:256|152:256|200:168|136:80,1,275.999991577149
144,192,104208,2,0,L|208:104,1,68.9999978942872
202,312,104368,2,0,B|149:287|142:236|142:236|205:158|157:60,1,275.999991577149
136,104,104767,1,0,0:0:0:0:
120,144,104847,1,0,0:0:0:0:
112,184,104927,1,0,0:0:0:0:
112,224,105006,1,0,0:0:0:0:
120,264,105086,1,0,0:0:0:0:
136,304,105166,1,0,0:0:0:0:
392,64,105326,1,0,0:0:0:0:
376,112,105405,1,0,0:0:0:0:
360,160,105485,1,0,0:0:0:0:
344,208,105565,1,0,0:0:0:0:
320,256,105645,6,0,B|288:280|288:280|256:328,1,68.9999978942872
200,240,105804,2,0,B|195:200|195:200|169:148,1,68.9999978942872
40,328,105964,2,0,B|76:343|76:343|134:347,1,68.9999978942872
48,152,106124,2,0,B|16:176|16:176|-16:224,1,68.9999978942872
248,64,106283,2,0,B|208:61|208:61|152:78,1,68.9999978942872
456,152,106443,2,0,B|384:112|320:144|320:144|304:216|376:280,1,275.999991577149
208,272,106842,1,0,0:0:0:0:
208,272,106922,6,0,P|272:296|368:280,1,137.999995788574
112,192,107161,1,0,0:0:0:0:
112,192,107241,6,0,P|179:180|254:118,1,137.999995788574
456,56,107480,1,0,0:0:0:0:
456,56,107560,2,0,B|392:144|520:144|376:104|376:104|384:176|464:224,1,275.999991577149
104,72,108039,1,0,0:0:0:0:
104,72,108119,1,0,0:0:0:0:
104,72,108198,2,0,P|144:72|192:16,1,68.9999978942872
288,312,108358,2,0,P|313:281|301:208,1,68.9999978942872
176,192,108518,2,0,P|212:175|232:104,1,68.9999978942872
444,331,108677,2,0,P|454:292|412:231,1,68.9999978942872
96,328,108837,6,0,B|184:336|224:256|224:256|288:208|344:240,1,275.999991577149
232,320,109316,2,0,L|216:208,1,68.9999978942872
122,353,109475,2,0,B|210:346|235:260|235:260|290:202|350:223,1,275.999991577149
400,208,109874,1,0,0:0:0:0:
432,152,109954,1,0,0:0:0:0:
416,88,110034,1,0,0:0:0:0:
360,64,110114,5,0,0:0:0:0:
304,80,110193,1,0,0:0:0:0:
272,136,110273,1,0,0:0:0:0:
72,72,110433,1,0,0:0:0:0:
112,120,110513,1,0,0:0:0:0:
152,168,110592,1,0,0:0:0:0:
192,216,110672,1,0,0:0:0:0:
232,264,110752,6,0,B|264:288|264:288|320:296,1,68.9999978942872
208,64,110912,2,0,B|176:40|176:40|120:32,1,68.9999978942872
368,320,111071,6,0,B|410:310|410:310|457:268,1,68.9999978942872
180,197,111231,2,0,B|137:206|137:206|90:248,1,68.9999978942872
384,80,111390,2,0,L|328:144,1,68.9999978942872
72,104,111550,2,0,B|144:72|144:72|200:96|288:64|288:64|240:144,1,275.999991577149
184,224,111949,1,0,0:0:0:0:
184,224,112029,2,0,B|240:216|264:200|264:200|240:256,1,137.999995788574
48,320,112268,1,0,0:0:0:0:
48,320,112348,2,0,B|104:312|128:296|128:296|104:352,1,137.999995788574
368,304,112587,1,0,0:0:0:0:
368,304,112667,6,0,B|432:160|432:160|360:56|328:40|328:40|304:96|256:112,1,413.999987365723
176,224,113306,2,0,B|152:168|152:168|168:144|176:80,1,137.999995788574
272,328,113625,2,0,B|263:267|263:267|284:248|309:188,1,137.999995788574
344,56,113944,5,0,0:0:0:0:
224,160,114104,1,0,0:0:0:0:
400,216,114263,1,0,0:0:0:0:
232,56,114423,1,0,0:0:0:0:
88,240,114582,1,0,0:0:0:0:
320,144,114742,1,0,0:0:0:0:
224,320,114902,1,0,0:0:0:0:
320,136,115061,1,0,0:0:0:0:
0,120,115221,6,0,B|-24:200|-24:200|32:208|8:288|8:288|104:224|168:248|168:248|224:216,1,413.999987365723
104,24,115859,2,0,P|144:88|120:144,1,137.999995788574
352,208,116178,2,0,P|335:281|278:304,1,137.999995788574
120,152,116498,5,0,0:0:0:0:
328,80,116657,1,0,0:0:0:0:
168,240,116817,1,0,0:0:0:0:
336,88,116976,1,0,0:0:0:0:
176,56,117136,1,0,0:0:0:0:
304,208,117296,1,0,0:0:0:0:
64,176,117455,1,0,0:0:0:0:
312,208,117615,1,0,0:0:0:0:
96,88,117774,6,0,B|160:152|152:208|152:208|112:256|104:336,1,275.999991577149
384,320,118253,1,0,0:0:0:0:
384,320,118333,1,0,0:0:0:0:
384,320,118413,2,0,L|368:240,1,68.9999978942872
128,64,118572,2,0,L|144:144,1,68.9999978942872
141,252,118732,2,0,L|128:320,1,68.9999978942872
370,131,118892,2,0,L|384:64,1,68.9999978942872
432,306,119051,6,0,B|361:236|370:174|370:174|414:121|423:33,1,275.999991577149
115,51,119530,1,0,0:0:0:0:
115,51,119610,1,0,0:0:0:0:
115,51,119690,2,0,L|132:139,1,68.9999978942872
396,332,119849,2,0,L|379:244,1,68.9999978942872
381,125,120009,2,0,L|396:51,1,68.9999978942872
130,258,120168,2,0,L|115:332,1,68.9999978942872
280,56,120328,5,0,0:0:0:0:
232,336,120488,2,0,L|320:272,1,68.9999978942872
112,144,120647,1,0,0:0:0:0:
392,232,120807,1,0,0:0:0:0:
160,48,120966,1,0,0:0:0:0:
136,280,121126,1,0,0:0:0:0:
336,56,121286,1,0,0:0:0:0:
56,168,121445,1,0,0:0:0:0:
368,272,121605,5,0,0:0:0:0:
232,88,121764,2,0,L|128:64,1,68.9999978942872
216,328,121924,1,0,0:0:0:0:
408,136,122084,1,0,0:0:0:0:
168,216,122243,1,0,0:0:0:0:
472,272,122403,1,0,0:0:0:0:
304,32,122562,1,0,0:0:0:0:
232,320,122722,1,0,0:0:0:0:
368,136,122882,5,0,0:0:0:0:
368,136,123041,1,0,0:0:0:0:
368,136,123360,2,0,B|288:96|288:96|216:136|216:136|192:96|88:112,1,275.999991577149
352,280,123999,1,0,0:0:0:0:
288,56,124158,6,0,L|384:80,1,68.9999978942872
208,168,124318,2,0,L|192:96,1,68.9999978942872
392,200,124478,2,0,L|296:176,1,68.9999978942872
472,88,124637,2,0,L|488:160,1,68.9999978942872
424,368,124797,2,0,B|104:264|104:264|80:48|80:48,1,551.999983154297
440,64,135650,6,0,L|384:176,1,115
272,48,136288,1,0,0:0:0:0:
272,48,136448,1,0,0:0:0:0:
272,48,136607,2,0,L|336:40,1,57.5
72,320,136926,6,0,L|128:208,1,115
240,336,137565,1,0,0:0:0:0:
240,336,137724,1,0,0:0:0:0:
240,336,137884,2,0,L|176:344,1,57.5
160,48,138203,6,0,P|144:112|80:128,1,115
248,224,138842,1,0,0:0:0:0:
248,224,139001,1,0,0:0:0:0:
248,224,139161,2,0,L|224:144,1,57.5
352,336,139480,6,0,P|368:272|432:256,1,115
264,160,140118,1,0,0:0:0:0:
264,160,140278,1,0,0:0:0:0:
264,160,140438,2,0,L|288:240,1,57.5
256,320,140757,5,0,0:0:0:0:
128,144,141076,1,0,0:0:0:0:
136,288,141395,2,0,L|184:248,1,57.5
192,56,141714,1,0,0:0:0:0:
256,332,142034,5,0,0:0:0:0:
115,139,142353,1,0,0:0:0:0:
124,297,142672,2,0,L|176:253,1,57.5
185,42,142991,1,0,0:0:0:0:
256,320,143310,5,0,0:0:0:0:
384,144,143630,1,0,0:0:0:0:
376,288,143949,2,0,L|328:248,1,57.5
320,56,144268,1,0,0:0:0:0:
256,332,144587,5,0,0:0:0:0:
396,139,144906,1,0,0:0:0:0:
388,297,145226,1,0,0:0:0:0:
366,278,145305,1,0,0:0:0:0:
344,259,145385,1,0,0:0:0:0:
322,240,145465,1,0,0:0:0:0:
300,221,145545,1,0,0:0:0:0:
278,202,145625,1,0,0:0:0:0:
255,183,145704,1,0,0:0:0:0:
233,164,145784,1,0,0:0:0:0:
208,144,145864,5,0,0:0:0:0:
392,80,146024,1,0,0:0:0:0:
392,80,146103,1,0,0:0:0:0:
392,80,146183,1,0,0:0:0:0:
192,176,146343,1,0,0:0:0:0:
448,176,146502,1,0,0:0:0:0:
240,88,146662,1,0,0:0:0:0:
408,264,146822,1,0,0:0:0:0:
144,256,146981,1,0,0:0:0:0:
328,176,147141,5,0,0:0:0:0:
256,336,147300,1,0,0:0:0:0:
256,336,147380,1,0,0:0:0:0:
256,336,147460,1,0,0:0:0:0:
192,120,147620,1,0,0:0:0:0:
48,232,147779,2,0,L|216:264,1,149.499993156433
448,152,148098,2,0,L|280:120,1,149.499993156433
360,240,148418,5,0,0:0:0:0:
160,128,148577,1,0,0:0:0:0:
160,128,148657,1,0,0:0:0:0:
160,128,148737,1,0,0:0:0:0:
368,256,148896,1,0,0:0:0:0:
288,56,149056,1,0,0:0:0:0:
152,304,149216,1,0,0:0:0:0:
152,304,149295,1,0,0:0:0:0:
152,304,149375,1,0,0:0:0:0:
400,56,149535,1,0,0:0:0:0:
448,336,149694,6,0,L|256:344,1,149.499993156433
400,224,150014,2,0,L|192:224,1,149.499993156433
64,48,150333,6,0,L|256:40,1,149.499993156433
112,160,150652,2,0,L|320:160,1,149.499993156433
136,280,150971,5,0,0:0:0:0:
352,240,151131,1,0,0:0:0:0:
352,240,151211,1,0,0:0:0:0:
352,240,151290,1,0,0:0:0:0:
152,168,151450,1,0,0:0:0:0:
328,344,151610,1,0,0:0:0:0:
240,112,151769,1,0,0:0:0:0:
240,336,151929,1,0,0:0:0:0:
328,120,152088,1,0,0:0:0:0:
80,64,152248,5,0,0:0:0:0:
240,216,152408,1,0,0:0:0:0:
240,216,152487,1,0,0:0:0:0:
240,216,152567,1,0,0:0:0:0:
240,24,152727,1,0,0:0:0:0:
120,280,152886,2,0,B|144:216|128:184|128:184|160:104,1,149.499993156433
365,136,153206,2,0,B|384:184|384:184|368:216|392:280,1,149.499993156433
40,320,153525,5,0,0:0:0:0:
296,216,153684,1,0,0:0:0:0:
296,216,153764,1,0,0:0:0:0:
296,216,153844,1,0,0:0:0:0:
176,344,154004,1,0,0:0:0:0:
200,48,154163,1,0,0:0:0:0:
408,296,154323,1,0,0:0:0:0:
408,296,154403,1,0,0:0:0:0:
408,296,154482,1,0,0:0:0:0:
80,136,154642,1,0,0:0:0:0:
432,176,154802,5,0,0:0:0:0:
160,264,154961,1,0,0:0:0:0:
360,56,155121,1,0,0:0:0:0:
304,336,155280,1,0,0:0:0:0:
208,160,155440,2,0,B|112:136|80:216|80:216|40:248|40:248|72:288|88:360,1,298.999986312867
432,280,156078,5,0,0:0:0:0:
352,112,156238,1,0,0:0:0:0:
272,304,156398,1,0,0:0:0:0:
272,304,156557,1,0,0:0:0:0:
176,112,156717,5,0,0:0:0:0:
344,248,156876,1,0,0:0:0:0:
96,240,157036,5,0,0:0:0:0:
288,160,157196,1,0,0:0:0:0:
80,104,157355,5,0,0:0:0:0:
160,272,157515,1,0,0:0:0:0:
240,80,157674,1,0,0:0:0:0:
240,80,157834,1,0,0:0:0:0:
336,272,157994,5,0,0:0:0:0:
168,136,158153,1,0,0:0:0:0:
416,144,158313,5,0,0:0:0:0:
224,224,158472,1,0,0:0:0:0:
352,48,158632,5,0,0:0:0:0:
416,248,158792,1,0,0:0:0:0:
456,48,158951,1,0,0:0:0:0:
456,48,159111,1,0,0:0:0:0:
200,120,159270,5,0,0:0:0:0:
336,280,159430,1,0,0:0:0:0:
352,56,159590,5,0,0:0:0:0:
256,232,159749,1,0,0:0:0:0:
160,336,159909,5,0,0:0:0:0:
96,136,160068,1,0,0:0:0:0:
56,336,160228,1,0,0:0:0:0:
56,336,160387,1,0,0:0:0:0:
312,264,160547,5,0,0:0:0:0:
176,104,160707,1,0,0:0:0:0:
160,328,160866,5,0,0:0:0:0:
256,152,161026,1,0,0:0:0:0:
464,328,161185,5,0,0:0:0:0:
384,184,161345,1,0,0:0:0:0:
352,344,161505,2,0,L|400:160,1,149.499993156433
352,64,161824,1,0,0:0:0:0:
232,216,161983,1,0,0:0:0:0:
512,96,162143,2,0,L|360:72,1,149.499993156433
48,56,162462,5,0,0:0:0:0:
128,200,162622,1,0,0:0:0:0:
160,40,162781,2,0,L|112:224,1,149.499993156433
160,320,163101,1,0,0:0:0:0:
280,168,163260,1,0,0:0:0:0:
0,288,163420,2,0,L|152:312,1,149.499993156433
280,72,163739,5,0,0:0:0:0:
160,208,163899,1,0,0:0:0:0:
384,152,164058,1,0,0:0:0:0:
128,104,164218,1,0,0:0:0:0:
376,328,164377,1,0,0:0:0:0:
240,160,164537,1,0,0:0:0:0:
400,160,164697,1,0,0:0:0:0:
152,312,164856,1,0,0:0:0:0:
320,72,165016,5,0,0:0:0:0:
312,288,165175,1,0,0:0:0:0:
200,96,165335,1,0,0:0:0:0:
72,200,165495,1,0,0:0:0:0:
312,192,165654,1,0,0:0:0:0:
128,16,165814,1,0,0:0:0:0:
184,248,165973,1,0,0:0:0:0:
136,16,166133,1,0,0:0:0:0:
432,248,166293,6,0,B|360:192|408:88|408:88|304:56|256:128|256:128|208:64|104:120|104:120|80:128|80:128,1,523.249976047517
80,160,166931,2,0,P|160:224|216:232,1,149.499993156433
400,48,167250,2,0,P|336:128|328:184,1,149.499993156433
400,288,167569,5,0,0:0:0:0:
216,184,167729,1,0,0:0:0:0:
448,184,167889,1,0,0:0:0:0:
384,48,168048,1,0,0:0:0:0:
280,256,168208,2,0,P|208:288|144:240,1,149.499993156433
288,56,168527,2,0,L|376:176,1,149.499993156433
224,200,168766,1,0,0:0:0:0:
224,200,168846,6,0,L|200:352,1,149.499993156433
24,80,169086,1,0,0:0:0:0:
24,80,169165,2,0,P|120:144|152:192,1,149.499993156433
208,304,169485,1,0,0:0:0:0:
392,112,169644,1,0,0:0:0:0:
192,200,169804,1,0,0:0:0:0:
368,344,169963,1,0,0:0:0:0:
176,88,170123,5,0,0:0:0:0:
104,200,170283,1,0,0:0:0:0:
216,272,170442,1,0,0:0:0:0:
288,152,170602,1,0,0:0:0:0:
176,96,170761,5,0,0:0:0:0:
130,289,170921,1,0,0:0:0:0:
326,334,171081,1,0,0:0:0:0:
366,127,171240,1,0,0:0:0:0:
168,88,171400,6,0,B|128:48|128:48|104:88|120:168,1,149.499993156433
344,296,171719,2,0,B|384:336|384:336|408:296|392:216,1,149.499993156433
344,88,172038,2,0,B|384:48|384:48|408:88|392:168,1,149.499993156433
168,296,172357,2,0,B|128:336|128:336|104:296|120:216,1,149.499993156433
256,40,172677,2,0,B|232:96|280:96|256:40|256:40|256:160,1,149.499993156433
256,344,172996,2,0,B|280:288|232:288|256:344|256:344|256:224,1,149.499993156433
120,80,173315,5,0,0:0:0:0:
120,80,173395,1,0,0:0:0:0:
120,80,173475,1,0,0:0:0:0:
120,80,173554,1,0,0:0:0:0:
120,80,173634,1,0,0:0:0:0:
360,288,173794,1,0,0:0:0:0:
360,288,173874,1,0,0:0:0:0:
360,288,173953,6,0,B|432:272|464:232|464:232|432:208|384:224,1,149.499993156433
200,184,174193,1,0,0:0:0:0:
200,184,174273,2,0,B|234:118|223:68|223:68|184:77|166:124,1,149.499993156433
288,216,174592,2,0,B|346:171|358:121|358:121|319:113|282:147,1,149.499993156433
99,189,174831,1,0,0:0:0:0:
99,189,174911,2,0,B|102:115|71:74|71:74|40:98|43:149,1,149.499993156433
120,320,175230,6,0,B|144:256|192:240|192:240|208:176,1,149.499993156433
456,136,175470,1,0,0:0:0:0:
456,136,175549,2,0,B|432:200|384:216|384:216|368:280,1,149.499993156433
104,96,175869,5,0,0:0:0:0:
288,240,176028,1,0,0:0:0:0:
224,128,176188,1,0,0:0:0:0:
296,248,176347,1,0,0:0:0:0:
48,192,176507,5,0,0:0:0:0:
60,204,176587,1,0,0:0:0:0:
72,216,176667,1,0,0:0:0:0:
84,228,176746,1,0,0:0:0:0:
96,240,176826,1,0,0:0:0:0:
108,252,176906,1,0,0:0:0:0:
120,264,176986,1,0,0:0:0:0:
132,276,177066,1,0,0:0:0:0:
157,287,177145,1,0,0:0:0:0:
185,292,177225,1,0,0:0:0:0:
213,287,177305,1,0,0:0:0:0:
237,271,177385,1,0,0:0:0:0:
253,247,177465,1,0,0:0:0:0:
258,218,177544,1,0,0:0:0:0:
251,190,177624,1,0,0:0:0:0:
236,165,177704,1,0,0:0:0:0:
264,166,177784,5,0,0:0:0:0:
291,157,177864,1,0,0:0:0:0:
312,137,177943,1,0,0:0:0:0:
326,111,178023,1,0,0:0:0:0:
332,82,178103,1,0,0:0:0:0:
326,53,178183,1,0,0:0:0:0:
309,29,178263,1,0,0:0:0:0:
283,14,178342,1,0,0:0:0:0:
237,17,178422,1,0,0:0:0:0:
202,47,178502,1,0,0:0:0:0:
187,90,178582,1,0,0:0:0:0:
202,132,178662,1,0,0:0:0:0:
239,158,178741,1,0,0:0:0:0:
285,160,178821,1,0,0:0:0:0:
322,132,178901,1,0,0:0:0:0:
334,88,178981,1,0,0:0:0:0:
345,114,179061,5,0,0:0:0:0:
356,140,179140,1,0,0:0:0:0:
367,166,179220,1,0,0:0:0:0:
378,192,179300,1,0,0:0:0:0:
389,218,179380,1,0,0:0:0:0:
400,244,179460,1,0,0:0:0:0:
411,270,179539,1,0,0:0:0:0:
423,296,179619,1,0,0:0:0:0:
394,292,179699,1,0,0:0:0:0:
365,288,179779,1,0,0:0:0:0:
336,284,179859,1,0,0:0:0:0:
307,280,179938,1,0,0:0:0:0:
278,276,180018,1,0,0:0:0:0:
249,272,180098,1,0,0:0:0:0:
220,269,180178,1,0,0:0:0:0:
191,266,180258,1,0,0:0:0:0:
162,262,180337,6,0,P|102:219|65:148,1,115
373,115,180657,2,0,L|252:173,1,115
90,79,180976,1,0,0:0:0:0:
292,47,181135,1,0,0:0:0:0:
157,179,181295,1,0,0:0:0:0:
297,44,181455,1,0,0:0:0:0:
452,159,181614,5,0,0:0:0:0:
459,186,181694,1,0,0:0:0:0:
459,214,181774,1,0,0:0:0:0:
449,241,181854,1,0,0:0:0:0:
431,263,181933,1,0,0:0:0:0:
407,278,182013,1,0,0:0:0:0:
378,284,182093,1,0,0:0:0:0:
349,278,182173,1,0,0:0:0:0:
372,238,182253,1,0,0:0:0:0:
378,192,182332,1,0,0:0:0:0:
365,148,182412,1,0,0:0:0:0:
334,113,182492,1,0,0:0:0:0:
289,99,182572,1,0,0:0:0:0:
244,111,182652,1,0,0:0:0:0:
214,145,182731,1,0,0:0:0:0:
202,189,182811,1,0,0:0:0:0:
236,168,182891,5,0,0:0:0:0:
231,127,182971,1,0,0:0:0:0:
210,92,183051,1,0,0:0:0:0:
171,81,183130,1,0,0:0:0:0:
132,92,183210,1,0,0:0:0:0:
103,121,183290,1,0,0:0:0:0:
98,161,183370,1,0,0:0:0:0:
118,195,183450,1,0,0:0:0:0:
99,216,183529,1,0,0:0:0:0:
95,244,183609,1,0,0:0:0:0:
108,269,183689,1,0,0:0:0:0:
133,281,183769,1,0,0:0:0:0:
161,283,183849,1,0,0:0:0:0:
185,267,183928,1,0,0:0:0:0:
197,240,184008,1,0,0:0:0:0:
192,211,184088,1,0,0:0:0:0:
178,185,184168,6,0,P|141:117|98:85,1,115
302,269,184487,1,0,0:0:0:0:
210,49,184647,1,0,0:0:0:0:
184,192,184806,2,0,P|176:256|200:304,1,115
392,312,185125,2,0,P|400:248|376:200,1,115
334,199,185445,6,0,P|371:267|414:299,1,115
210,115,185764,1,0,0:0:0:0:
302,335,185923,1,0,0:0:0:0:
328,192,186083,2,0,P|336:128|312:80,1,115
120,72,186402,2,0,P|112:136|136:184,1,115
448,168,186721,5,0,0:0:0:0:
432,144,186801,1,0,0:0:0:0:
416,120,186881,1,0,0:0:0:0:
400,96,186961,1,0,0:0:0:0:
376,80,187041,1,0,0:0:0:0:
352,72,187120,1,0,0:0:0:0:
328,56,187200,1,0,0:0:0:0:
304,48,187280,1,0,0:0:0:0:
272,48,187360,1,0,0:0:0:0:
240,48,187440,1,0,0:0:0:0:
208,48,187519,1,0,0:0:0:0:
176,56,187599,1,0,0:0:0:0:
144,56,187679,1,0,0:0:0:0:
112,64,187759,1,0,0:0:0:0:
80,64,187839,1,0,0:0:0:0:
48,72,187918,1,0,0:0:0:0:
28,106,187998,5,0,0:0:0:0:
30,146,188078,1,0,0:0:0:0:
50,180,188158,1,0,0:0:0:0:
85,199,188238,1,0,0:0:0:0:
125,199,188317,1,0,0:0:0:0:
160,181,188397,1,0,0:0:0:0:
190,154,188477,1,0,0:0:0:0:
226,137,188557,1,0,0:0:0:0:
277,135,188637,1,0,0:0:0:0:
321,160,188716,1,0,0:0:0:0:
350,202,188796,1,0,0:0:0:0:
359,253,188876,1,0,0:0:0:0:
340,301,188956,1,0,0:0:0:0:
299,333,189036,1,0,0:0:0:0:
248,340,189115,1,0,0:0:0:0:
200,318,189195,1,0,0:0:0:0:
173,287,189275,5,0,0:0:0:0:
146,256,189355,1,0,0:0:0:0:
119,225,189435,1,0,0:0:0:0:
92,195,189514,1,0,0:0:0:0:
131,185,189594,1,0,0:0:0:0:
170,175,189674,1,0,0:0:0:0:
209,165,189754,1,0,0:0:0:0:
248,155,189834,1,0,0:0:0:0:
215,132,189913,1,0,0:0:0:0:
181,108,189993,1,0,0:0:0:0:
147,85,190073,1,0,0:0:0:0:
113,61,190153,1,0,0:0:0:0:
131,96,190233,1,0,0:0:0:0:
150,131,190312,1,0,0:0:0:0:
169,166,190392,1,0,0:0:0:0:
188,201,190472,1,0,0:0:0:0:
221,177,190552,5,0,0:0:0:0:
253,154,190632,1,0,0:0:0:0:
292,159,190711,1,0,0:0:0:0:
328,140,190791,1,0,0:0:0:0:
342,102,190871,1,0,0:0:0:0:
375,80,190951,1,0,0:0:0:0:
414,80,191031,1,0,0:0:0:0:
448,58,191110,1,0,0:0:0:0:
488,56,191190,6,0,L|550:108,1,57.5
464,160,191350,2,0,L|484:238,1,57.5
376,216,191509,2,0,L|348:292,1,57.5
264,232,191669,2,0,L|197:278,1,57.5
86,57,191829,5,0,0:0:0:0:
108,61,191908,1,0,0:0:0:0:
130,65,191988,1,0,0:0:0:0:
152,69,192068,1,0,0:0:0:0:
174,73,192148,1,0,0:0:0:0:
196,77,192228,1,0,0:0:0:0:
218,81,192307,1,0,0:0:0:0:
240,84,192387,1,0,0:0:0:0:
260,118,192467,1,0,0:0:0:0:
280,152,192547,1,0,0:0:0:0:
300,186,192627,1,0,0:0:0:0:
320,220,192706,1,0,0:0:0:0:
340,254,192786,1,0,0:0:0:0:
360,288,192866,1,0,0:0:0:0:
381,322,192946,1,0,0:0:0:0:
401,356,193026,1,0,0:0:0:0:
369,342,193105,5,0,0:0:0:0:
336,328,193185,1,0,0:0:0:0:
304,315,193265,1,0,0:0:0:0:
271,301,193345,1,0,0:0:0:0:
238,288,193425,1,0,0:0:0:0:
205,274,193504,1,0,0:0:0:0:
172,261,193584,1,0,0:0:0:0:
141,246,193664,1,0,0:0:0:0:
109,230,193744,5,0,0:0:0:0:
345,161,193903,1,0,0:0:0:0:
112,239,194063,5,0,0:0:0:0:
422,229,194223,1,0,0:0:0:0:
88,56,194382,5,0,0:0:0:0:
82,90,194462,1,0,0:0:0:0:
77,124,194542,1,0,0:0:0:0:
72,158,194622,1,0,0:0:0:0:
67,192,194701,1,0,0:0:0:0:
62,225,194781,1,0,0:0:0:0:
57,259,194861,1,0,0:0:0:0:
52,293,194941,1,0,0:0:0:0:
85,299,195021,1,0,0:0:0:0:
118,305,195100,1,0,0:0:0:0:
151,312,195180,1,0,0:0:0:0:
184,318,195260,1,0,0:0:0:0:
217,325,195340,1,0,0:0:0:0:
250,332,195420,1,0,0:0:0:0:
283,338,195499,1,0,0:0:0:0:
316,345,195579,1,0,0:0:0:0:
349,351,195659,6,0,L|383:253,1,57.5
136,181,195819,2,0,L|208:106,1,57.5
78,345,195978,6,0,L|174:308,1,57.5
71,72,196138,2,0,L|174:79,1,57.5
444,94,196297,2,0,P|401:72|378:38,1,57.5
367,208,196457,2,0,P|337:169|330:129,1,57.5
263,303,196617,2,0,P|252:255|263:216,1,57.5
126,316,196776,2,0,P|136:268|163:237,1,57.5
384,320,196936,6,0,B|448:312|448:312|472:320|512:296,1,115
128,64,197255,2,0,B|64:72|64:72|40:64|0:88,1,115
392,328,197574,2,0,B|460:319|460:319|485:328|528:302,1,115
119,55,197893,2,0,B|51:64|51:64|26:55|-16:81,1,115
128,320,198213,6,0,B|64:312|64:312|40:320|0:296,1,115
384,64,198532,2,0,B|448:72|448:72|472:64|512:88,1,115
119,328,198851,2,0,B|51:319|51:319|26:328|-16:302,1,115
392,55,199170,2,0,B|460:64|460:64|485:55|528:81,1,115
184,128,199489,6,0,B|160:144|160:144|136:144|136:144|96:176|32:184,1,115
192,264,199729,1,0,0:0:0:0:
192,264,199809,2,0,B|208:288|208:288|208:312|208:312|240:352|248:416,1,115
328,256,200128,2,0,B|352:240|352:240|376:240|376:240|416:208|480:200,1,115
320,120,200367,1,0,0:0:0:0:
320,120,200447,2,0,B|304:96|304:96|304:72|304:72|272:32|264:-32,1,115
145,55,200766,6,0,B|154:67|205:73|205:73|222:90|222:90|250:95,1,115
392,81,201006,1,0,0:0:0:0:
392,81,201085,2,0,B|380:90|374:141|374:141|357:158|357:158|352:186,1,115
366,328,201405,2,0,B|357:316|306:310|306:310|289:293|289:293|261:288,1,115
119,302,201644,1,0,0:0:0:0:
119,302,201724,2,0,B|131:293|137:242|137:242|154:225|154:225|159:197,1,115
416,288,202043,6,0,L|352:264,1,57.5
232,128,202203,2,0,L|296:152,1,57.5
424,296,202362,6,0,L|353:269,1,57.5
221,119,202522,2,0,L|291:145,1,57.5
112,304,202681,6,0,P|160:248|160:264,1,230
80,72,203160,1,0,0:0:0:0:
120,312,203320,2,0,P|176:256|168:280,1,345
312,224,203878,1,0,0:0:0:0:
312,224,203958,2,0,P|264:312|248:320,1,115
328,56,204198,1,0,0:0:0:0:
328,56,204277,2,0,P|247:115|229:115,1,115
464,104,204517,1,0,0:0:0:0:
464,104,204597,6,0,B|416:224|320:144|320:144|416:144|440:272|440:272|360:304|208:168|208:168|136:192|128:112|40:168,1,805
144,56,205873,6,0,P|184:128|160:184,1,115
90,258,206113,1,0,0:0:0:0:
90,258,206193,6,0,P|50:186|74:130,1,115
448,136,206512,5,0,0:0:0:0:
224,88,206671,2,0,L|328:56,1,57.5
280,224,206831,2,0,L|255:330,1,57.5
144,208,206991,2,0,L|64:133,1,57.5
224,80,207150,5,0,0:0:0:0:
288,232,207310,1,0,0:0:0:0:
136,216,207469,1,0,0:0:0:0:
136,216,207629,1,0,0:0:0:0:
246,71,207789,5,0,0:0:0:0:
284,240,207948,1,0,0:0:0:0:
130,195,208108,1,0,0:0:0:0:
130,195,208267,1,0,0:0:0:0:
270,67,208427,5,0,0:0:0:0:
279,248,208587,1,0,0:0:0:0:
128,174,208746,1,0,0:0:0:0:
128,174,208906,1,0,0:0:0:0:
296,66,209065,5,0,0:0:0:0:
272,255,209225,1,0,0:0:0:0:
129,151,209385,1,0,0:0:0:0:
129,151,209544,1,0,0:0:0:0:
408,88,209704,6,0,B|496:128|560:232|320:200|416:336|416:336|504:296|376:160|376:160|304:224|160:256|160:256|104:240|48:264|48:264|72:280,1,862.5
64,272,210981,6,0,B|112:312|112:312|160:304|176:288,1,115
240,136,211300,2,0,B|192:96|192:96|144:104|128:120,1,115
128,320,211619,1,0,0:0:0:0:
360,224,211779,2,0,L|328:152,1,57.5
231,85,211938,2,0,L|185:149,1,57.5
176,266,212098,2,0,L|254:274,1,57.5
368,224,212257,5,0,0:0:0:0:
232,80,212417,1,0,0:0:0:0:
168,272,212577,1,0,0:0:0:0:
160,280,212736,1,0,0:0:0:0:
256,184,212896,5,0,0:0:0:0:
28,115,213055,1,0,0:0:0:0:
76,353,213215,1,0,0:0:0:0:
73,366,213375,1,0,0:0:0:0:
384,288,213534,2,0,L|320:264,1,57.5
128,208,213694,1,0,0:0:0:0:
336,360,213853,1,0,0:0:0:0:
40,272,214013,2,0,L|112:304,1,57.5
376,128,214173,1,0,0:0:0:0:
376,128,214252,1,0,0:0:0:0:
376,128,214332,6,0,L|328:48,1,57.5
222,179,214492,2,0,L|272:208,1,57.5
216,320,214651,2,0,L|120:312,1,57.5
464,304,214811,2,0,B|408:200|408:200|336:288|336:288|264:256|296:168|296:168|312:128|216:56|216:56|184:136|184:136|336:64|448:80,1,862.5
456,88,216088,6,0,L|576:24,1,115
464,240,216407,2,0,L|344:304,1,115
64,152,216726,1,0,0:0:0:0:
392,176,216886,1,0,0:0:0:0:
152,232,217045,1,0,0:0:0:0:
352,88,217205,1,0,0:0:0:0:
152,112,217365,5,0,0:0:0:0:
32,240,217524,1,0,0:0:0:0:
24,120,217684,1,0,0:0:0:0:
160,232,217843,1,0,0:0:0:0:
232,24,218003,1,0,0:0:0:0:
88,176,218163,1,0,0:0:0:0:
320,248,218322,1,0,0:0:0:0:
248,160,218482,1,0,0:0:0:0:
376,344,218641,5,0,0:0:0:0:
384,120,218801,1,0,0:0:0:0:
240,288,218961,1,0,0:0:0:0:
464,232,219120,1,0,0:0:0:0:
288,64,219280,1,0,0:0:0:0:
344,248,219439,1,0,0:0:0:0:
280,64,219599,1,0,0:0:0:0:
152,320,219759,1,0,0:0:0:0:
456,72,219918,6,0,B|360:104|360:104|288:24|232:32|232:32|184:96|88:104|88:104|48:152|56:184|56:184|120:192|240:136|256:112|256:112|360:192|336:240|336:240,1,862.5
248,240,221195,6,0,P|320:320|360:312,1,115
144,344,221514,2,0,P|72:264|32:272,1,115
336,160,221833,1,0,0:0:0:0:
80,296,221993,1,0,0:0:0:0:
344,152,222152,1,0,0:0:0:0:
72,304,222312,1,0,0:0:0:0:
240,56,222472,5,0,0:0:0:0:
224,272,222631,1,0,0:0:0:0:
240,48,222791,1,0,0:0:0:0:
224,280,222950,1,0,0:0:0:0:
88,200,223110,1,0,0:0:0:0:
240,40,223270,1,0,0:0:0:0:
352,248,223429,1,0,0:0:0:0:
264,176,223589,1,0,0:0:0:0:
472,80,223748,5,0,0:0:0:0:
232,336,223908,1,0,0:0:0:0:
144,64,224068,1,0,0:0:0:0:
296,216,224227,1,0,0:0:0:0:
56,256,224387,1,0,0:0:0:0:
56,256,224467,1,0,0:0:0:0:
56,256,224546,1,0,0:0:0:0:
272,96,224706,1,0,0:0:0:0:
240,336,224866,1,0,0:0:0:0:
0,160,225025,6,0,B|104:176|104:176|88:104|200:40|200:40|256:80|256:80|312:40|312:40|408:104|400:176|400:176|152:152,1,805
448,56,226302,2,0,P|480:128|480:200,1,115
208,248,226541,1,0,0:0:0:0:
208,248,226621,2,0,L|368:264,1,115
32,176,226861,1,0,0:0:0:0:
32,176,226940,2,0,L|88:280,1,115
304,64,227260,1,0,0:0:0:0:
270,72,227339,1,0,0:0:0:0:
236,80,227419,1,0,0:0:0:0:
202,88,227499,1,0,0:0:0:0:
168,96,227579,5,0,0:0:0:0:
376,336,227738,1,0,0:0:0:0:
176,200,227898,1,0,0:0:0:0:
176,200,228058,1,0,0:0:0:0:
480,32,228217,1,0,0:0:0:0:
224,296,228377,1,0,0:0:0:0:
424,176,228536,1,0,0:0:0:0:
424,176,228696,1,0,0:0:0:0:
72,80,228856,5,0,0:0:0:0:
328,312,229015,1,0,0:0:0:0:
32,192,229175,1,0,0:0:0:0:
32,192,229334,1,0,0:0:0:0:
384,56,229494,1,0,0:0:0:0:
240,320,229654,1,0,0:0:0:0:
248,104,229813,1,0,0:0:0:0:
248,104,229973,1,0,0:0:0:0:
448,200,230132,5,0,0:0:0:0:
88,280,230292,1,0,0:0:0:0:
312,120,230452,1,0,0:0:0:0:
312,120,230611,1,0,0:0:0:0:
448,328,230771,1,0,0:0:0:0:
176,144,230930,1,0,0:0:0:0:
360,224,231090,1,0,0:0:0:0:
360,224,231250,1,0,0:0:0:0:
80,288,231409,5,0,0:0:0:0:
328,40,231569,1,0,0:0:0:0:
248,288,231728,1,0,0:0:0:0:
248,288,231888,1,0,0:0:0:0:
456,48,232048,1,0,0:0:0:0:
96,168,232207,1,0,0:0:0:0:
320,48,232367,1,0,0:0:0:0:
320,48,232526,1,0,0:0:0:0:
392,264,232686,5,0,0:0:0:0:
152,288,232846,1,0,0:0:0:0:
312,144,233005,1,0,0:0:0:0:
264,360,233165,1,0,0:0:0:0:
136,88,233324,1,0,0:0:0:0:
400,272,233484,1,0,0:0:0:0:
48,192,233644,1,0,0:0:0:0:
408,280,233803,1,0,0:0:0:0:
240,40,233963,5,0,0:0:0:0:
128,320,234122,1,0,0:0:0:0:
320,136,234282,1,0,0:0:0:0:
128,328,234442,1,0,0:0:0:0:
88,64,234601,1,0,0:0:0:0:
368,328,234761,1,0,0:0:0:0:
160,176,234920,1,0,0:0:0:0:
424,56,235080,1,0,0:0:0:0:
96,320,235240,5,0,0:0:0:0:
264,48,235399,1,0,0:0:0:0:
424,328,235559,1,0,0:0:0:0:
64,200,235718,1,0,0:0:0:0:
456,128,235878,1,0,0:0:0:0:
208,336,236038,1,0,0:0:0:0:
160,48,236197,1,0,0:0:0:0:
432,336,236357,1,0,0:0:0:0:
104,176,236516,5,0,0:0:0:0:
416,64,236676,1,0,0:0:0:0:
88,280,236836,1,0,0:0:0:0:
488,216,236995,1,0,0:0:0:0:
152,48,237155,1,0,0:0:0:0:
360,328,237314,1,0,0:0:0:0:
488,32,237474,1,0,0:0:0:0:
64,176,237634,1,0,0:0:0:0:
381,64,237793,5,0,0:0:0:0:
399,111,237873,1,0,0:0:0:0:
403,162,237953,1,0,0:0:0:0:
392,212,238033,1,0,0:0:0:0:
363,255,238112,1,0,0:0:0:0:
318,281,238192,1,0,0:0:0:0:
267,287,238272,1,0,0:0:0:0:
218,267,238352,1,0,0:0:0:0:
262,240,238432,1,0,0:0:0:0:
313,232,238511,1,0,0:0:0:0:
362,248,238591,1,0,0:0:0:0:
404,276,238671,1,0,0:0:0:0:
379,230,238751,1,0,0:0:0:0:
354,184,238831,1,0,0:0:0:0:
329,138,238910,1,0,0:0:0:0:
304,93,238990,1,0,0:0:0:0:
256,71,239070,5,0,0:0:0:0:
204,67,239150,1,0,0:0:0:0:
152,75,239230,1,0,0:0:0:0:
105,98,239309,1,0,0:0:0:0:
72,137,239389,1,0,0:0:0:0:
53,185,239469,1,0,0:0:0:0:
50,236,239549,1,0,0:0:0:0:
64,285,239629,1,0,0:0:0:0:
105,254,239708,1,0,0:0:0:0:
146,224,239788,1,0,0:0:0:0:
197,223,239868,1,0,0:0:0:0:
243,199,239948,1,0,0:0:0:0:
271,155,240028,1,0,0:0:0:0:
311,123,240107,1,0,0:0:0:0:
362,131,240187,1,0,0:0:0:0:
405,102,240267,1,0,0:0:0:0:
456,93,240347,6,0,L|443:183,1,57.5
186,91,240506,2,0,L|199:1,1,57.5
319,256,240666,2,0,L|306:346,1,57.5
49,254,240826,2,0,L|62:164,1,57.5
420,235,240985,2,0,L|480:283,1,57.5
216,130,241145,2,0,L|156:82,1,57.5
171,290,241304,2,0,L|231:338,1,57.5
465,75,241464,2,0,L|405:27,1,57.5
139,50,241624,5,0,0:0:0:0:
114,95,241703,1,0,0:0:0:0:
99,144,241783,1,0,0:0:0:0:
93,195,241863,1,0,0:0:0:0:
98,246,241943,2,0,P|126:310|133:317,1,57.5
33,90,242102,2,0,P|5:26|-2:19,1,57.5
310,214,242262,2,0,P|375:235|409:226,1,57.5
386,57,242422,1,0,0:0:0:0:
334,49,242501,1,0,0:0:0:0:
282,45,242581,1,0,0:0:0:0:
230,47,242661,1,0,0:0:0:0:
179,55,242741,1,0,0:0:0:0:
129,68,242821,1,0,0:0:0:0:
83,93,242900,6,0,B|67:112|67:112|31:125|31:125,1,57.5
384,240,243060,2,0,B|362:252|362:252|324:252|324:252,1,57.5
147,268,243220,2,0,B|125:255|125:255|106:222|106:222,1,57.5
445,115,243379,2,0,B|429:95|429:95|422:58|422:58,1,57.5
203,346,243539,2,0,L|299:318,1,57.5
308,48,243698,2,0,P|308:89|289:127,1,57.5
309,346,243858,2,0,L|213:318,1,57.5
204,48,244018,2,0,P|204:89|223:127,1,57.5
446,262,244177,5,0,0:0:0:0:
394,258,244257,1,0,0:0:0:0:
342,254,244337,1,0,0:0:0:0:
290,250,244417,1,0,0:0:0:0:
238,246,244496,1,0,0:0:0:0:
186,242,244576,1,0,0:0:0:0:
134,238,244656,1,0,0:0:0:0:
82,234,244736,1,0,0:0:0:0:
132,222,244816,1,0,0:0:0:0:
182,210,244895,1,0,0:0:0:0:
231,198,244975,1,0,0:0:0:0:
281,186,245055,1,0,0:0:0:0:
331,174,245135,1,0,0:0:0:0:
381,163,245215,1,0,0:0:0:0:
431,152,245294,1,0,0:0:0:0:
481,141,245374,1,0,0:0:0:0:
448,108,245454,5,0,0:0:0:0:
405,90,245534,1,0,0:0:0:0:
358,86,245614,1,0,0:0:0:0:
313,96,245693,1,0,0:0:0:0:
312,56,245773,1,0,0:0:0:0:
274,70,245853,1,0,0:0:0:0:
242,95,245933,1,0,0:0:0:0:
223,130,246013,1,0,0:0:0:0:
197,107,246092,1,0,0:0:0:0:
180,137,246172,1,0,0:0:0:0:
180,171,246252,1,0,0:0:0:0:
193,202,246332,1,0,0:0:0:0:
167,215,246412,1,0,0:0:0:0:
181,239,246491,1,0,0:0:0:0:
206,252,246571,1,0,0:0:0:0:
234,252,246651,1,0,0:0:0:0:
255,245,246731,5,0,0:0:0:0:
277,238,246811,1,0,0:0:0:0:
298,231,246890,1,0,0:0:0:0:
319,224,246970,1,0,0:0:0:0:
311,208,247050,1,0,0:0:0:0:
303,192,247130,1,0,0:0:0:0:
295,176,247210,1,0,0:0:0:0:
287,160,247289,1,0,0:0:0:0:
276,154,247369,1,0,0:0:0:0:
265,148,247449,1,0,0:0:0:0:
254,142,247529,1,0,0:0:0:0:
243,137,247609,1,0,0:0:0:0:
237,138,247688,1,0,0:0:0:0:
231,139,247768,1,0,0:0:0:0:
225,140,247848,1,0,0:0:0:0:
219,141,247928,1,0,0:0:0:0:
216,144,248008,6,0,P|144:120|104:56,1,115
208,232,248167,2,0,P|184:304|120:344,1,115
296,240,248327,2,0,P|368:264|408:328,1,115
304,152,248486,2,0,P|328:80|392:40,1,115
423,165,248646,6,0,P|366:167|318:197,1,115
282,359,248806,2,0,P|280:302|250:254,1,115
88,218,248965,2,0,P|145:216|193:186,1,115
229,24,249125,2,0,P|231:81|261:129,1,115
416,336,249284,6,0,L|384:208,1,115
96,48,249444,2,0,L|128:176,1,115
432,350,249604,2,0,L|396:209,1,115
80,33,249763,2,0,L|115:174,1,115
448,64,249923,2,0,P|344:88|280:88,1,115
64,320,250082,2,0,P|168:296|232:296,1,115
467,51,250242,2,0,P|352:77|282:77,1,115
44,332,250402,2,0,P|159:306|229:306,1,115
440,192,250561,6,0,L|304:224,1,86.2500032901765
72,192,250721,2,0,L|208:160,1,86.2500032901765
458,192,250880,6,0,L|308:227,1,86.2500032901765
53,192,251040,2,0,L|203:156,1,86.2500032901765
384,56,251200,2,0,L|328:128,1,86.2500032901765
328,328,251359,2,0,L|384:256,1,86.2500032901765
128,56,251519,2,0,L|184:128,1,86.2500032901765
184,328,251678,2,0,L|128:256,1,86.2500032901765
248,48,251838,6,0,L|312:96,1,68.9999978942872
392,264,251998,2,0,L|328:216,1,68.9999978942872
120,120,252157,2,0,L|175:161,1,68.9999978942872
264,336,252317,2,0,L|208:294,1,68.9999978942872
416,56,252476,2,0,L|344:96,1,57.5
360,192,252636,2,0,L|288:232,1,57.5
200,160,252796,2,0,L|128:200,1,57.5
144,296,252955,2,0,L|72:336,1,57.5
176,56,253115,5,0,0:0:0:0:
360,296,262372,6,0,L|408:224,1,57.5
192,136,262531,2,0,L|272:120,1,57.5
64,248,262850,1,0,0:0:0:0:
432,88,263170,1,0,0:0:0:0:
432,88,263329,1,0,0:0:0:0:
256,272,263648,2,0,P|184:224|248:240,1,230
368,304,264127,1,0,0:0:0:0:
304,136,264287,1,0,0:0:0:0:
304,136,264446,1,0,0:0:0:0:
280,320,264606,5,0,0:0:0:0:
384,192,264766,1,0,0:0:0:0:
368,320,264925,1,0,0:0:0:0:
296,184,265085,1,0,0:0:0:0:
280,328,265244,1,0,0:0:0:0:
384,184,265404,1,0,0:0:0:0:
368,328,265564,1,0,0:0:0:0:
296,176,265723,1,0,0:0:0:0:
488,160,265883,5,0,0:0:0:0:
448,264,266042,1,0,0:0:0:0:
488,160,266202,1,0,0:0:0:0:
448,264,266362,1,0,0:0:0:0:
488,160,266521,1,0,0:0:0:0:
448,264,266681,1,0,0:0:0:0:
488,160,266840,1,0,0:0:0:0:
448,264,267000,1,0,0:0:0:0:
216,176,267160,5,0,0:0:0:0:
272,280,267319,1,0,0:0:0:0:
400,176,267479,6,0,L|344:208,1,57.5
200,120,267958,2,0,L|256:88,1,57.5
232,264,268117,2,0,L|176:296,1,57.5
32,216,268277,2,0,L|88:184,1,57.5
456,40,268756,6,0,B|400:104|400:104|464:152|464:152|424:192|448:264|456:264|408:296|432:352,1,345
416,328,269314,2,0,L|344:336,1,57.5
352,192,269554,1,0,0:0:0:0:
232,296,269713,1,0,0:0:0:0:
240,184,269873,2,0,L|160:160,1,57.5
72,160,270032,1,0,0:0:0:0:
160,272,270192,1,0,0:0:0:0:
152,96,270352,1,0,0:0:0:0:
48,312,270511,2,0,L|64:232,1,57.5
208,192,270671,1,0,0:0:0:0:
208,192,270830,1,0,0:0:0:0:
272,80,270990,5,0,0:0:0:0:
400,160,271150,2,0,L|328:136,1,57.5
456,72,271309,1,0,0:0:0:0:
344,232,271469,1,0,0:0:0:0:
272,72,271628,1,0,0:0:0:0:
184,136,271788,2,0,L|264:144,1,57.5
112,56,271948,1,0,0:0:0:0:
160,232,272107,1,0,0:0:0:0:
384,152,272267,5,0,0:0:0:0:
384,152,272426,1,0,0:0:0:0:
224,96,272586,2,0,L|152:56,1,57.5
56,200,272746,2,0,L|144:160,1,57.5
264,240,272905,1,0,0:0:0:0:
264,240,273065,1,0,0:0:0:0:
224,96,273224,2,0,L|152:56,1,57.5
56,200,273384,2,0,L|144:160,1,57.5
384,136,273544,2,0,B|344:192|344:192|360:80|424:56,1,230
448,216,274022,5,0,0:0:0:0:
304,48,274182,5,0,0:0:0:0:
240,192,274342,1,0,0:0:0:0:
240,192,274421,1,0,0:0:0:0:
240,192,274501,1,0,0:0:0:0:
352,144,274661,1,0,0:0:0:0:
184,72,274820,5,0,0:0:0:0:
240,192,274980,1,0,0:0:0:0:
240,192,275060,1,0,0:0:0:0:
240,192,275140,1,0,0:0:0:0:
80,112,275299,1,0,0:0:0:0:
280,88,275459,1,0,0:0:0:0:
96,216,275618,1,0,0:0:0:0:
96,216,275698,1,0,0:0:0:0:
96,216,275778,1,0,0:0:0:0:
184,72,275938,1,0,0:0:0:0:
200,224,276097,6,0,B|168:288|168:288|184:328|392:328,1,287.5
464,344,276576,2,0,B|496:280|496:280|480:240|272:240,1,287.5
496,176,277055,2,0,P|360:160|184:168,1,287.5
328,56,277534,2,0,P|194:87|32:155,1,287.5
56,176,278012,5,0,0:0:0:0:
256,256,278172,1,0,0:0:0:0:
128,264,278332,1,0,0:0:0:0:
176,168,278491,1,0,0:0:0:0:
200,344,278651,1,0,0:0:0:0:
56,176,278810,1,0,0:0:0:0:
336,320,278970,2,0,P|392:336|336:304,1,172.5
328,272,279289,6,0,L|424:192,1,115
400,96,279608,2,0,L|272:128,1,115
120,48,279927,2,0,P|104:136|120:176,1,115
160,320,280247,2,0,L|208:200,1,115
264,48,280566,2,0,L|288:120,1,57.5
320,216,280725,2,0,L|344:152,1,57.5
408,48,280885,2,0,P|440:128|440:192,1,115
416,280,281204,5,0,0:0:0:0:
320,168,281364,1,0,0:0:0:0:
416,280,281523,1,0,0:0:0:0:
320,168,281683,1,0,0:0:0:0:
264,296,281843,1,0,0:0:0:0:
400,192,282002,1,0,0:0:0:0:
264,296,282162,1,0,0:0:0:0:
400,192,282321,1,0,0:0:0:0:
128,272,282481,6,0,L|168:192,1,76.6666666666667
192,64,282681,2,0,L|224:136,1,76.6666666666667
392,312,282920,2,0,L|328:240,1,76.6666666666667
384,112,283119,6,0,L|344:192,1,76.6666666666667
320,320,283319,2,0,L|288:248,1,76.6666666666667
120,72,283558,2,0,L|184:144,1,76.6666666666667
200,312,283758,5,0,0:0:0:0:
272,56,283917,1,0,0:0:0:0:
272,56,283997,1,0,0:0:0:0:
272,56,284077,2,0,P|232:104|304:64,1,230
144,144,284556,1,0,0:0:0:0:
144,144,284636,1,0,0:0:0:0:
144,144,284715,1,0,0:0:0:0:
408,40,284875,1,0,0:0:0:0:
312,184,285035,5,0,0:0:0:0:
248,48,285194,1,0,0:0:0:0:
248,48,285274,1,0,0:0:0:0:
248,48,285354,1,0,0:0:0:0:
392,128,285513,1,0,0:0:0:0:
192,192,285673,1,0,0:0:0:0:
336,56,285833,1,0,0:0:0:0:
336,56,285912,1,0,0:0:0:0:
336,56,285992,1,0,0:0:0:0:
312,240,286152,1,0,0:0:0:0:
144,312,286311,5,0,0:0:0:0:
336,336,286471,1,0,0:0:0:0:
160,216,286631,1,0,0:0:0:0:
352,240,286790,1,0,0:0:0:0:
136,312,286950,1,0,0:0:0:0:
360,240,287109,1,0,0:0:0:0:
152,216,287269,1,0,0:0:0:0:
344,344,287429,1,0,0:0:0:0:
128,312,287588,6,0,L|216:304,1,76.6666666666667
368,240,287788,2,0,L|464:200,1,76.6666666666667
160,216,288027,2,0,L|232:160,1,76.6666666666667
328,56,288227,1,0,0:0:0:0:
280,232,288386,1,0,0:0:0:0:
408,40,288546,1,0,0:0:0:0:
360,216,288705,1,0,0:0:0:0:
208,64,288865,5,0,0:0:0:0:
408,136,289025,1,0,0:0:0:0:
408,136,289104,1,0,0:0:0:0:
408,136,289184,1,0,0:0:0:0:
128,184,289344,1,0,0:0:0:0:
320,64,289503,2,0,P|304:120|256:160,1,115
128,64,289823,1,0,0:0:0:0:
224,256,289982,1,0,0:0:0:0:
224,256,290062,1,0,0:0:0:0:
224,256,290142,5,0,0:0:0:0:
296,40,290301,1,0,0:0:0:0:
312,304,290461,1,0,0:0:0:0:
192,40,290621,1,0,0:0:0:0:
224,264,290780,1,0,0:0:0:0:
296,40,290940,1,0,0:0:0:0:
312,304,291099,1,0,0:0:0:0:
192,40,291259,1,0,0:0:0:0:
224,272,291419,5,0,0:0:0:0:
440,136,291578,1,0,0:0:0:0:
440,136,291658,1,0,0:0:0:0:
440,136,291738,1,0,0:0:0:0:
264,160,291897,1,0,0:0:0:0:
432,296,292057,2,0,L|304:352,1,115
352,104,292376,1,0,0:0:0:0:
200,256,292536,1,0,0:0:0:0:
200,256,292616,1,0,0:0:0:0:
200,256,292695,5,0,0:0:0:0:
480,144,292855,1,0,0:0:0:0:
232,352,293015,1,0,0:0:0:0:
512,240,293174,1,0,0:0:0:0:
192,256,293334,1,0,0:0:0:0:
480,144,293493,1,0,0:0:0:0:
232,352,293653,1,0,0:0:0:0:
512,240,293813,1,0,0:0:0:0:
352,96,293972,5,0,0:0:0:0:
384,296,294132,1,0,0:0:0:0:
384,296,294212,1,0,0:0:0:0:
384,296,294291,1,0,0:0:0:0:
440,64,294451,1,0,0:0:0:0:
304,192,294611,2,0,P|224:240|208:264,1,115
384,296,294930,1,0,0:0:0:0:
232,96,295089,1,0,0:0:0:0:
232,96,295169,1,0,0:0:0:0:
232,96,295249,5,0,0:0:0:0:
8,256,295409,1,0,0:0:0:0:
304,176,295568,1,0,0:0:0:0:
64,336,295728,1,0,0:0:0:0:
232,96,295887,1,0,0:0:0:0:
8,256,296047,1,0,0:0:0:0:
304,176,296207,1,0,0:0:0:0:
64,336,296366,1,0,0:0:0:0:
136,80,296526,5,0,0:0:0:0:
296,320,296685,1,0,0:0:0:0:
120,224,296845,1,0,0:0:0:0:
432,224,297005,1,0,0:0:0:0:
344,64,297164,1,0,0:0:0:0:
384,328,297324,1,0,0:0:0:0:
344,56,297483,1,0,0:0:0:0:
440,232,297643,1,0,0:0:0:0:
232,224,297803,5,0,0:0:0:0:
416,112,297962,1,0,0:0:0:0:
240,224,298122,1,0,0:0:0:0:
200,48,298281,1,0,0:0:0:0:
352,296,298441,1,0,0:0:0:0:
312,128,298601,1,0,0:0:0:0:
120,176,298760,1,0,0:0:0:0:
344,288,298920,1,0,0:0:0:0:
312,128,299079,5,0,0:0:0:0:
176,312,299239,1,0,0:0:0:0:
176,312,299319,1,0,0:0:0:0:
176,312,299399,1,0,0:0:0:0:
416,208,299558,1,0,0:0:0:0:
136,144,299718,2,0,L|232:208,1,115
424,208,300037,1,0,0:0:0:0:
312,56,300197,1,0,0:0:0:0:
312,56,300276,1,0,0:0:0:0:
312,56,300356,5,0,0:0:0:0:
248,288,300516,1,0,0:0:0:0:
424,72,300675,1,0,0:0:0:0:
368,312,300835,1,0,0:0:0:0:
312,56,300995,1,0,0:0:0:0:
248,288,301154,1,0,0:0:0:0:
424,72,301314,1,0,0:0:0:0:
368,312,301473,1,0,0:0:0:0:
216,120,301633,5,0,0:0:0:0:
456,200,301793,1,0,0:0:0:0:
456,200,301872,1,0,0:0:0:0:
456,200,301952,1,0,0:0:0:0:
248,288,302112,1,0,0:0:0:0:
480,40,302271,2,0,L|376:120,1,115
256,32,302591,1,0,0:0:0:0:
352,216,302750,1,0,0:0:0:0:
352,216,302830,1,0,0:0:0:0:
352,216,302910,5,0,0:0:0:0:
112,40,303069,1,0,0:0:0:0:
272,320,303229,1,0,0:0:0:0:
24,136,303389,1,0,0:0:0:0:
360,216,303548,1,0,0:0:0:0:
112,40,303708,1,0,0:0:0:0:
272,320,303867,1,0,0:0:0:0:
24,136,304027,1,0,0:0:0:0:
264,80,304187,5,0,0:0:0:0:
128,240,304346,1,0,0:0:0:0:
128,240,304426,1,0,0:0:0:0:
128,240,304506,1,0,0:0:0:0:
336,216,304665,1,0,0:0:0:0:
112,96,304825,1,0,0:0:0:0:
112,96,304905,1,0,0:0:0:0:
112,96,304985,1,0,0:0:0:0:
272,320,305144,1,0,0:0:0:0:
136,240,305304,1,0,0:0:0:0:
312,72,305463,5,0,0:0:0:0:
162,248,305622,1,0,0:0:0:0:
162,248,305702,1,0,0:0:0:0:
162,248,305782,1,0,0:0:0:0:
391,221,305941,1,0,0:0:0:0:
144,89,306101,1,0,0:0:0:0:
144,89,306181,1,0,0:0:0:0:
144,89,306261,1,0,0:0:0:0:
320,335,306420,1,0,0:0:0:0:
171,248,306580,1,0,0:0:0:0:
368,64,306740,5,0,0:0:0:0:
202,257,306899,1,0,0:0:0:0:
202,257,306979,1,0,0:0:0:0:
202,257,307059,1,0,0:0:0:0:
454,227,307218,1,0,0:0:0:0:
183,82,307378,1,0,0:0:0:0:
183,82,307458,1,0,0:0:0:0:
183,82,307538,1,0,0:0:0:0:
376,353,307697,1,0,0:0:0:0:
212,257,307857,1,0,0:0:0:0:
440,48,308017,5,0,0:0:0:0:
454,103,308097,1,0,0:0:0:0:
449,160,308177,1,0,0:0:0:0:
427,212,308256,1,0,0:0:0:0:
381,246,308336,1,0,0:0:0:0:
323,253,308416,1,0,0:0:0:0:
269,232,308496,1,0,0:0:0:0:
227,191,308576,1,0,0:0:0:0:
177,163,308655,1,0,0:0:0:0:
119,159,308735,1,0,0:0:0:0:
67,184,308815,1,0,0:0:0:0:
40,235,308895,1,0,0:0:0:0:
43,292,308975,1,0,0:0:0:0:
74,339,309054,1,0,0:0:0:0:
129,353,309134,1,0,0:0:0:0:
183,334,309214,1,0,0:0:0:0:
240,332,309294,5,0,0:0:0:0:
104,248,309453,1,0,0:0:0:0:
104,248,309532,1,0,0:0:0:0:
104,248,309612,1,0,0:0:0:0:
384,200,309772,1,0,0:0:0:0:
192,320,309931,2,0,P|208:264|256:224,1,115
384,320,310251,1,0,0:0:0:0:
288,128,310410,1,0,0:0:0:0:
288,128,310490,1,0,0:0:0:0:
288,128,310570,5,0,0:0:0:0:
216,344,310729,1,0,0:0:0:0:
200,80,310889,1,0,0:0:0:0:
320,344,311049,1,0,0:0:0:0:
288,120,311208,1,0,0:0:0:0:
216,344,311368,1,0,0:0:0:0:
200,80,311527,1,0,0:0:0:0:
320,344,311687,1,0,0:0:0:0:
288,112,311847,5,0,0:0:0:0:
72,248,312006,1,0,0:0:0:0:
72,248,312086,1,0,0:0:0:0:
72,248,312166,1,0,0:0:0:0:
248,224,312325,1,0,0:0:0:0:
80,88,312485,2,0,L|208:32,1,115
160,280,312804,1,0,0:0:0:0:
312,128,312964,1,0,0:0:0:0:
312,128,313044,1,0,0:0:0:0:
312,128,313123,5,0,0:0:0:0:
32,240,313283,1,0,0:0:0:0:
280,32,313443,1,0,0:0:0:0:
0,144,313602,1,0,0:0:0:0:
320,128,313762,1,0,0:0:0:0:
32,240,313921,1,0,0:0:0:0:
280,32,314081,1,0,0:0:0:0:
0,144,314241,1,0,0:0:0:0:
160,288,314400,5,0,0:0:0:0:
128,88,314560,1,0,0:0:0:0:
128,88,314640,1,0,0:0:0:0:
128,88,314719,1,0,0:0:0:0:
72,320,314879,1,0,0:0:0:0:
208,192,315039,2,0,P|288:144|304:120,1,115
128,88,315358,1,0,0:0:0:0:
280,288,315517,1,0,0:0:0:0:
280,288,315597,1,0,0:0:0:0:
280,288,315677,5,0,0:0:0:0:
504,128,315837,1,0,0:0:0:0:
208,208,315996,1,0,0:0:0:0:
448,48,316156,1,0,0:0:0:0:
280,288,316315,1,0,0:0:0:0:
504,128,316475,1,0,0:0:0:0:
208,208,316635,1,0,0:0:0:0:
448,48,316794,1,0,0:0:0:0:
376,304,316954,5,0,0:0:0:0:
216,64,317113,1,0,0:0:0:0:
392,160,317273,1,0,0:0:0:0:
80,160,317433,1,0,0:0:0:0:
168,320,317592,1,0,0:0:0:0:
128,56,317752,1,0,0:0:0:0:
168,328,317911,1,0,0:0:0:0:
72,152,318071,1,0,0:0:0:0:
280,160,318231,5,0,0:0:0:0:
96,272,318390,1,0,0:0:0:0:
272,160,318550,1,0,0:0:0:0:
312,336,318709,1,0,0:0:0:0:
160,88,318869,1,0,0:0:0:0:
200,256,319029,1,0,0:0:0:0:
392,208,319188,1,0,0:0:0:0:
168,96,319348,1,0,0:0:0:0:
200,256,319507,5,0,0:0:0:0:
336,72,319667,1,0,0:0:0:0:
336,72,319747,1,0,0:0:0:0:
336,72,319827,1,0,0:0:0:0:
96,176,319986,1,0,0:0:0:0:
376,240,320146,2,0,L|280:176,1,115
88,176,320465,1,0,0:0:0:0:
200,328,320625,1,0,0:0:0:0:
200,328,320704,1,0,0:0:0:0:
200,328,320784,5,0,0:0:0:0:
264,96,320944,1,0,0:0:0:0:
88,312,321103,1,0,0:0:0:0:
144,72,321263,1,0,0:0:0:0:
200,328,321423,1,0,0:0:0:0:
264,96,321582,1,0,0:0:0:0:
88,312,321742,1,0,0:0:0:0:
144,72,321901,1,0,0:0:0:0:
296,264,322061,5,0,0:0:0:0:
56,184,322221,1,0,0:0:0:0:
56,184,322300,1,0,0:0:0:0:
56,184,322380,1,0,0:0:0:0:
264,96,322540,1,0,0:0:0:0:
32,344,322699,2,0,L|136:264,1,115
256,352,323019,1,0,0:0:0:0:
160,168,323178,1,0,0:0:0:0:
160,168,323258,1,0,0:0:0:0:
160,168,323338,5,0,0:0:0:0:
400,344,323497,1,0,0:0:0:0:
240,64,323657,1,0,0:0:0:0:
488,248,323817,1,0,0:0:0:0:
152,168,323976,1,0,0:0:0:0:
400,344,324136,1,0,0:0:0:0:
240,64,324295,1,0,0:0:0:0:
488,248,324455,1,0,0:0:0:0:
248,304,324615,5,0,0:0:0:0:
384,144,324774,1,0,0:0:0:0:
384,144,324854,1,0,0:0:0:0:
384,144,324934,1,0,0:0:0:0:
176,168,325093,1,0,0:0:0:0:
400,288,325253,1,0,0:0:0:0:
400,288,325333,1,0,0:0:0:0:
400,288,325413,1,0,0:0:0:0:
240,64,325572,1,0,0:0:0:0:
376,144,325732,1,0,0:0:0:0:
200,312,325891,5,0,0:0:0:0:
350,136,326050,1,0,0:0:0:0:
350,136,326130,1,0,0:0:0:0:
350,136,326210,1,0,0:0:0:0:
121,163,326369,1,0,0:0:0:0:
368,295,326529,1,0,0:0:0:0:
368,295,326609,1,0,0:0:0:0:
368,295,326689,1,0,0:0:0:0:
192,49,326848,1,0,0:0:0:0:
341,136,327008,1,0,0:0:0:0:
144,320,327168,5,0,0:0:0:0:
310,127,327327,1,0,0:0:0:0:
310,127,327407,1,0,0:0:0:0:
310,127,327487,1,0,0:0:0:0:
58,157,327646,1,0,0:0:0:0:
329,302,327806,1,0,0:0:0:0:
329,302,327886,1,0,0:0:0:0:
329,302,327966,1,0,0:0:0:0:
136,31,328125,1,0,0:0:0:0:
464,192,328285,1,0,0:0:0:0:
63,121,328446,5,0,0:0:0:0:
19,158,328526,1,0,0:0:0:0:
7,213,328605,1,0,0:0:0:0:
30,265,328685,1,0,0:0:0:0:
84,282,328765,1,0,0:0:0:0:
139,267,328845,1,0,0:0:0:0:
177,223,328925,1,0,0:0:0:0:
230,204,329004,1,0,0:0:0:0:
277,237,329084,1,0,0:0:0:0:
291,292,329164,1,0,0:0:0:0:
264,343,329244,1,0,0:0:0:0:
207,355,329324,1,0,0:0:0:0:
156,328,329403,1,0,0:0:0:0:
143,271,329483,1,0,0:0:0:0:
153,214,329563,1,0,0:0:0:0:
163,157,329643,5,0,0:0:0:0:
