osu file format v14

[General]
AudioFilename: audio.mp3
AudioLeadIn: 0
PreviewTime: 66557
Countdown: 0
SampleSet: Soft
StackLeniency: 0.7
Mode: 0
LetterboxInBreaks: 0
WidescreenStoryboard: 0

[Editor]
Bookmarks: 22410,40006,44479,66548,88617,99652,121721,132755,154824,165859,187928,209997
DistanceSpacing: 0.5
BeatDivisor: 4
GridSize: 4
TimelineZoom: 2.3

[Metadata]
Title:Taking Over (ft. Miyoki)
TitleUnicode:Taking Over (ft. Miyoki)
Artist:Rob Gasser
ArtistUnicode:Rob Gasser
Creator:Mir
Version:Insane
Source:
Tags:female vocals dubstep drum and bass dnb Mad EP cloudhead records
BeatmapID:1319671
BeatmapSetID:624879

[Difficulty]
HPDrainRate:5
CircleSize:3.8
OverallDifficulty:7.5
ApproachRate:8.8
SliderMultiplier:1.54
SliderTickRate:1

[Events]
//Background and Video events
0,0,"yes.jpg",0,0
//Break Periods
2,88826,99032
//Storyboard Layer 0 (Background)
//Storyboard Layer 1 (Fail)
//Storyboard Layer 2 (Pass)
//Storyboard Layer 3 (Foreground)
//Storyboard Sound Samples

[TimingPoints]
351,344.827586206897,4,2,1,80,1,0
22419,-133.333333333333,4,2,1,50,0,0
33454,-111.111111111111,4,2,1,70,0,0
44488,-76.9230769230769,4,2,1,90,0,1
66557,-100,4,2,1,80,0,0
99661,-133.333333333333,4,2,1,50,0,0
121730,-166.666666666667,4,2,1,40,0,0
127247,-133.333333333333,4,2,1,50,0,0
132419,-100,4,2,1,50,0,0
132764,-83.3333333333333,4,2,1,90,0,1
154833,-111.111111111111,4,2,1,70,0,0
165868,-76.9230769230769,4,2,1,90,0,1
187937,-100,4,2,1,70,0,0

[Colours]
Combo1 : 254,200,118
Combo2 : 128,128,255
Combo3 : 108,174,255
Combo4 : 156,206,211
Combo5 : 249,210,183

[HitObjects]
73,33,21730,5,0,0:0:0:0:
73,33,21816,1,0,0:0:0:0:
73,33,21902,2,0,B|74:39|72:71|68:93,1,38.5,0|0,0:0|0:0,0:0:0:0:
93,238,22075,2,0,P|95:167|114:143,1,77
110,150,22333,1,0,0:0:0:0:
122,143,22419,5,4,3:2:0:0:
159,63,22764,1,0,0:2:0:0:
248,107,23109,2,0,L|330:106,2,57.7500022029877,2|0|0,0:2|0:2|0:2,0:0:0:0:
166,148,23626,2,0,P|158:209|198:264,1,115.500004405975,2|2,0:2|0:2,0:0:0:0:
274,252,24144,2,0,L|341:253,1,57.7500022029877,0|2,0:2|0:2,0:0:0:0:
233,330,24488,2,0,L|166:331,1,57.7500022029877,0|0,0:2|0:2,0:0:0:0:
85,330,24833,5,2,0:2:0:0:
71,304,25006,1,2,0:2:0:0:
58,278,25178,1,2,0:2:0:0:
101,196,25523,1,2,0:2:0:0:
51,119,25868,2,0,L|51:44,2,57.7500022029877,2|2|2,0:2|0:2|0:2,0:0:0:0:
101,196,26385,6,0,P|140:202|183:192,1,57.7500022029877,2|0,0:2|0:2,0:0:0:0:
207,131,26730,2,0,P|246:125|289:135,1,57.7500022029877,2|0,0:2|0:2,0:0:0:0:
331,200,27075,2,0,P|331:262|295:322,1,115.500004405975,2|2,0:2|0:2,0:0:0:0:
228,342,27592,1,2,0:2:0:0:
199,334,27764,1,2,0:2:0:0:
170,327,27937,5,2,0:2:0:0:
70,346,28282,1,2,0:2:0:0:
88,243,28626,2,0,L|21:247,2,57.7500022029877,2|0|0,0:2|0:2|0:2,0:0:0:0:
148,176,29144,2,0,P|153:141|113:69,1,115.500004405975,2|2,0:2|0:2,0:0:0:0:
26,70,29661,1,0,0:2:0:0:
26,70,29833,1,2,0:2:0:0:
55,152,30006,2,0,L|50:218,1,57.7500022029877,0|0,0:2|0:2,0:0:0:0:
125,293,30351,1,2,0:2:0:0:
153,295,30523,1,2,0:2:0:0:
181,297,30695,5,2,0:2:0:0:
276,229,31040,1,2,0:2:0:0:
361,297,31385,2,0,L|355:361,2,57.7500022029877,2|2|2,0:2|0:2|0:2,0:0:0:0:
344,161,31902,2,0,P|300:136|228:144,1,115.500004405975,2|2,0:2|0:2,0:0:0:0:
169,196,32419,1,0,0:2:0:0:
169,196,32592,1,0,0:2:0:0:
100,141,32764,2,0,P|100:104|110:63,2,57.7500022029877,2|2|2,0:2|0:2|0:2,0:0:0:0:
113,342,33454,6,0,P|202:329|262:342,1,138.599995770264,6|8,3:2|0:2,0:0:0:0:
356,344,33971,2,0,L|355:205,1,138.599995770264,2|8,3:2|0:2,0:0:0:0:
264,135,34488,1,0,3:2:0:0:
264,135,34661,1,2,0:2:0:0:
367,43,34833,6,0,P|359:90|260:127,1,138.599995770264,2|8,3:2|0:2,0:0:0:0:
218,61,35351,2,0,L|79:58,1,138.599995770264,2|8,3:2|0:2,0:0:0:0:
35,154,35868,1,2,3:2:0:0:
35,154,36040,1,0,0:2:0:0:
135,258,36213,6,0,P|126:195|51:154,1,138.599995770264,2|8,3:2|0:2,0:0:0:0:
48,245,36730,2,0,L|47:384,1,138.599995770264,2|8,3:2|0:2,0:0:0:0:
149,352,37247,1,2,3:2:0:0:
149,352,37419,1,2,0:2:0:0:
302,334,37592,6,0,P|242:309|152:346,1,138.599995770264,2|8,3:2|0:2,0:0:0:0:
164,235,38109,2,0,L|168:79,1,138.599995770264,2|8,3:2|0:2,0:0:0:0:
126,26,38626,1,2,3:2:0:0:
126,26,38799,1,0,0:0:0:0:
244,54,38971,6,0,P|321:55|334:49,1,69.2999978851319,0|0,3:2|0:2,0:0:0:0:
459,28,39316,2,0,P|382:27|369:33,1,69.2999978851319,0|0,3:2|0:2,0:0:0:0:
257,68,39661,2,0,P|334:69|347:63,1,69.2999978851319,0|0,3:2|0:2,0:0:0:0:
472,42,40006,2,0,P|395:41|382:47,1,69.2999978851319,0|0,3:2|0:2,0:0:0:0:
292,151,40351,6,0,L|293:236,1,69.2999978851319,0|0,3:2|0:2,0:0:0:0:
403,107,40695,2,0,L|403:37,1,69.2999978851319,0|0,3:2|0:2,0:0:0:0:
307,155,41040,2,0,L|308:240,1,69.2999978851319,0|0,3:2|0:2,0:0:0:0:
418,111,41384,2,0,L|418:41,1,69.2999978851319,0|0,3:2|0:2,0:0:0:0:
243,58,41730,6,0,P|238:34|247:16,1,34.6499989425659,8|0,0:3|0:3,0:0:0:0:
301,143,41902,2,0,P|305:166|297:185,1,34.6499989425659,8|0,0:3|0:3,0:0:0:0:
231,53,42075,2,0,P|226:29|235:11,1,34.6499989425659,8|0,0:3|0:3,0:0:0:0:
289,138,42247,2,0,P|293:161|285:180,1,34.6499989425659,8|0,0:3|0:3,0:0:0:0:
167,150,42419,5,8,0:3:0:0:
149,146,42506,1,8,0:3:0:0:
133,137,42592,1,8,0:3:0:0:
121,124,42678,1,8,0:3:0:0:
114,107,42764,6,0,P|113:91|116:80,4,17.324999471283,8|8|8|0|2,0:3|0:3|0:3|0:0|0:2,0:0:0:0:
68,188,44144,5,8,0:2:0:0:
56,219,44488,6,0,L|182:217,1,100.099995417786,6|0,3:2|0:2,0:0:0:0:
241,216,44833,2,0,P|251:288|229:334,1,100.099995417786,2|0,0:2|0:2,0:0:0:0:
152,340,45178,1,0,0:2:0:0:
340,250,45351,1,0,3:2:0:0:
203,134,45523,1,8,0:2:0:0:
359,262,45695,2,0,L|488:262,2,100.099995417786,2|0|2,0:2|3:2|0:2,0:0:0:0:
257,71,46213,2,0,P|281:162|205:217,1,200.199990835572,8|0,0:2|0:2,0:0:0:0:
203,134,46730,1,2,3:2:0:0:
354,57,46902,1,10,0:2:0:0:
136,63,47075,1,2,0:2:0:0:
432,119,47247,5,2,3:2:0:0:
450,143,47592,2,0,P|452:214|339:263,1,200.199990835572,14|0,0:2|0:2,0:0:0:0:
295,154,48109,1,2,3:2:0:0:
268,304,48282,1,10,0:2:0:0:
300,141,48454,2,0,P|287:93|208:51,1,100.099995417786,2|0,0:2|0:2,0:0:0:0:
89,6,48799,2,0,P|52:39|39:87,1,100.099995417786,2|8,3:2|0:2,0:0:0:0:
132,198,49144,2,0,L|126:83,1,100.099995417786,2|0,0:2|0:2,0:0:0:0:
66,272,49488,1,2,3:2:0:0:
215,141,49661,1,10,0:2:0:0:
66,272,49833,1,2,3:2:0:0:
283,275,50006,5,2,3:2:0:0:
300,302,50351,2,0,P|377:305|452:191,1,200.199990835572,14|0,0:2|0:2,0:0:0:0:
289,170,50868,1,2,0:2:0:0:
315,327,51040,1,10,0:2:0:0:
381,165,51213,2,0,P|366:113|311:81,2,100.099995417786,2|0|2,0:2|3:2|0:2,0:0:0:0:
88,179,51730,2,0,L|305:169,1,200.199990835572,8|0,0:2|0:2,0:0:0:0:
226,265,52247,1,2,3:2:0:0:
164,77,52419,1,10,0:2:0:0:
77,209,52592,1,2,0:2:0:0:
267,32,52764,5,2,3:2:0:0:
289,28,53109,2,0,P|355:32|441:144,1,200.199990835572,14|0,0:2|0:2,0:0:0:0:
433,233,53626,1,2,3:2:0:0:
330,135,53799,2,0,L|193:137,1,100.099995417786,10|2,0:2|0:2,0:0:0:0:
34,242,54144,5,10,0:2:0:0:
41,229,54488,1,0,3:2:0:0:
205,340,54661,1,10,0:2:0:0:
202,325,55006,1,0,3:2:0:0:
342,213,55178,1,10,0:2:0:0:
205,340,55351,1,0,3:2:0:0:
333,66,55523,5,2,3:2:0:0:
355,46,55868,2,0,P|357:121|244:160,1,200.199990835572,14|0,0:2|0:2,0:0:0:0:
203,86,56385,1,2,3:2:0:0:
270,253,56557,1,10,0:2:0:0:
164,203,56730,2,0,L|44:209,2,100.099995417786,2|0|2,0:2|3:2|0:2,0:0:0:0:
234,0,57247,2,0,P|184:-3|120:119,1,200.199990835572,8|0,0:2|0:2,0:0:0:0:
203,86,57764,1,2,3:2:0:0:
17,105,57937,1,10,0:2:0:0:
224,97,58109,1,2,0:2:0:0:
129,285,58282,5,2,3:2:0:0:
121,312,58626,2,0,L|326:308,1,200.199990835572,14|0,0:2|0:2,0:0:0:0:
227,220,59144,1,2,3:2:0:0:
368,379,59316,1,10,0:2:0:0:
323,195,59488,2,0,P|316:146|341:103,1,100.099995417786,2|0,0:2|0:2,0:0:0:0:
502,243,59833,2,0,L|370:246,1,100.099995417786,2|8,3:2|0:2,0:0:0:0:
400,45,60178,2,0,P|426:104|404:156,1,100.099995417786,2|0,0:2|0:2,0:0:0:0:
267,134,60523,1,2,3:2:0:0:
427,168,60695,1,10,0:2:0:0:
267,134,60868,1,2,3:2:0:0:
286,310,61040,5,2,3:2:0:0:
296,338,61385,2,0,L|83:342,1,200.199990835572,14|0,0:2|0:2,0:0:0:0:
163,220,61902,1,2,3:2:0:0:
16,272,62075,1,10,0:2:0:0:
175,211,62247,2,0,P|178:143|141:101,2,100.099995417786,2|0|2,0:2|3:2|0:2,0:0:0:0:
21,79,62764,2,0,L|247:73,1,200.199990835572,8|0,0:2|0:2,0:0:0:0:
296,130,63282,1,2,3:2:0:0:
95,177,63454,1,10,0:2:0:0:
236,279,63626,1,2,0:2:0:0:
241,47,63799,5,2,3:2:0:0:
257,26,64144,2,0,L|467:28,1,200.199990835572,14|0,0:2|0:2,0:0:0:0:
342,141,64661,1,0,3:2:0:0:
488,146,64833,2,0,P|490:216|475:262,1,100.099995417786,10|2,0:2|0:2,0:0:0:0:
308,334,65178,5,10,0:2:0:0:
306,353,65523,1,0,3:2:0:0:
471,268,65695,1,10,0:2:0:0:
149,131,66040,5,8,0:3:0:0:
166,112,66126,1,8,0:3:0:0:
186,98,66212,1,8,0:3:0:0:
210,91,66298,1,8,0:3:0:0:
235,92,66385,2,0,L|230:152,1,50.0499977088929,8|8,0:3|0:3,0:0:0:0:
191,225,66557,6,0,L|296:223,1,77,6|0,3:2|0:0,0:0:0:0:
426,176,66902,1,10,0:2:0:0:
449,266,67075,2,0,P|406:265|358:233,1,77,2|0,0:0|0:0,0:0:0:0:
394,97,67419,1,2,3:2:0:0:
512,186,67592,1,10,0:2:0:0:
310,121,67764,2,0,L|220:123,1,77,2|0,0:2|3:2,0:0:0:0:
68,55,68109,2,0,L|158:57,1,77,2|8,0:2|0:2,0:0:0:0:
185,202,68454,1,2,0:2:0:0:
185,202,68540,1,2,0:2:0:0:
185,202,68626,2,0,L|187:263,1,38.5,2|2,0:2|0:2,0:0:0:0:
159,353,68799,1,2,3:2:0:0:
271,249,68971,2,0,P|325:253|370:273,1,77,10|0,0:2|0:2,0:0:0:0:
439,340,69316,5,2,3:2:0:0:
377,111,69661,5,14,0:2:0:0:
400,97,70006,2,0,L|476:104,2,77,2|2|10,0:2|3:2|0:2,0:0:0:0:
303,45,70523,2,0,P|278:88|280:132,1,77,2|0,0:2|0:2,0:0:0:0:
365,246,70868,2,0,P|359:208|338:176,1,77,2|8,3:2|0:2,0:0:0:0:
252,123,71213,1,2,0:2:0:0:
163,216,71385,1,2,0:2:0:0:
150,26,71557,1,2,3:2:0:0:
86,157,71730,1,10,0:2:0:0:
150,26,71902,1,0,0:2:0:0:
77,173,72075,6,0,P|66:234|91:275,1,77,2|0,3:2|0:2,0:0:0:0:
226,303,72419,1,10,0:2:0:0:
239,218,72592,2,0,L|130:214,1,77,2|0,0:2|0:2,0:0:0:0:
132,309,72937,1,2,3:2:0:0:
270,218,73109,1,10,0:2:0:0:
107,329,73282,2,0,P|56:333|23:317,1,77,2|0,0:2|3:2,0:0:0:0:
77,173,73626,2,0,P|82:210|70:246,1,77,2|8,0:2|0:2,0:0:0:0:
36,79,73971,1,2,0:2:0:0:
36,79,74057,1,2,0:2:0:0:
36,79,74144,2,0,L|107:82,1,38.5,2|2,0:2|0:2,0:0:0:0:
163,179,74316,1,2,3:2:0:0:
215,20,74488,2,0,P|182:48|174:106,1,77,10|0,0:2|0:2,0:0:0:0:
245,230,74833,5,2,3:2:0:0:
348,46,75178,5,14,0:2:0:0:
375,48,75523,2,0,L|460:52,2,77,2|2|10,0:2|3:2|0:2,0:0:0:0:
284,103,76040,1,2,0:2:0:0:
392,242,76213,5,10,0:2:0:0:
399,259,76557,1,0,3:2:0:0:
196,235,76730,1,10,0:2:0:0:
191,249,77075,1,0,3:2:0:0:
116,86,77247,1,10,0:2:0:0:
186,263,77419,1,0,3:2:0:0:
362,160,77592,6,0,L|260:160,1,77,6|0,3:2|0:2,0:0:0:0:
444,32,77937,1,10,0:2:0:0:
507,89,78109,2,0,P|469:115|425:117,1,77,2|0,0:2|0:2,0:0:0:0:
332,46,78454,1,2,3:2:0:0:
435,215,78626,1,10,0:2:0:0:
311,30,78799,2,0,P|267:34|225:57,1,77,2|0,0:2|3:2,0:0:0:0:
98,120,79144,2,0,P|133:135|171:137,1,77,2|8,0:2|0:2,0:0:0:0:
23,9,79488,1,2,0:2:0:0:
23,9,79575,1,2,0:2:0:0:
23,9,79661,2,0,L|25:76,1,38.5,2|2,0:2|0:2,0:0:0:0:
26,193,79833,1,2,3:2:0:0:
243,193,80006,2,0,P|260:141|243:98,1,77,10|0,0:2|0:2,0:0:0:0:
160,50,80351,5,2,3:2:0:0:
210,305,80695,5,14,0:2:0:0:
208,333,81040,2,0,L|118:339,2,77,2|2|10,0:2|3:2|0:2,0:0:0:0:
270,253,81557,2,0,P|337:251|374:272,1,77,2|0,0:2|0:2,0:0:0:0:
475,329,81902,2,0,P|437:336|399:329,1,77,2|8,3:2|0:2,0:0:0:0:
350,237,82247,1,2,0:2:0:0:
296,360,82419,1,2,0:2:0:0:
445,227,82592,1,2,3:2:0:0:
274,129,82764,1,10,0:2:0:0:
445,227,82937,1,0,3:2:0:0:
273,107,83109,6,0,L|266:6,1,77,2|0,0:2|0:2,0:0:0:0:
142,162,83454,1,10,0:2:0:0:
90,83,83626,2,0,P|120:71|183:79,1,77,2|0,0:2|0:2,0:0:0:0:
274,129,83971,1,2,3:2:0:0:
192,0,84144,1,10,0:2:0:0:
278,152,84316,2,0,L|283:228,1,77,2|0,0:2|3:2,0:0:0:0:
140,331,84661,2,0,P|204:325|245:337,1,77,2|8,0:2|0:2,0:0:0:0:
337,353,85006,1,2,0:2:0:0:
337,353,85092,1,2,0:2:0:0:
337,353,85178,2,0,L|341:294,1,38.5,2|2,0:2|0:2,0:0:0:0:
442,228,85351,1,2,3:2:0:0:
283,228,85523,2,0,L|170:228,1,77,10|0,0:2|0:2,0:0:0:0:
58,228,85868,5,2,3:2:0:0:
245,64,86213,5,14,0:2:0:0:
271,46,86557,2,0,L|356:48,2,77,2|2|10,0:2|3:2|0:2,0:0:0:0:
184,5,87075,1,2,0:2:0:0:
325,174,87247,6,0,L|326:227,1,38.5,8|8,0:0|0:3,0:0:0:0:
244,102,87419,2,0,L|244:63,1,38.5,8|8,0:3|0:3,0:0:0:0:
186,189,87592,1,8,3:3:0:0:
337,302,87764,5,8,0:2:0:0:
356,300,87850,1,8,0:3:0:0:
374,295,87936,1,8,0:3:0:0:
391,286,88022,1,8,0:3:0:0:
406,273,88108,1,8,0:3:0:0:
415,256,88195,1,8,0:3:0:0:
421,237,88282,2,0,P|419:209|406:175,3,38.5,8|8|8|0,0:3|0:3|0:3|0:0,0:0:0:0:
464,132,88626,5,4,3:2:0:0:
130,157,99661,5,6,3:2:0:0:
130,157,100006,1,2,0:2:0:0:
191,93,100351,2,0,L|258:94,2,57.7500022029878,0|2|0,0:2|0:2|0:2,0:0:0:0:
309,30,100868,2,0,P|329:58|311:153,1,115.500004405976,2|2,0:2|0:2,0:0:0:0:
252,184,101385,2,0,L|256:254,1,57.7500022029878,0|2,0:2|0:2,0:0:0:0:
324,308,101730,1,0,0:2:0:0:
324,308,101902,1,0,0:2:0:0:
219,323,102075,2,0,P|191:302|174:269,1,57.7500022029878,2|0,0:2|0:0,0:0:0:0:
146,149,102419,5,2,0:2:0:0:
146,149,102764,1,2,0:2:0:0:
204,88,103282,5,2,0:2:0:0:
204,88,103626,1,2,0:2:0:0:
204,88,103971,1,2,0:2:0:0:
204,88,104316,1,2,0:2:0:0:
119,29,104833,5,2,0:2:0:0:
119,29,105178,1,2,0:2:0:0:
119,29,105523,1,2,0:2:0:0:
60,88,105868,2,0,L|-3:90,2,57.7500022029878,0|2|0,0:2|0:2|0:2,0:0:0:0:
119,29,106385,2,0,P|183:29|235:65,2,115.500004405976,2|2|2,0:2|0:2|0:2,0:0:0:0:
103,18,107419,1,0,0:2:0:0:
75,109,107592,2,0,L|72:188,1,57.7500022029878,2|0,0:2|0:0,0:0:0:0:
69,269,107937,5,2,0:2:0:0:
69,269,108282,1,2,0:2:0:0:
162,231,108626,2,0,L|233:236,2,57.7500022029878,0|2|0,0:2|0:2|0:2,0:0:0:0:
260,316,109144,2,0,P|294:283|301:200,1,115.500004405976,2|2,0:2|0:2,0:0:0:0:
219,235,109661,1,0,0:2:0:0:
307,137,109833,1,2,0:2:0:0:
307,137,110351,1,2,0:2:0:0:
246,64,110695,5,2,0:2:0:0:
246,64,111040,1,2,0:2:0:0:
178,126,111385,2,0,L|117:129,2,57.7500022029878,0|2|0,0:2|0:2|0:2,0:0:0:0:
246,43,111902,6,0,P|296:29|375:42,1,115.500004405976,2|2,0:2|0:2,0:0:0:0:
310,155,112419,1,0,0:2:0:0:
366,220,112592,1,2,0:2:0:0:
423,161,112764,5,0,0:2:0:0:
363,229,112937,1,0,0:2:0:0:
425,176,113109,1,2,0:2:0:0:
359,238,113282,1,0,0:2:0:0:
291,183,113454,5,2,0:2:0:0:
356,245,113627,1,0,0:2:0:0:
291,186,113799,1,2,0:2:0:0:
351,253,113972,1,0,0:2:0:0:
291,190,114144,6,0,L|219:188,1,57.7500022029878,0|2,0:2|0:2,0:0:0:0:
163,117,114488,1,0,0:2:0:0:
95,192,114661,2,0,P|82:234|101:314,2,115.500004405976,2|2|2,0:2|0:2|0:2,0:0:0:0:
115,176,115868,1,2,0:2:0:0:
65,59,116213,5,2,0:2:0:0:
65,59,116557,2,0,B|137:33|150:93|247:49,1,173.250006608963,2|2,0:0|0:0,0:0:0:0:
314,72,117419,2,0,P|370:71|429:34,2,115.500004405976,2|2|2,0:2|0:2|0:2,0:0:0:0:
283,56,118626,1,2,0:2:0:0:
218,123,118799,1,0,0:2:0:0:
244,212,118971,6,0,P|252:262|243:295,1,57.7500022029878,2|0,0:2|0:0,0:0:0:0:
205,356,119316,1,2,0:2:0:0:
301,346,119488,2,0,L|371:345,1,57.7500022029878,0|0,0:2|0:2,0:0:0:0:
468,273,119833,2,0,L|398:272,1,57.7500022029878,2|0,0:2|0:2,0:0:0:0:
361,174,120178,6,0,B|227:131|266:227|112:173,1,231.000008811951,2|2,0:2|0:2,0:0:0:0:
106,162,121385,1,2,0:2:0:0:
251,37,121730,5,6,3:2:0:0:
270,62,122419,1,8,0:2:0:0:
291,87,123109,1,0,3:2:0:0:
372,36,123626,1,2,3:2:0:0:
311,110,123799,1,8,0:2:0:0:
392,58,123971,1,2,3:2:0:0:
414,83,124488,5,2,3:2:0:0:
437,109,125178,1,8,0:2:0:0:
463,135,125868,1,0,3:2:0:0:
406,224,126385,1,2,3:2:0:0:
488,160,126557,1,8,0:2:0:0:
382,247,126730,1,2,3:2:0:0:
356,274,127247,6,0,L|282:276,1,57.7500022029878,2|0,3:2|0:2,0:0:0:0:
181,207,127592,2,0,L|255:209,1,57.7500022029878,2|2,3:2|0:2,0:0:0:0:
124,286,127937,1,8,3:2:0:0:
111,304,128282,1,0,3:2:0:0:
98,321,128626,6,0,L|96:382,1,57.7500022029878,0|0,3:2|0:2,0:0:0:0:
26,253,128971,1,0,3:2:0:0:
117,230,129144,1,0,3:2:0:0:
11,342,129316,1,8,0:2:0:0:
117,230,129488,1,2,3:2:0:0:
117,230,129661,2,0,L|116:149,1,57.7500022029878,2|0,3:2|0:0,0:0:0:0:
224,108,130006,5,8,3:3:0:0:
238,108,130092,1,8,0:3:0:0:
252,108,130178,1,8,3:3:0:0:
266,108,130264,1,8,0:3:0:0:
280,108,130351,2,0,L|333:108,3,28.8750011014939,8|8|8|8,3:3|0:3|3:3|0:3,0:0:0:0:
357,45,130695,2,0,L|410:45,3,28.8750011014939,8|8|8|8,0:2|0:3|0:3|0:3,0:0:0:0:
443,118,131040,6,0,L|442:142,8,14.4375005507469,8|8|8|8|8|8|8|0|2,3:3|0:3|0:3|0:3|0:3|0:3|0:3|0:0|0:2,0:0:0:0:
79,90,132419,5,8,0:2:0:0:
66,114,132764,6,0,B|70:299|70:299|107:193,1,277.199991540528,6|0,3:2|0:2,0:0:0:0:
149,134,133454,1,8,0:2:0:0:
224,246,133626,2,0,P|227:292|222:346,2,92.3999971801759,2|2|2,0:2|0:2|0:2,0:0:0:0:
164,151,134144,1,0,3:2:0:0:
299,159,134316,2,0,L|409:161,1,92.3999971801759,2|0,0:2|0:2,0:0:0:0:
449,253,134661,1,2,3:2:0:0:
481,113,134833,1,8,0:2:0:0:
443,277,135006,2,0,B|478:308|478:308|306:297,1,184.799994360352,2|0,3:2|0:2,0:0:0:0:
71,300,135523,6,0,B|133:281|209:282|187:335|272:334|355:293,1,277.199991540528,6|0,3:2|0:2,0:0:0:0:
389,157,136213,1,8,0:2:0:0:
256,206,136385,2,0,L|154:204,2,92.3999971801759,2|2|2,0:2|0:2|0:2,0:0:0:0:
403,151,136902,1,0,3:2:0:0:
281,27,137075,2,0,P|280:78|305:122,1,92.3999971801759,2|0,0:2|0:2,0:0:0:0:
420,144,137419,2,0,L|519:146,2,92.3999971801759,2|8|2,3:2|0:2|3:2,0:0:0:0:
376,53,137937,1,0,0:2:0:0:
450,222,138109,1,0,0:2:0:0:
216,146,138282,6,0,B|312:176|420:147|420:147|401:129|401:129|371:140|316:125,1,277.199991540528,6|0,3:2|0:2,0:0:0:0:
229,59,138971,1,8,0:2:0:0:
125,134,139144,2,0,P|151:212|167:224,2,92.3999971801759,2|2|2,0:2|0:2|0:2,0:0:0:0:
226,48,139661,1,0,3:2:0:0:
125,134,139833,2,0,P|47:108|35:92,1,92.3999971801759,2|0,0:2|0:2,0:0:0:0:
120,40,140178,1,2,3:2:0:0:
37,207,140351,1,8,0:2:0:0:
129,31,140523,2,0,B|192:24|192:24|239:40|239:40|338:28,1,184.799994360352,2|0,3:2|0:2,0:0:0:0:
411,224,141040,6,0,B|408:30|408:30|380:109,1,277.199991540528,6|0,3:2|0:2,0:0:0:0:
334,262,141730,1,8,0:2:0:0:
233,207,141902,2,0,L|132:206,2,92.3999971801759,2|2|2,0:2|0:2|0:2,0:0:0:0:
340,278,142419,1,0,3:2:0:0:
259,384,142592,2,0,P|244:341|257:281,1,92.3999971801759,2|0,0:2|0:2,0:0:0:0:
324,192,142937,1,2,3:2:0:0:
158,111,143109,1,8,0:2:0:0:
313,97,143282,1,8,3:3:0:0:
313,97,143368,1,8,0:3:0:0:
313,97,143454,2,0,L|319:40,1,46.1999985900879,8|8,0:3|0:3,0:0:0:0:
185,106,143626,2,0,L|189:151,1,46.1999985900879,8|8,0:3|0:3,0:0:0:0:
69,200,143799,6,0,B|155:188|155:188|249:215|249:215|366:202,1,277.199991540528,6|0,3:2|0:2,0:0:0:0:
440,95,144488,1,8,0:2:0:0:
429,236,144661,2,0,P|392:286|351:299,2,92.3999971801759,2|2|2,0:2|0:2|0:2,0:0:0:0:
434,110,145178,1,0,3:2:0:0:
248,213,145351,2,0,L|340:204,1,92.3999971801759,2|0,0:2|0:2,0:0:0:0:
198,106,145695,1,2,3:2:0:0:
138,248,145868,1,8,0:2:0:0:
200,94,146040,2,0,P|130:59|26:104,1,184.799994360352,2|0,3:2|0:2,0:0:0:0:
119,358,146557,6,0,B|119:156|119:156|154:252,1,277.199991540528,6|0,3:2|0:2,0:0:0:0:
207,328,147247,1,8,0:2:0:0:
347,250,147419,2,0,L|475:243,2,92.3999971801759,2|2|2,0:2|0:2|0:2,0:0:0:0:
223,309,147937,1,0,3:2:0:0:
263,123,148109,2,0,P|266:176|238:225,1,92.3999971801759,2|0,0:2|0:2,0:0:0:0:
204,50,148454,2,0,P|246:32|292:37,2,92.3999971801759,2|8|2,3:2|0:2|3:2,0:0:0:0:
131,132,148971,1,0,0:2:0:0:
65,20,149144,1,0,0:2:0:0:
206,177,149316,6,0,B|248:248|248:248|223:367|223:367|218:293,1,277.199991540528,6|0,3:2|0:2,0:0:0:0:
103,291,150006,1,8,0:2:0:0:
354,231,150178,2,0,L|456:236,2,92.3999971801759,2|2|2,0:2|0:2|0:2,0:0:0:0:
127,285,150695,1,0,3:2:0:0:
256,205,150868,2,0,L|260:112,1,92.3999971801759,2|0,0:2|0:2,0:0:0:0:
386,142,151213,1,2,3:2:0:0:
196,56,151385,1,8,0:2:0:0:
399,122,151557,2,0,P|430:169|395:294,1,184.799994360352,2|0,3:2|0:2,0:0:0:0:
129,276,152075,6,0,B|219:270|219:270|297:295|297:295|425:285,1,277.199991540528,6|0,3:2|0:2,0:0:0:0:
399,122,152764,1,8,0:2:0:0:
212,182,152937,2,0,L|107:189,2,92.3999971801759,2|2|2,0:2|0:2|0:2,0:0:0:0:
388,132,153454,1,0,3:2:0:0:
247,93,153626,2,0,L|240:-12,1,92.3999971801759,2|0,0:2|0:2,0:0:0:0:
337,42,153971,1,2,3:2:0:0:
124,46,154144,1,8,0:2:0:0:
316,174,154316,1,8,3:3:0:0:
316,174,154402,1,8,0:3:0:0:
316,174,154488,2,0,P|321:236|291:288,1,92.3999971801759,8|8,0:3|0:3,0:0:0:0:
132,348,154833,6,0,L|304:342,1,138.599995770264,6|8,3:2|0:2,0:0:0:0:
353,381,155351,2,0,P|354:310|291:256,1,138.599995770264,2|8,3:2|0:2,0:0:0:0:
226,231,155868,1,0,3:2:0:0:
226,231,156040,1,0,0:2:0:0:
414,126,156213,6,0,P|380:160|281:174,1,138.599995770264,2|8,3:2|0:2,0:0:0:0:
238,99,156730,2,0,L|95:100,1,138.599995770264,2|8,3:2|0:2,0:0:0:0:
41,163,157247,1,0,3:2:0:0:
41,163,157419,1,2,0:2:0:0:
126,322,157592,6,0,P|136:255|116:177,1,138.599995770264,2|8,3:2|0:2,0:0:0:0:
51,142,158109,2,0,L|212:135,1,138.599995770264,2|8,3:2|0:2,0:0:0:0:
271,175,158626,1,0,3:2:0:0:
271,175,158799,1,2,0:2:0:0:
424,60,158971,6,0,P|431:126|401:214,1,138.599995770264,2|8,3:2|0:2,0:0:0:0:
339,240,159488,2,0,L|502:243,1,138.599995770264,2|8,3:2|0:2,0:0:0:0:
493,338,160006,1,2,3:2:0:0:
493,338,160178,1,0,0:2:0:0:
364,361,160351,6,0,P|324:357|278:339,1,69.2999978851319,0|0,3:2|0:2,0:0:0:0:
137,307,160695,2,0,P|177:303|223:285,1,69.2999978851319,0|0,3:2|0:2,0:0:0:0:
371,228,161040,2,0,P|331:224|285:206,1,69.2999978851319,0|0,3:2|0:2,0:0:0:0:
137,191,161384,2,0,P|177:187|223:169,1,69.2999978851319,0|0,3:2|0:2,0:0:0:0:
329,17,161730,6,0,L|318:102,1,69.2999978851319,0|0,3:2|0:2,0:0:0:0:
192,23,162075,2,0,L|203:108,1,69.2999978851319,0|0,3:2|0:2,0:0:0:0:
421,89,162419,2,0,L|410:174,1,69.2999978851319,0|0,3:2|0:2,0:0:0:0:
111,97,162764,2,0,L|122:182,1,69.2999978851319,0|0,3:2|0:2,0:0:0:0:
179,305,163109,5,8,3:3:0:0:
193,314,163195,1,8,0:3:0:0:
209,320,163281,1,8,3:3:0:0:
226,325,163367,1,8,0:3:0:0:
243,326,163453,1,8,3:3:0:0:
260,325,163540,1,8,0:3:0:0:
277,321,163626,1,8,3:3:0:0:
293,315,163712,1,8,0:3:0:0:
307,305,163799,2,0,L|307:240,1,34.649998942566,8|8,0:3|0:3,0:0:0:0:
230,168,163971,2,0,L|230:202,1,34.649998942566,8|8,0:3|0:3,0:0:0:0:
346,112,164144,6,0,L|371:111,4,17.324999471283,8|8|8|0|2,0:3|0:3|0:3|0:0|0:2,0:0:0:0:
26,34,165523,5,8,3:2:0:0:
179,234,165868,6,0,P|194:164|164:118,1,100.099995417786,6|0,3:2|0:2,0:0:0:0:
134,59,166213,2,0,L|278:62,1,100.099995417786,10|0,0:2|0:2,0:0:0:0:
319,22,166557,1,0,0:2:0:0:
304,256,166730,1,2,3:2:0:0:
398,100,166902,1,10,0:2:0:0:
232,189,167075,2,0,P|209:259|220:295,2,100.099995417786,2|0|2,0:2|3:2|0:2,0:0:0:0:
504,262,167592,2,0,L|287:255,1,200.199990835572,8|0,0:2|0:2,0:0:0:0:
313,136,168109,1,2,3:2:0:0:
273,331,168282,1,10,0:2:0:0:
313,136,168454,1,2,0:2:0:0:
124,208,168626,5,2,3:2:0:0:
101,227,168971,2,0,P|89:147|182:63,1,200.199990835572,14|0,0:2|0:2,0:0:0:0:
189,173,169488,1,2,3:2:0:0:
91,5,169661,1,10,0:2:0:0:
260,99,169833,2,0,L|386:99,1,100.099995417786,2|0,0:2|0:2,0:0:0:0:
512,179,170178,2,0,L|386:179,1,100.099995417786,2|8,3:2|0:2,0:0:0:0:
341,5,170523,2,0,P|365:60|335:133,1,100.099995417786,2|0,0:2|0:2,0:0:0:0:
307,215,170868,1,2,3:2:0:0:
452,100,171040,1,10,0:2:0:0:
293,226,171213,1,2,3:2:0:0:
502,330,171385,5,2,3:2:0:0:
485,349,171730,2,0,L|259:349,1,200.199990835572,14|0,0:2|0:2,0:0:0:0:
187,352,172247,1,2,3:2:0:0:
278,242,172419,1,10,0:2:0:0:
115,258,172592,2,0,P|110:196|140:146,2,100.099995417786,2|0|2,0:2|3:2|0:2,0:0:0:0:
233,115,173109,2,0,L|32:115,1,200.199990835572,8|0,0:2|0:2,0:0:0:0:
22,212,173626,1,2,3:2:0:0:
116,21,173799,1,10,0:2:0:0:
30,200,173971,1,2,0:2:0:0:
233,115,174144,5,2,3:2:0:0:
259,144,174488,2,0,L|496:143,1,200.199990835572,14|0,0:2|0:2,0:0:0:0:
375,61,175006,1,2,3:2:0:0:
449,250,175178,2,0,P|441:311|405:349,1,100.099995417786,10|2,0:2|3:2,0:0:0:0:
156,271,175523,5,10,0:2:0:0:
141,283,175868,1,0,3:2:0:0:
175,64,176040,1,10,0:2:0:0:
149,57,176385,1,0,3:2:0:0:
141,283,176557,1,10,0:2:0:0:
124,48,176730,1,0,3:2:0:0:
338,218,176902,5,2,3:2:0:0:
364,203,177247,2,0,P|317:185|153:205,1,200.199990835572,14|0,0:2|0:2,0:0:0:0:
126,294,177764,1,2,3:2:0:0:
69,168,177937,1,10,0:2:0:0:
206,354,178109,2,0,L|320:356,2,100.099995417786,2|0|2,0:2|3:2|0:2,0:0:0:0:
41,266,178626,2,0,L|43:54,1,200.199990835572,8|0,0:2|0:2,0:0:0:0:
153,169,179144,1,2,3:2:0:0:
100,0,179316,1,10,0:2:0:0:
153,169,179488,1,2,0:2:0:0:
289,42,179661,5,2,3:2:0:0:
307,20,180006,2,0,P|353:54|372:197,1,200.199990835572,14|0,0:2|0:2,0:0:0:0:
331,273,180523,1,2,3:2:0:0:
255,103,180695,1,10,0:2:0:0:
376,187,180868,2,0,L|505:190,1,100.099995417786,2|0,0:2|0:2,0:0:0:0:
315,281,181213,2,0,L|186:284,1,100.099995417786,2|8,3:2|0:2,0:0:0:0:
122,108,181557,2,0,P|154:175|139:227,1,100.099995417786,2|0,0:2|0:2,0:0:0:0:
65,320,181902,1,2,3:2:0:0:
242,203,182075,1,10,0:2:0:0:
65,320,182247,1,2,3:2:0:0:
40,107,182419,5,2,3:2:0:0:
31,81,182764,2,0,L|249:80,1,200.199990835572,14|0,0:2|0:2,0:0:0:0:
338,79,183282,1,2,3:2:0:0:
228,218,183454,1,10,0:2:0:0:
406,153,183626,2,0,P|438:95|422:30,2,100.099995417786,2|0|2,0:2|3:2|0:2,0:0:0:0:
297,298,184144,2,0,P|224:318|116:222,1,200.199990835572,8|0,0:2|0:2,0:0:0:0:
237,209,184661,1,2,3:2:0:0:
21,286,184833,1,10,0:2:0:0:
237,209,185006,1,2,0:2:0:0:
105,50,185178,5,2,3:2:0:0:
86,29,185523,2,0,L|311:29,1,200.199990835572,14|2,0:2|0:2,0:0:0:0:
401,22,186040,1,2,3:2:0:0:
338,201,186213,2,0,P|278:213|214:204,1,100.099995417786,10|0,0:2|0:2,0:0:0:0:
34,102,186557,5,10,0:2:0:0:
25,87,186902,1,0,3:2:0:0:
41,278,187075,1,10,0:2:0:0:
105,4,187419,5,8,0:3:0:0:
130,7,187506,1,8,0:3:0:0:
153,17,187592,1,8,0:3:0:0:
172,33,187678,1,8,0:3:0:0:
184,55,187764,2,0,L|183:131,1,50.0499977088929,8|8,0:3|0:3,0:0:0:0:
147,198,187937,6,0,L|250:194,1,77,6|0,3:2|0:2,0:0:0:0:
326,55,188282,1,10,0:2:0:0:
387,128,188454,2,0,P|336:147|280:136,1,77,2|0,0:2|0:2,0:0:0:0:
226,61,188799,1,2,3:2:0:0:
419,111,188971,1,10,0:2:0:0:
216,37,189144,2,0,L|126:40,1,77,2|0,0:2|3:2,0:0:0:0:
3,110,189488,2,0,L|93:113,1,77,2|8,0:2|0:2,0:0:0:0:
181,202,189833,1,2,0:2:0:0:
181,202,189919,1,2,0:2:0:0:
181,202,190006,2,0,L|173:272,1,38.5,2|2,0:2|0:2,0:0:0:0:
92,331,190178,1,2,3:2:0:0:
262,287,190351,2,0,P|325:287|366:301,1,77,10|0,0:2|0:2,0:0:0:0:
472,358,190695,5,2,3:2:0:0:
425,156,191040,5,14,0:2:0:0:
413,123,191385,2,0,L|421:34,2,77,2|2|10,0:2|3:2|0:2,0:0:0:0:
333,191,191902,2,0,P|268:193|228:173,1,77,2|0,0:2|0:2,0:0:0:0:
118,111,192247,2,0,P|155:103|193:109,1,77,2|8,3:2|0:2,0:0:0:0:
192,257,192592,1,2,0:2:0:0:
287,101,192764,1,2,0:2:0:0:
120,192,192937,1,2,3:2:0:0:
73,22,193109,1,10,0:2:0:0:
120,192,193282,1,0,3:2:0:0:
302,91,193454,6,0,P|367:89|408:100,1,77,2|0,3:2|0:2,0:0:0:0:
451,245,193799,1,10,0:2:0:0:
375,304,193971,2,0,P|356:260|363:204,1,77,2|0,0:2|0:2,0:0:0:0:
478,160,194316,1,2,3:2:0:0:
392,331,194488,1,10,0:2:0:0:
278,169,194661,2,0,L|173:169,1,77,2|0,0:2|3:2,0:0:0:0:
70,254,195006,2,0,L|175:254,1,77,2|8,0:2|0:2,0:0:0:0:
174,86,195351,1,2,0:2:0:0:
174,86,195437,1,2,0:2:0:0:
174,86,195523,2,0,P|149:98|125:120,1,38.5,2|2,0:2|0:2,0:0:0:0:
50,229,195695,1,2,3:2:0:0:
201,169,195868,2,0,L|278:169,1,77,10|0,0:2|0:2,0:0:0:0:
452,273,196213,5,2,3:2:0:0:
342,49,196557,5,14,0:2:0:0:
366,33,196902,2,0,L|447:36,2,77,2|2|10,0:2|3:2|0:2,0:0:0:0:
251,25,197419,1,2,3:2:0:0:
385,206,197592,5,10,0:2:0:0:
408,214,197937,1,0,3:2:0:0:
234,274,198109,1,10,0:2:0:0:
232,298,198454,1,0,3:2:0:0:
408,214,198626,1,10,0:2:0:0:
233,320,198799,1,0,3:2:0:0:
279,150,198971,6,0,L|279:47,1,77,6|0,3:2|0:2,0:0:0:0:
98,30,199316,1,10,0:2:0:0:
59,116,199488,2,0,P|130:119|162:102,1,77,2|0,0:2|0:2,0:0:0:0:
248,53,199833,1,2,3:2:0:0:
80,25,200006,1,10,0:2:0:0:
193,177,200178,2,0,P|197:250|185:272,1,77,2|0,0:2|3:2,0:0:0:0:
110,371,200523,2,0,P|103:333|113:296,1,77,2|8,0:2|0:2,0:0:0:0:
275,311,200868,1,2,0:2:0:0:
275,311,200954,1,2,0:2:0:0:
275,311,201040,2,0,L|341:312,1,38.5,2|2,0:2|0:2,0:0:0:0:
427,365,201213,1,2,3:2:0:0:
381,256,201385,2,0,L|376:180,1,77,10|0,0:2|0:2,0:0:0:0:
428,34,201730,5,2,3:2:0:0:
199,93,202075,5,14,0:2:0:0:
167,73,202419,2,0,L|85:71,2,77,2|2|10,0:2|3:2|0:2,0:0:0:0:
256,162,202937,2,0,P|249:217|221:245,1,77,2|0,0:2|0:2,0:0:0:0:
161,346,203282,2,0,P|141:313|141:274,1,77,2|8,3:2|0:2,0:0:0:0:
169,172,203626,1,2,0:2:0:0:
48,274,203799,1,2,0:2:0:0:
231,249,203971,1,2,3:2:0:0:
82,189,204144,1,10,0:2:0:0:
231,249,204316,1,0,3:2:0:0:
117,101,204488,6,0,P|160:86|213:96,1,77,2|0,3:2|0:2,0:0:0:0:
333,152,204833,1,10,0:2:0:0:
413,99,205006,2,0,L|412:11,1,77,2|0,0:2|0:2,0:0:0:0:
317,169,205351,1,2,3:2:0:0:
501,103,205523,1,10,0:2:0:0:
391,226,205695,2,0,P|340:258|296:253,1,77,2|0,0:2|3:2,0:0:0:0:
176,181,206040,2,0,P|213:189|242:214,1,77,2|8,0:2|0:2,0:0:0:0:
251,326,206385,1,2,0:2:0:0:
251,326,206471,1,2,0:2:0:0:
254,330,206557,2,0,L|183:327,1,38.5,2|2,0:2|0:2,0:0:0:0:
91,316,206730,1,2,3:2:0:0:
176,181,206902,2,0,L|175:74,1,77,10|0,0:2|0:2,0:0:0:0:
63,34,207247,5,2,3:2:0:0:
398,49,207592,5,14,0:2:0:0:
420,65,207937,2,0,L|501:67,2,77,2|2|10,0:2|3:2|0:2,0:0:0:0:
296,32,208454,1,2,3:2:0:0:
364,149,208626,6,0,L|365:197,1,38.5,8|8,0:0|0:3,0:0:0:0:
264,93,208799,2,0,L|264:54,1,38.5,8|8,0:3|0:3,0:0:0:0:
212,181,208971,1,8,3:3:0:0:
97,41,209144,1,10,0:2:0:0:
97,60,209230,1,8,0:3:0:0:
97,79,209316,1,8,0:3:0:0:
97,98,209402,1,8,0:3:0:0:
97,117,209488,1,8,0:3:0:0:
98,137,209575,1,8,0:3:0:0:
98,156,209661,2,8,L|170:157,1,38.5,8|8,0:3|0:3,0:0:0:0:
239,228,209833,2,8,L|167:229,1,38.5,8|8,0:3|0:3,0:0:0:0:
138,318,210006,5,4,3:2:0:0:
