osu file format v14

[General]
AudioFilename: audio.mp3
AudioLeadIn: 0
PreviewTime: 165493
Countdown: 0
SampleSet: Soft
StackLeniency: 0.7
Mode: 0
LetterboxInBreaks: 0
WidescreenStoryboard: 1

[Editor]
DistanceSpacing: 1.2
BeatDivisor: 4
GridSize: 4
TimelineZoom: 3.099999

[Metadata]
Title:Taking Over (feat. Miyoki)
TitleUnicode:Taking Over (feat. Miyoki)
Artist:Rob Gasser
ArtistUnicode:Rob Gasser
Creator:Evgerable
Version:Pro+
Source:
Tags:drum bass dnb fullscreen jumps full size
BeatmapID:1250721
BeatmapSetID:590956

[Difficulty]
HPDrainRate:6
CircleSize:3.5
OverallDifficulty:8.3
ApproachRate:9.2
SliderMultiplier:1.7
SliderTickRate:1

[Events]
//Background and Video events
0,0,"BG.jpg",0,0
//Break Periods
2,88454,97488
2,121557,125074
//Storyboard Layer 0 (Background)
//Storyboard Layer 1 (Fail)
//Storyboard Layer 2 (Pass)
//Storyboard Layer 3 (Foreground)
//Storyboard Sound Samples

[TimingPoints]
323,344.827586206897,4,2,1,100,1,0
22045,-133.333333333333,4,2,3,65,0,0
22736,-133.333333333333,4,2,1,65,0,0
33081,-133.333333333333,4,2,3,65,0,0
33426,-133.333333333333,4,2,1,65,0,0
44116,-100,4,2,2,100,0,1
66185,-100,4,2,2,90,0,0
88254,-100,4,2,3,90,0,0
99288,-133.333333333333,4,2,3,65,0,0
99978,-133.333333333333,4,2,2,65,0,0
130495,-133.333333333333,4,2,1,65,0,0
131529,-200,4,2,1,85,0,0
132047,-200,4,2,1,85,0,0
132391,-125,4,2,3,85,0,0
133081,-125,4,2,2,85,0,0
135150,-125,4,2,3,85,0,0
135840,-125,4,2,2,85,0,0
137909,-125,4,2,3,85,0,0
138598,-125,4,2,2,85,0,0
140667,-125,4,2,3,85,0,0
141357,-125,4,2,2,85,0,0
143426,-125,4,2,3,85,0,0
144116,-125,4,2,2,85,0,0
146185,-125,4,2,3,85,0,0
146874,-125,4,2,2,85,0,0
148943,-125,4,2,3,85,0,0
149633,-125,4,2,2,85,0,0
151702,-125,4,2,3,85,0,0
152391,-125,4,2,2,85,0,0
154460,-133.333333333333,4,2,1,65,0,0
165495,-100,4,2,2,100,0,1
187564,-100,4,2,2,90,0,0
209633,-100,4,2,3,90,0,0

[Colours]
Combo1 : 240,211,11
Combo2 : 164,82,0
Combo3 : 223,112,0
Combo4 : 145,0,0
Combo5 : 100,49,49
Combo6 : 193,132,132

[HitObjects]
413,128,22047,6,0,P|361:176|301:184,1,127.500004863739,4|0,0:0|0:0,0:0:0:0:
132,144,22736,1,8,0:0:0:0:
248,188,22908,1,8,0:0:0:0:
124,68,23081,1,8,0:0:0:0:
248,188,23253,6,0,P|296:192|372:132,1,127.500004863739,0|0,0:0|0:0,0:0:0:0:
228,112,23771,2,0,P|180:152|184:232,1,127.500004863739,0|0,0:0|0:0,0:0:0:0:
224,280,24288,5,8,0:0:0:0:
296,236,24460,2,8,P|336:232|368:248,1,63.7500024318696,0|0,0:0|0:0,0:0:0:0:
249,336,24805,2,0,P|225:296|225:260,1,63.7500024318696,0|0,0:0|0:0,0:0:0:0:
228,200,25150,2,0,P|252:172|296:156,1,63.7500024318696,0|0,0:0|0:0,0:0:0:0:
160,160,25495,6,8,P|148:188|152:228,2,63.7500024318696
220,108,26012,2,0,P|260:128|276:152,1,63.7500024318696,0|0,0:0|0:0,0:0:0:0:
200,248,26357,2,0,P|196:208|216:172,1,63.7500024318696,0|0,0:0|0:0,0:0:0:0:
272,280,26702,2,0,P|248:312|208:324,1,63.7500024318696,0|0,0:0|0:0,0:0:0:0:
168,192,27047,5,8,0:0:0:0:
308,176,27220,1,8,0:0:0:0:
160,272,27392,1,8,0:0:0:0:
304,172,27564,2,0,P|324:188|300:176,1,63.7500024318696,0|0,0:0|0:0,0:0:0:0:
228,152,27909,2,0,L|168:128,1,63.7500024318696,0|0,0:0|0:0,0:0:0:0:
92,140,28254,6,8,P|80:180|88:212,2,63.7500024318696
160,180,28771,2,0,P|176:236|164:308,1,127.500004863739,0|0,0:0|0:0,0:0:0:0:
224,256,29288,2,0,P|244:208|308:164,1,127.500004863739,0|0,0:0|0:0,0:0:0:0:
380,180,29805,5,8,0:0:0:0:
328,236,29978,1,8,0:0:0:0:
264,192,30150,1,8,0:0:0:0:
224,124,30323,2,0,P|192:128|160:156,1,63.7500024318696,0|0,0:0|0:0,0:0:0:0:
144,220,30667,2,0,P|136:264|120:284,1,63.7500024318696,0|0,0:0|0:0,0:0:0:0:
216,264,31012,6,8,P|248:252|288:256,2,63.7500024318696
212,180,31529,2,0,B|224:128|224:128|272:64,1,127.500004863739,0|8,0:0|0:0,0:0:0:0:
324,136,32047,5,8,0:0:0:0:
356,48,32219,1,8,0:0:0:0:
372,204,32391,1,8,0:0:0:0:
268,68,32564,1,8,0:0:0:0:
428,144,32736,2,0,P|452:184|448:228,1,63.7500024318696
380,328,33081,6,0,P|368:284|376:200,1,127.500004863739,4|0,0:0|0:0,0:0:0:0:
288,148,33598,1,0,0:0:0:0:
320,236,33771,1,0,0:0:0:0:
236,240,33943,6,0,P|200:220|184:184,1,63.7500024318696,0|0,0:0|0:0,0:0:0:0:
280,108,34288,2,0,P|256:148|256:176,1,63.7500024318696,0|0,0:0|0:0,0:0:0:0:
388,188,34633,2,0,P|348:180|324:156,1,63.7500024318696,0|0,0:0|0:0,0:0:0:0:
388,52,34978,2,0,P|396:92|384:116,1,63.7500024318696,0|0,0:0|0:0,0:0:0:0:
348,180,35323,5,8,0:0:0:0:
280,212,35495,1,8,0:0:0:0:
204,196,35667,1,8,0:0:0:0:
184,120,35840,6,0,L|184:52,1,63.7500024318696,0|0,0:0|0:0,0:0:0:0:
272,44,36185,1,8,0:0:0:0:
248,196,36357,2,0,L|168:196,1,63.7500024318696,0|0,0:0|0:0,0:0:0:0:
276,120,36702,5,8,0:0:0:0:
256,268,36874,2,0,P|236:296|188:316,1,63.7500024318696,0|0,0:0|0:0,0:0:0:0:
324,292,37219,2,0,L|388:292,1,63.7500024318696,0|0,0:0|0:0,0:0:0:0:
464,236,37564,1,8,0:0:0:0:
336,215,37736,2,0,P|316:183|320:143,1,63.7500024318696,0|0,0:0|0:0,0:0:0:0:
384,104,38081,5,8,0:0:0:0:
396,272,38254,2,0,P|360:296|316:292,1,63.7500024318696,0|0,0:0|0:0,0:0:0:0:
336,215,38598,2,8,P|384:191|452:331,1,255.000009727478,0|0,0:0|0:0,0:0:0:0:
276,203,39460,5,8,0:0:0:0:
396,271,39633,1,8,0:0:0:0:
268,207,39805,1,8,0:0:0:0:
404,271,39978,2,0,B|480:272|480:272|432:252,1,127.500004863739,0|0,0:0|0:0,0:0:0:0:
372,200,40495,2,0,L|304:200,1,63.7500024318696,0|0,0:0|0:0,0:0:0:0:
236,324,40840,5,8,0:0:0:0:
356,244,41012,1,8,0:0:0:0:
208,244,41185,1,8,0:0:0:0:
304,332,41357,6,0,L|340:332,9,31.8750012159348,0|0|0|0|0|0|0|0|0|0,0:0|0:0|0:0|0:0|0:0|0:0|0:0|0:0|0:0|0:0,0:0:0:0:
376,332,42219,6,2,L|368:312,6,15.9375006079674
404,300,42564,6,0,P|416:252|408:220,1,63.7500024318696,0|0,0:0|0:0,0:0:0:0:
276,256,42909,2,0,P|320:260|360:244,1,63.7500024318696,0|0,0:0|0:0,0:0:0:0:
228,192,43254,2,0,P|200:228|196:260,1,63.7500024318696,0|0,0:0|0:0,0:0:0:0:
308,296,43598,1,8,0:0:0:0:
200,112,43771,1,4,0:0:0:0:
192,80,44116,6,0,L|280:80,1,85,4|0,0:0|0:0,0:0:0:0:
224,164,44460,2,0,L|124:164,1,85,0|0,0:0|0:0,0:0:0:0:
240,80,44805,5,2,0:0:0:0:
64,188,44978,1,10,0:0:0:0:
232,84,45150,1,2,0:0:0:0:
72,196,45323,2,0,B|72:324|72:324|104:268,1,170,0|0,0:0|0:0,0:0:0:0:
148,232,45840,2,0,B|148:100|148:100|124:144,1,170,0|0,0:0|0:0,0:0:0:0:
184,296,46357,5,2,0:0:0:0:
120,156,46529,1,10,0:0:0:0:
72,328,46702,1,2,0:0:0:0:
212,196,46874,2,0,P|224:144|212:100,1,85,4|0,0:0|0:0,0:0:0:0:
120,148,47219,2,0,P|108:200|120:240,1,85,0|0,0:0|0:0,0:0:0:0:
236,312,47564,5,2,0:0:0:0:
336,144,47736,1,10,0:0:0:0:
212,196,47909,1,2,0:0:0:0:
372,248,48081,2,0,L|456:248,1,85,0|0,0:0|0:0,0:0:0:0:
236,188,48426,1,10,0:0:0:0:
368,284,48598,2,0,B|480:284|480:284|416:264,1,170,0|0,0:0|0:0,0:0:0:0:
256,176,49116,5,2,0:0:0:0:
292,344,49288,1,10,0:0:0:0:
368,204,49460,1,2,0:0:0:0:
144,260,49633,2,0,P|156:316|192:344,1,85,4|0,0:0|0:0,0:0:0:0:
380,204,49978,2,0,P|360:148|336:132,1,85,0|0,0:0|0:0,0:0:0:0:
144,260,50323,5,10,0:0:0:0:
304,200,50495,1,2,0:0:0:0:
48,160,50667,1,10,0:0:0:0:
408,332,50840,1,2,0:0:0:0:
48,256,51012,5,10,0:0:0:0:
380,204,51185,1,2,0:0:0:0:
104,336,51357,2,0,B|52:332|52:332|176:268,1,170,0|0,0:0|0:0,0:0:0:0:
300,252,51874,5,2,0:0:0:0:
152,256,52047,1,10,0:0:0:0:
364,160,52219,1,2,0:0:0:0:
150,266,52391,2,0,L|36:268,1,85,4|0,0:0|0:0,0:0:0:0:
152,184,52736,2,0,L|240:184,1,85,0|0,0:0|0:0,0:0:0:0:
360,224,53081,5,2,0:0:0:0:
168,272,53254,1,10,0:0:0:0:
260,136,53426,2,0,P|308:124|360:148,1,85,4|0,0:0|0:0,0:0:0:0:
208,196,53771,2,0,P|184:160|188:104,1,85,4|0,0:0|0:0,0:0:0:0:
256,60,54116,1,2,0:0:0:0:
320,196,54288,2,0,P|320:252|296:284,1,85,4|0,0:0|0:0,0:0:0:0:
256,80,54633,5,2,0:0:0:0:
244,224,54805,1,10,0:0:0:0:
352,80,54978,1,2,0:0:0:0:
196,160,55150,2,0,P|168:200|168:248,1,85,4|0,0:0|0:0,0:0:0:0:
208,300,55495,2,0,P|232:276|240:220,1,85,0|0,0:0|0:0,0:0:0:0:
192,80,55840,5,10,0:0:0:0:
364,320,56012,1,2,0:0:0:0:
172,84,56185,1,10,0:0:0:0:
372,332,56357,1,2,0:0:0:0:
88,164,56529,5,10,0:0:0:0:
440,232,56702,1,2,0:0:0:0:
80,160,56874,2,0,B|36:152|36:152|128:240,1,170,0|0,0:0|0:0,0:0:0:0:
316,240,57391,5,2,0:0:0:0:
184,140,57564,1,10,0:0:0:0:
308,156,57736,1,2,0:0:0:0:
184,140,57909,2,0,L|96:140,1,85,4|0,0:0|0:0,0:0:0:0:
168,224,58254,2,0,L|264:224,1,85,0|0,0:0|0:0,0:0:0:0:
368,144,58598,5,2,0:0:0:0:
236,268,58771,1,10,0:0:0:0:
264,80,58943,1,2,0:0:0:0:
368,200,59116,2,0,L|368:300,1,85,0|0,0:0|0:0,0:0:0:0:
248,80,59460,1,10,0:0:0:0:
384,160,59633,2,0,B|404:220|404:220|404:332,1,170,0|0,0:0|0:0,0:0:0:0:
280,336,60150,5,2,0:0:0:0:
148,188,60323,1,10,0:0:0:0:
316,216,60495,1,2,0:0:0:0:
200,268,60667,2,0,L|104:268,1,85,4|0,0:0|0:0,0:0:0:0:
148,188,61012,2,0,L|248:188,1,85,0|0,0:0|0:0,0:0:0:0:
248,80,61357,5,10,0:0:0:0:
280,264,61529,1,2,0:0:0:0:
156,112,61702,1,10,0:0:0:0:
360,168,61874,2,0,B|384:252|380:296|380:296|360:276|360:248,1,170,0|0,0:0|0:0,0:0:0:0:
288,220,62391,2,0,B|268:160|260:100|260:100|284:120|288:144,1,170,0|0,0:0|0:0,0:0:0:0:
316,300,62909,5,2,0:0:0:0:
176,192,63081,1,10,0:0:0:0:
360,168,63254,1,2,0:0:0:0:
172,208,63426,2,0,P|124:204|88:172,1,85,4|0,0:0|0:0,0:0:0:0:
176,124,63771,2,0,P|224:140|252:180,1,85,0|0,0:0|0:0,0:0:0:0:
288,240,64116,5,2,0:0:0:0:
288,76,64288,1,10,0:0:0:0:
152,148,64460,2,0,L|152:232,1,85,4|0,0:0|0:0,0:0:0:0:
120,304,64805,2,0,P|84:272|84:204,1,85,4|0,0:0|0:0,0:0:0:0:
164,128,65150,1,2,0:0:0:0:
244,240,65323,2,0,P|236:276|180:308,1,85,4|0,0:0|0:0,0:0:0:0:
136,256,65667,5,2,0:0:0:0:
280,256,65840,1,10,0:0:0:0:
168,164,66012,1,2,0:0:0:0:
336,316,66185,6,0,P|360:268|352:220,1,85,4|0,0:0|0:0,0:0:0:0:
336,164,66529,1,10,0:0:0:0:
272,120,66702,2,0,P|228:124|188:156,1,85,0|0,0:0|0:0,0:0:0:0:
152,216,67047,5,2,0:0:0:0:
260,288,67219,1,10,0:0:0:0:
312,180,67391,2,0,L|280:96,1,85,0|0,0:0|0:0,0:0:0:0:
400,192,67736,2,0,L|368:112,1,85,0|0,0:0|0:0,0:0:0:0:
192,216,68081,5,0,0:0:0:0:
197,240,68167,1,0,0:0:0:0:
210,262,68253,1,0,0:0:0:0:
230,279,68339,1,0,0:0:0:0:
253,289,68425,1,0,0:0:0:0:
278,291,68512,1,0,0:0:0:0:
304,292,68598,6,0,P|360:272|376:244,1,85,0|0,0:0|0:0,0:0:0:0:
400,180,68943,2,0,P|440:120|476:112,1,85,0|0,0:0|0:0,0:0:0:0:
332,264,69288,2,0,P|268:272|228:244,1,85,0|0,0:0|0:0,0:0:0:0:
292,196,69633,5,2,0:0:0:0:
240,308,69805,1,10,0:0:0:0:
204,128,69978,1,2,0:0:0:0:
328,172,70150,6,0,L|432:172,1,85,0|0,0:0|0:0,0:0:0:0:
272,96,70495,2,0,L|384:96,1,85,0|0,0:0|0:0,0:0:0:0:
244,176,70840,5,0,0:0:0:0:
376,112,71012,1,10,0:0:0:0:
336,268,71185,1,2,0:0:0:0:
264,180,71357,2,0,P|256:128|264:92,1,85,2|2,0:0|0:0,0:0:0:0:
204,156,71702,6,0,P|136:156|104:184,1,85,0|0,0:0|0:0,0:0:0:0:
88,232,72047,1,10,0:0:0:0:
128,296,72219,2,0,P|188:320|224:308,1,85,0|0,0:0|0:0,0:0:0:0:
320,200,72564,5,2,0:0:0:0:
368,344,72736,1,10,0:0:0:0:
288,313,72909,2,0,L|288:209,1,85,0|0,0:0|0:0,0:0:0:0:
212,268,73254,2,0,L|212:168,1,85,0|0,0:0|0:0,0:0:0:0:
388,96,73598,5,0,0:0:0:0:
398,119,73684,1,0,0:0:0:0:
413,139,73770,1,0,0:0:0:0:
430,158,73856,1,0,0:0:0:0:
442,180,73942,1,0,0:0:0:0:
447,205,74029,1,0,0:0:0:0:
440,228,74116,6,0,L|392:324,1,85,0|0,0:0|0:0,0:0:0:0:
340,260,74460,2,0,L|244:260,1,85,0|0,0:0|0:0,0:0:0:0:
180,260,74805,2,0,P|200:316|236:336,1,85,0|0,0:0|0:0,0:0:0:0:
360,192,75150,5,2,0:0:0:0:
255,260,75323,1,10,0:0:0:0:
360,336,75495,2,0,L|360:244,1,85,0|0,0:0|0:0,0:0:0:0:
256,128,75840,6,0,L|304:216,1,85,4|0,0:0|0:0,0:0:0:0:
176,128,76185,1,2,0:0:0:0:
276,280,76357,2,0,L|372:280,1,85,4|0,0:0|0:0,0:0:0:0:
208,136,76702,1,2,0:0:0:0:
252,288,76875,1,10,0:0:0:0:
312,112,77047,1,2,0:0:0:0:
208,136,77219,6,0,L|208:48,1,85,4|0,0:0|0:0,0:0:0:0:
132,56,77564,1,10,0:0:0:0:
132,132,77736,2,0,P|140:176|196:212,1,85,0|0,0:0|0:0,0:0:0:0:
240,228,78081,5,2,0:0:0:0:
176,328,78254,1,10,0:0:0:0:
316,264,78426,2,0,L|400:264,1,85,0|0,0:0|0:0,0:0:0:0:
420,188,78771,2,0,L|320:188,1,85,0|0,0:0|0:0,0:0:0:0:
188,120,79116,5,0,0:0:0:0:
163,114,79202,1,0,0:0:0:0:
137,113,79288,1,0,0:0:0:0:
112,117,79374,1,0,0:0:0:0:
89,127,79460,1,0,0:0:0:0:
67,141,79547,1,0,0:0:0:0:
56,164,79633,6,0,P|60:228|88:256,1,85,0|0,0:0|0:0,0:0:0:0:
200,276,79978,2,0,P|200:224|176:192,1,85,0|0,0:0|0:0,0:0:0:0:
288,312,80323,2,0,L|376:312,1,85,0|0,0:0|0:0,0:0:0:0:
408,232,80667,1,2,0:0:0:0:
200,276,80840,1,10,0:0:0:0:
292,208,81012,1,0,0:0:0:0:
224,128,81185,6,0,P|184:108|140:116,1,85,0|0,0:0|0:0,0:0:0:0:
88,160,81529,2,0,P|80:224|96:256,1,85,0|0,0:0|0:0,0:0:0:0:
228,148,81874,5,0,0:0:0:0:
160,292,82047,1,10,0:0:0:0:
124,148,82219,1,2,0:0:0:0:
248,252,82391,2,0,P|264:204|260:164,1,85,0|0,0:0|0:0,0:0:0:0:
124,148,82736,6,0,P|100:196|108:244,1,85,0|0,0:0|0:0,0:0:0:0:
136,296,83081,1,10,0:0:0:0:
204,336,83254,2,0,P|268:328|288:316,1,85,0|0,0:0|0:0,0:0:0:0:
352,188,83598,5,2,0:0:0:0:
368,336,83771,1,10,0:0:0:0:
272,216,83943,2,0,P|216:192|184:200,1,85,0|0,0:0|0:0,0:0:0:0:
352,188,84288,2,0,P|324:140|292:120,1,85,0|0,0:0|0:0,0:0:0:0:
116,148,84633,5,0,0:0:0:0:
98,166,84719,1,0,0:0:0:0:
86,189,84805,1,0,0:0:0:0:
82,214,84891,1,0,0:0:0:0:
85,239,84977,1,0,0:0:0:0:
94,262,85064,1,0,0:0:0:0:
108,284,85150,6,0,P|144:320|200:324,1,85,0|0,0:0|0:0,0:0:0:0:
256,216,85495,2,0,P|200:228|164:272,1,85,0|0,0:0|0:0,0:0:0:0:
328,304,85840,2,0,L|416:304,1,85,0|0,0:0|0:0,0:0:0:0:
236,188,86185,1,2,0:0:0:0:
408,220,86357,1,10,0:0:0:0:
224,304,86529,2,0,L|112:304,1,85,0|0,0:0|0:0,0:0:0:0:
232,152,86874,5,2,0:0:0:0:
88,256,87047,1,0,0:0:0:0:
88,256,87133,1,0,0:0:0:0:
88,256,87219,1,0,0:0:0:0:
144,112,87391,5,2,0:0:0:0:
240,264,87564,1,0,0:0:0:0:
240,264,87650,1,0,0:0:0:0:
240,264,87736,5,0,0:0:0:0:
272,120,87909,1,2,0:0:0:0:
136,264,88081,1,2,0:0:0:0:
340,200,88254,1,4,0:0:0:0:
268,72,99288,6,0,P|244:112|244:192,1,127.500004863739,4|0,0:0|0:0,0:0:0:0:
384,280,99978,2,0,L|384:348,2,63.7500024318696,0|0|0,0:0|0:0|0:0,0:0:0:0:
384,196,100495,2,0,B|384:96|348:96|348:96|360:156|320:176,1,191.250007295609,0|0,0:0|0:0,0:0:0:0:
280,232,101185,6,0,L|276:308,2,63.7500024318696,0|0|0,0:0|0:0|0:0,0:0:0:0:
288,120,101702,2,0,P|336:96|372:100,1,63.7500024318696,0|0,0:0|0:0,0:0:0:0:
248,204,102047,2,0,L|180:208,1,63.7500024318696,2|0,0:0|0:0,0:0:0:0:
216,284,102391,2,0,L|144:288,1,63.7500024318696,2|0,0:0|0:0,0:0:0:0:
136,264,102909,6,0,L|200:220,1,63.7500024318696,2|0,0:0|0:0,0:0:0:0:
124,176,103254,2,0,L|60:140,1,63.7500024318696,2|0,0:0|0:0,0:0:0:0:
132,92,103598,2,0,L|192:56,1,63.7500024318696,2|0,0:0|0:0,0:0:0:0:
188,144,103943,2,0,L|188:216,1,63.7500024318696,2|0,0:0|0:0,0:0:0:0:
172,220,104460,6,0,P|144:192|108:184,1,63.7500024318696,2|0,0:0|0:0,0:0:0:0:
152,304,104805,2,0,L|220:304,1,63.7500024318696,2|0,0:0|0:0,0:0:0:0:
260,232,105150,2,0,L|332:232,1,63.7500024318696,2|0,0:0|0:0,0:0:0:0:
376,152,105495,5,0,0:0:0:0:
404,288,105667,1,0,0:0:0:0:
304,208,105840,1,0,0:0:0:0:
464,216,106012,2,0,P|460:160|448:140,1,63.7500024318696,0|0,0:0|0:0,0:0:0:0:
304,208,106357,2,0,P|300:256|320:288,1,63.7500024318696,0|0,0:0|0:0,0:0:0:0:
408,232,106702,6,0,L|488:232,1,63.7500024318696,0|0,0:0|0:0,0:0:0:0:
304,208,107047,1,0,0:0:0:0:
336,316,107219,2,0,L|412:316,1,63.7500024318696,0|0,0:0|0:0,0:0:0:0:
276,264,107564,2,0,L|216:320,1,63.7500024318696,2|0,0:0|0:0,0:0:0:0:
160,272,107909,2,0,L|92:324,1,63.7500024318696,2|0,0:0|0:0,0:0:0:0:
76,216,108254,5,0,0:0:0:0:
144,100,108426,1,0,0:0:0:0:
168,252,108598,1,0,0:0:0:0:
60,136,108771,2,0,L|60:60,1,63.7500024318696,2|0,0:0|0:0,0:0:0:0:
124,196,109116,1,0,0:0:0:0:
188,56,109288,1,0,0:0:0:0:
216,160,109460,2,0,P|240:192|324:180,1,127.500004863739,2|0,0:0|0:0,0:0:0:0:
188,56,109978,2,0,P|152:44|116:52,1,63.7500024318696,0|0,0:0|0:0,0:0:0:0:
96,148,110323,6,0,L|168:180,1,63.7500024318696,2|0,0:0|0:0,0:0:0:0:
112,244,110667,2,0,L|184:276,1,63.7500024318696,2|0,0:0|0:0,0:0:0:0:
248,256,111012,6,0,L|308:236,2,63.7500024318696,0|0|0,0:0|0:0|0:0,0:0:0:0:
288,164,111529,2,0,B|328:148|328:148|336:96|376:156|400:88,1,127.500004863739,0|0,0:0|0:0,0:0:0:0:
412,188,112047,2,0,L|424:260,1,63.7500024318696,0|0,0:0|0:0,0:0:0:0:
340,232,112391,2,0,L|312:296,1,63.7500024318696,0|0,0:0|0:0,0:0:0:0:
320,160,112736,1,0,0:0:0:0:
388,316,112909,1,0,0:0:0:0:
412,188,113081,6,2,L|412:116,2,63.7500024318696,0|0|0,0:0|0:0|0:0,0:0:0:0:
336,128,113598,1,0,0:0:0:0:
412,272,113771,2,0,L|480:272,1,63.7500024318696,2|0,0:0|0:0,0:0:0:0:
424,180,114116,1,0,0:0:0:0:
312,308,114288,2,0,B|232:308|232:308|272:280|308:268|352:276,1,191.250007295609,2|0,0:0|0:0,0:0:0:0:
412,272,114978,2,0,L|436:340,1,63.7500024318696,0|0,0:0|0:0,0:0:0:0:
332,124,115495,6,0,L|308:56,1,63.7500024318696,0|0,0:0|0:0,0:0:0:0:
248,120,115840,2,0,B|276:196|276:196|212:156,1,127.500004863739,0|0,0:0|0:0,0:0:0:0:
172,132,116357,2,0,P|116:116|108:228,1,191.250007295609,0|0,0:0|0:0,0:0:0:0:
156,264,117047,2,0,B|188:288|232:272,1,63.7500024318696,0|0,0:0|0:0,0:0:0:0:
196,200,117391,2,0,P|200:168|180:132,1,63.7500024318696,0|0,0:0|0:0,0:0:0:0:
268,220,117736,2,0,P|292:248|320:256,1,63.7500024318696,0|0,0:0|0:0,0:0:0:0:
320,276,118254,6,0,P|316:340|324:360,1,63.7500024318696,0|0,0:0|0:0,0:0:0:0:
244,288,118598,2,0,P|228:252|180:232,1,63.7500024318696,0|0,0:0|0:0,0:0:0:0:
52,196,118943,1,0,0:0:0:0:
120,318,119116,2,0,L|248:286,1,127.500004863739,0|0,0:0|0:0,0:0:0:0:
256,192,119805,12,0,121357,0:0:0:0:
400,112,126874,6,0,L|392:184,1,63.7500024318696,0|0,0:0|0:0,0:0:0:0:
312,104,127219,1,0,0:0:0:0:
388,256,127391,2,0,L|468:256,1,63.7500024318696,0|0,0:0|0:0,0:0:0:0:
336,328,127736,2,0,L|268:328,1,63.7500024318696,0|0,0:0|0:0,0:0:0:0:
188,328,128081,2,0,B|184:280|232:248|260:248|260:248|352:248,1,191.250007295609,0|0,0:0|0:0,0:0:0:0:
336,328,128771,6,0,L|256:328,1,63.7500024318696,0|0,0:0|0:0,0:0:0:0:
164,228,129116,1,0,0:0:0:0:
200,328,129288,1,0,0:0:0:0:
76,192,129460,1,0,0:0:0:0:
268,208,129633,6,0,L|308:188,9,31.8750012159348,0|0|0|0|0|0|0|0|0|0,0:0|0:0|0:0|0:0|0:0|0:0|0:0|0:0|0:0|0:0,0:0:0:0:
336,180,130495,6,2,L|320:164,6,15.9375006079674,2|2|2|2|10|10|10,0:0|0:0|0:0|0:0|0:0|0:0|0:0,0:0:0:0:
356,168,130840,6,0,P|364:136|352:96,1,63.7500024318696,8|0,0:0|0:0,0:0:0:0:
244,164,131185,2,0,P|256:212|284:232,1,63.7500024318696
160,168,131529,2,0,L|68:168,1,85,0|0,0:0|0:0,0:0:0:0:
120,296,132047,1,4,0:0:0:0:
140,316,132391,6,0,B|296:316|296:316|228:288,1,204,4|0,0:0|0:0,0:0:0:0:
120,224,133081,1,2,0:0:0:0:
272,132,133254,1,2,0:0:0:0:
116,212,133426,1,2,0:0:0:0:
260,128,133598,6,0,P|320:108|352:116,1,68,0|0,0:0|0:0,0:0:0:0:
292,248,133943,2,0,P|304:196|312:184,1,68,0|0,0:0|0:0,0:0:0:0:
428,272,134288,2,0,P|392:260|368:232,1,68,0|0,0:0|0:0,0:0:0:0:
428,136,134633,2,0,L|428:276,1,136,0|0,0:0|0:0,0:0:0:0:
356,324,135150,6,0,B|332:352|332:352|332:172,1,204,4|0,0:0|0:0,0:0:0:0:
384,92,135840,1,2,0:0:0:0:
292,208,136012,1,2,0:0:0:0:
272,48,136184,1,2,0:0:0:0:
408,184,136357,2,0,L|408:264,1,68,0|0,0:0|0:0,0:0:0:0:
332,120,136702,2,0,L|332:208,1,68,0|0,0:0|0:0,0:0:0:0:
256,56,137047,2,0,B|256:188|256:188|200:248,1,204,0|0,0:0|0:0,0:0:0:0:
56,316,137909,6,0,B|204:320|204:320|140:288,1,204,4|0,0:0|0:0,0:0:0:0:
100,232,138598,1,2,0:0:0:0:
276,328,138771,1,2,0:0:0:0:
120,232,138943,1,2,0:0:0:0:
284,324,139116,6,0,P|328:324|364:308,1,68,0|0,0:0|0:0,0:0:0:0:
128,228,139460,2,0,P|92:240|60:272,1,68,0|0,0:0|0:0,0:0:0:0:
264,232,139805,2,0,P|272:192|260:156,1,68,0|0,0:0|0:0,0:0:0:0:
80,144,140150,2,0,P|108:176|216:192,1,136,0|0,0:0|0:0,0:0:0:0:
340,56,140667,6,0,B|348:128|348:128|336:204|336:204|344:276|344:276,1,204,4|0,0:0|0:0,0:0:0:0:
400,324,141357,2,2,L|472:324,1,68,0|0,0:0|0:0,0:0:0:0:
280,160,141702,1,2,0:0:0:0:
348,272,141874,2,0,L|424:272,1,68,0|0,0:0|0:0,0:0:0:0:
248,328,142219,2,0,L|176:328,1,68,0|0,0:0|0:0,0:0:0:0:
196,108,142564,5,10,0:0:0:0:
288,256,142736,2,0,L|304:224,1,34,0|0,0:0|0:0,0:0:0:0:
288,76,142909,2,0,L|304:128,1,34,0|0,0:0|0:0,0:0:0:0:
396,280,143081,2,0,L|380:240,1,34,0|0,0:0|0:0,0:0:0:0:
400,36,143254,2,0,L|384:80,1,34,0|0,0:0|0:0,0:0:0:0:
288,256,143426,6,0,P|256:216|292:76,1,204,4|0,0:0|0:0,0:0:0:0:
344,168,144116,1,2,0:0:0:0:
200,296,144288,5,2,0:0:0:0:
172,152,144460,1,2,0:0:0:0:
216,292,144633,2,0,P|252:332|268:336,1,68,0|0,0:0|0:0,0:0:0:0:
231,179,144978,2,0,P|195:155|151:155,1,68,0|0,0:0|0:0,0:0:0:0:
124,245,145323,1,2,0:0:0:0:
224,104,145495,1,10,0:0:0:0:
72,132,145667,2,0,P|72:184|132:248,1,136,0|0,0:0|0:0,0:0:0:0:
212,156,146185,6,0,B|184:176|144:164|144:164|200:200|288:184,1,204,4|0,0:0|0:0,0:0:0:0:
348,172,146874,2,2,L|428:156,1,68,0|0,0:0|0:0,0:0:0:0:
224,236,147219,5,2,0:0:0:0:
340,124,147391,1,2,0:0:0:0:
196,148,147564,2,0,P|152:176|136:208,1,68,0|0,0:0|0:0,0:0:0:0:
312,184,147909,5,2,0:0:0:0:
208,76,148081,1,2,0:0:0:0:
212,224,148254,2,0,P|240:268|284:280,1,68,0|0,0:0|0:0,0:0:0:0:
288,204,148598,2,0,P|260:160|228:148,1,68,0|0,0:0|0:0,0:0:0:0:
264,304,148943,6,0,B|344:344|360:300|260:256|292:184|380:240,1,204,4|0,0:0|0:0,0:0:0:0:
448,256,149633,2,2,P|436:300|400:336,1,68,0|0,0:0|0:0,0:0:0:0:
308,328,149978,1,2,0:0:0:0:
264,208,150150,2,0,L|248:132,1,68,0|0,0:0|0:0,0:0:0:0:
196,252,150495,2,0,L|180:172,1,68,0|0,0:0|0:0,0:0:0:0:
120,264,150840,5,2,0:0:0:0:
156,108,151012,1,10,0:0:0:0:
40,204,151185,2,0,B|40:292|40:292|72:228,1,136,0|0,0:0|0:0,0:0:0:0:
168,96,151702,6,0,B|184:64|184:64|216:240,1,204,4|0,0:0|0:0,0:0:0:0:
232,312,152391,1,2,0:0:0:0:
292,176,152564,1,2,0:0:0:0:
144,224,152736,1,2,0:0:0:0:
304,160,152909,6,0,P|336:148|384:152,1,68,0|0,0:0|0:0,0:0:0:0:
340,232,153254,2,0,L|268:244,1,68,0|0,0:0|0:0,0:0:0:0:
344,308,153598,1,10,0:0:0:0:
180,280,153771,2,0,B|160:232|192:180|192:180|188:148|188:148,1,136,0|0,0:0|0:0,0:0:0:0:
384,60,154460,6,0,B|392:124|352:172|336:152|336:152|336:216|304:232,1,191.250007295609,0|0,0:0|0:0,0:0:0:0:
64,108,155323,2,0,P|64:60|76:32,1,63.7500024318696,0|0,0:0|0:0,0:0:0:0:
128,188,155667,2,0,P|144:144|140:120,1,63.7500024318696,0|0,0:0|0:0,0:0:0:0:
60,264,156012,2,0,P|48:208|52:184,1,63.7500024318696,0|0,0:0|0:0,0:0:0:0:
124,332,156357,2,0,P|140:300|136:256,1,63.7500024318696,0|0,0:0|0:0,0:0:0:0:
128,188,156702,5,8,0:0:0:0:
168,340,156874,1,8,0:0:0:0:
48,202,157047,1,8,0:0:0:0:
204,272,157219,2,0,P|256:264|284:240,1,63.7500024318696,0|0,0:0|0:0,0:0:0:0:
332,184,157564,5,8,0:0:0:0:
336,280,157736,2,0,P|320:312|288:332,1,63.7500024318696,0|0,0:0|0:0,0:0:0:0:
220,324,158081,1,8,0:0:0:0:
216,248,158254,1,8,0:0:0:0:
284,216,158426,2,0,P|276:176|284:140,1,63.7500024318696,0|0,0:0|0:0,0:0:0:0:
336,104,158771,2,0,P|368:96|412:108,1,63.7500024318696,0|0,0:0|0:0,0:0:0:0:
452,156,159116,2,0,P|448:216|464:244,1,63.7500024318696,0|0,0:0|0:0,0:0:0:0:
368,172,159460,5,8,0:0:0:0:
400,304,159633,2,0,P|480:304|480:304,1,63.7500024318696,0|0,0:0|0:0,0:0:0:0:
384,228,159978,2,0,B|344:228|344:228|304:192|264:232|264:232|216:192|176:232|176:232|132:232|132:232,1,255.000009727478,0|0,0:0|0:0,0:0:0:0:
100,288,160840,6,8,P|104:328|116:348,2,63.7500024318696,0|0|0,0:0|0:0|0:0,0:0:0:0:
56,224,161357,2,0,B|56:132|56:132|84:176,1,127.500004863739,0|0,0:0|0:0,0:0:0:0:
132,212,161874,2,0,L|132:284,1,63.7500024318696,0|0,0:0|0:0,0:0:0:0:
220,336,162219,5,8,0:0:0:0:
280,200,162391,1,8,0:0:0:0:
356,296,162564,1,8,0:0:0:0:
428,208,162736,6,0,L|428:164,9,31.8750012159348,0|0|0|0|0|0|0|0|0|0,0:0|0:0|0:0|0:0|0:0|0:0|0:0|0:0|0:0|0:0,0:0:0:0:
468,148,163598,6,2,L|468:168,6,15.9375006079674,0|0|0|0|0|0|0,0:0|0:0|0:0|0:0|0:0|0:0|0:0,0:0:0:0:
444,184,163943,6,0,L|444:264,1,63.7500024318696,0|0,0:0|0:0,0:0:0:0:
396,308,164288,2,0,P|364:320|320:304,1,63.7500024318696,0|0,0:0|0:0,0:0:0:0:
292,252,164633,2,0,L|292:176,1,63.7500024318696,0|0,0:0|0:0,0:0:0:0:
232,304,164978,1,8,0:0:0:0:
336,120,165150,1,4,0:0:0:0:
344,152,165495,6,0,L|280:220,1,85,4|0,0:0|0:0,0:0:0:0:
228,160,165840,2,0,L|296:88,1,85,0|0,0:0|0:0,0:0:0:0:
404,84,166185,5,10,0:0:0:0:
184,320,166357,1,2,0:0:0:0:
288,80,166529,5,10,0:0:0:0:
320,320,166702,1,2,0:0:0:0:
176,84,166874,5,10,0:0:0:0:
460,324,167047,1,2,0:0:0:0:
180,168,167219,6,0,B|84:168|84:168|156:200,1,170,0|0,0:0|0:0,0:0:0:0:
360,312,167736,5,2,0:0:0:0:
156,240,167909,1,10,0:0:0:0:
372,304,168081,1,2,0:0:0:0:
152,248,168254,6,0,P|112:264|80:320,1,85,4|0,0:0|0:0,0:0:0:0:
232,296,168598,2,0,L|232:208,1,85,0|0,0:0|0:0,0:0:0:0:
316,176,168943,5,2,0:0:0:0:
280,292,169116,1,10,0:0:0:0:
252,120,169288,1,2,0:0:0:0:
392,224,169460,2,0,L|392:316,1,85,0|0,0:0|0:0,0:0:0:0:
272,112,169805,1,10,0:0:0:0:
420,208,169978,2,0,B|416:316|416:316|408:264|384:248,1,170,0|0,0:0|0:0,0:0:0:0:
164,156,170495,5,2,0:0:0:0:
316,200,170667,1,10,0:0:0:0:
280,316,170840,1,2,0:0:0:0:
268,144,171012,2,0,P|308:124|356:136,1,85,4|0,0:0|0:0,0:0:0:0:
228,216,171357,2,0,P|188:160|192:116,1,85,0|0,0:0|0:0,0:0:0:0:
340,72,171702,5,10,0:0:0:0:
440,328,171874,1,2,0:0:0:0:
220,76,172047,5,10,0:0:0:0:
320,332,172219,1,2,0:0:0:0:
100,76,172391,5,10,0:0:0:0:
200,332,172563,1,2,0:0:0:0:
44,144,172736,6,0,B|44:64|44:64|84:156,1,170,0|0,0:0|0:0,0:0:0:0:
144,224,173254,5,2,0:0:0:0:
192,60,173426,1,10,0:0:0:0:
128,228,173598,1,2,0:0:0:0:
272,120,173771,2,0,P|336:96|368:112,1,85,4|0,0:0|0:0,0:0:0:0:
316,192,174116,2,0,P|260:204|220:184,1,85,0|0,0:0|0:0,0:0:0:0:
348,99,174460,5,10,0:0:0:0:
224,272,174633,1,2,0:0:0:0:
272,128,174805,1,10,0:0:0:0:
292,320,174978,1,0,0:0:0:0:
192,128,175150,2,0,P|208:80|248:52,1,85,4|0,0:0|0:0,0:0:0:0:
280,236,175495,1,2,0:0:0:0:
140,184,175667,2,0,P|116:128|136:76,1,85,4|0,0:0|0:0,0:0:0:0:
272,128,176012,5,2,0:0:0:0:
180,260,176185,1,10,0:0:0:0:
192,68,176357,1,2,0:0:0:0:
256,244,176529,6,0,P|248:296|208:332,1,85,4|0,0:0|0:0,0:0:0:0:
180,260,176874,2,0,P|192:200|236:172,1,85,0|0,0:0|0:0,0:0:0:0:
304,132,177219,5,10,0:0:0:0:
340,320,177391,1,2,0:0:0:0:
120,160,177564,1,10,0:0:0:0:
464,172,177736,1,2,0:0:0:0:
176,284,177909,2,0,L|88:284,1,85,10|0,0:0|0:0,0:0:0:0:
208,208,178254,2,0,P|248:248|220:352,1,170,0|0,0:0|0:0,0:0:0:0:
48,180,178771,5,2,0:0:0:0:
180,284,178943,1,10,0:0:0:0:
48,200,179116,1,2,0:0:0:0:
188,288,179288,6,0,L|292:288,1,85,4|0,0:0|0:0,0:0:0:0:
360,212,179633,2,0,L|268:212,1,85,0|0,0:0|0:0,0:0:0:0:
168,176,179978,5,2,0:0:0:0:
336,128,180150,1,10,0:0:0:0:
120,96,180323,1,2,0:0:0:0:
264,212,180495,2,0,L|380:212,1,85,0|0,0:0|0:0,0:0:0:0:
412,148,180840,1,10,0:0:0:0:
276,292,181012,2,0,B|156:292|156:292|236:264,1,170,0|0,0:0|0:0,0:0:0:0:
264,204,181529,5,2,0:0:0:0:
88,200,181702,1,10,0:0:0:0:
272,216,181874,1,2,0:0:0:0:
80,188,182047,2,0,P|56:144|68:96,1,85,4|0,0:0|0:0,0:0:0:0:
160,208,182391,2,0,L|160:296,1,85,0|0,0:0|0:0,0:0:0:0:
160,72,182736,5,10,0:0:0:0:
312,336,182909,1,2,0:0:0:0:
312,72,183081,5,10,0:0:0:0:
160,336,183254,1,2,0:0:0:0:
160,72,183426,5,10,0:0:0:0:
300,332,183598,1,2,0:0:0:0:
160,200,183771,6,0,B|160:72|160:72|200:144,1,170,0|0,0:0|0:0,0:0:0:0:
292,308,184288,5,2,0:0:0:0:
88,236,184460,1,10,0:0:0:0:
304,180,184633,1,2,0:0:0:0:
156,312,184805,2,0,L|68:312,1,85,4|0,0:0|0:0,0:0:0:0:
88,236,185150,2,0,L|184:236,1,85,0|0,0:0|0:0,0:0:0:0:
248,192,185495,5,2,0:0:0:0:
172,312,185667,1,10,0:0:0:0:
88,192,185840,2,0,L|88:104,1,85,4|0,0:0|0:0,0:0:0:0:
168,228,186185,2,0,L|168:132,1,85,4|0,0:0|0:0,0:0:0:0:
172,312,186529,1,0,0:0:0:0:
248,192,186702,2,0,L|248:104,1,85,4|0,0:0|0:0,0:0:0:0:
104,136,187047,5,2,0:0:0:0:
168,228,187219,1,10,0:0:0:0:
148,52,187391,1,2,0:0:0:0:
40,216,187564,6,0,P|48:264|76:300,1,85,4|0,0:0|0:0,0:0:0:0:
132,336,187909,1,10,0:0:0:0:
208,336,188081,2,0,P|248:320|272:284,1,85,0|0,0:0|0:0,0:0:0:0:
176,136,188426,5,2,0:0:0:0:
200,256,188598,1,10,0:0:0:0:
320,280,188771,2,0,P|368:252|380:220,1,85,0|0,0:0|0:0,0:0:0:0:
304,204,189116,2,0,P|256:176|208:184,1,85,0|0,0:0|0:0,0:0:0:0:
200,320,189460,5,0,0:0:0:0:
232,311,189546,1,0,0:0:0:0:
266,316,189632,1,0,0:0:0:0:
299,323,189718,1,0,0:0:0:0:
333,323,189804,1,0,0:0:0:0:
365,313,189891,1,0,0:0:0:0:
388,296,189978,6,0,P|424:240|416:192,1,85,0|0,0:0|0:0,0:0:0:0:
312,152,190323,2,0,P|324:200|352:232,1,85,0|0,0:0|0:0,0:0:0:0:
236,136,190667,2,0,P|188:120|144:132,1,85,0|0,0:0|0:0,0:0:0:0:
88,168,191012,2,2,P|80:216|96:268,2,85
124,100,191529,6,0,P|168:68|212:68,1,85,0|0,0:0|0:0,0:0:0:0:
192,148,191874,2,2,P|252:156|276:144,2,85
116,112,192391,5,2,0:0:0:0:
216,228,192564,1,10,0:0:0:0:
232,80,192736,1,2,0:0:0:0:
132,256,192909,1,10,0:0:0:0:
284,164,193081,6,0,P|336:152|388:180,1,85,0|0,0:0|0:0,0:0:0:0:
420,216,193426,1,10,0:0:0:0:
372,280,193598,2,0,P|328:288|272:264,1,85,0|0,0:0|0:0,0:0:0:0:
220,224,193943,5,2,0:0:0:0:
236,344,194116,1,10,0:0:0:0:
144,248,194288,2,0,P|144:200|172:160,1,85,0|0,0:0|0:0,0:0:0:0:
80,152,194633,2,0,P|64:204|68:260,1,85,0|0,0:0|0:0,0:0:0:0:
168,300,194978,5,0,0:0:0:0:
195,280,195064,1,0,0:0:0:0:
213,251,195150,1,0,0:0:0:0:
228,221,195236,1,0,0:0:0:0:
247,193,195322,1,0,0:0:0:0:
276,176,195409,1,0,0:0:0:0:
312,180,195495,6,0,P|360:220|368:256,1,85,0|0,0:0|0:0,0:0:0:0:
400,136,195840,2,0,P|420:96|464:76,1,85,0|0,0:0|0:0,0:0:0:0:
428,216,196185,2,0,L|324:216,1,85,0|0,0:0|0:0,0:0:0:0:
272,256,196529,5,2,0:0:0:0:
340,132,196702,1,10,0:0:0:0:
204,216,196874,2,0,P|196:284|216:312,1,85,0|0,0:0|0:0,0:0:0:0:
272,332,197219,2,0,P|316:316|344:268,1,85,4|0,0:0|0:0,0:0:0:0:
312,148,197564,1,2,0:0:0:0:
404,212,197736,2,0,P|452:216|500:184,1,85,4|0,0:0|0:0,0:0:0:0:
328,124,198081,5,2,0:0:0:0:
333,281,198254,1,10,0:0:0:0:
436,136,198426,1,2,0:0:0:0:
272,228,198598,2,0,P|252:280|263:323,1,85,4|0,0:0|0:0,0:0:0:0:
248,156,198943,1,10,0:0:0:0:
332,280,199116,2,0,P|376:300|432:280,1,85,0|0,0:0|0:0,0:0:0:0:
432,112,199460,5,2,0:0:0:0:
384,220,199633,1,10,0:0:0:0:
340,108,199805,2,0,P|312:76|268:64,1,85,0|0,0:0|0:0,0:0:0:0:
184,164,200150,2,0,P|240:140|268:144,1,85,0|0,0:0|0:0,0:0:0:0:
336,256,200495,5,0,0:0:0:0:
305,267,200581,1,0,0:0:0:0:
280,291,200667,1,0,0:0:0:0:
256,315,200753,1,0,0:0:0:0:
226,330,200839,1,0,0:0:0:0:
192,331,200926,1,0,0:0:0:0:
160,316,201012,6,0,P|132:268|140:232,1,85,0|0,0:0|0:0,0:0:0:0:
172,172,201357,2,0,P|228:152|264:160,1,85,0|0,0:0|0:0,0:0:0:0:
308,208,201702,2,0,P|308:272|284:308,1,85,0|0,0:0|0:0,0:0:0:0:
144,208,202047,5,2,0:0:0:0:
232,300,202219,1,10,0:0:0:0:
168,124,202391,1,2,0:0:0:0:
236,296,202564,2,0,B|280:320|280:320|264:280,1,85,0|0,0:0|0:0,0:0:0:0:
144,208,202909,2,0,B|100:184|100:184|124:240,1,85,0|0,0:0|0:0,0:0:0:0:
236,296,203254,5,2,0:0:0:0:
120,108,203426,1,10,0:0:0:0:
276,208,203598,1,2,0:0:0:0:
60,168,203771,1,10,0:0:0:0:
324,128,203943,1,2,0:0:0:0:
128,216,204116,6,0,P|84:252|76:300,1,85,0|0,0:0|0:0,0:0:0:0:
112,344,204460,1,10,0:0:0:0:
188,352,204633,2,0,P|224:312|228:276,1,85,0|0,0:0|0:0,0:0:0:0:
204,208,204978,2,0,L|116:208,1,85,2|10,0:0|0:0,0:0:0:0:
156,132,205323,2,0,L|244:132,1,85,0|0,0:0|0:0,0:0:0:0:
204,208,205667,2,0,P|148:228|128:272,1,85,0|0,0:0|0:0,0:0:0:0:
264,308,206012,5,0,0:0:0:0:
290,286,206098,1,0,0:0:0:0:
312,260,206184,1,0,0:0:0:0:
328,230,206270,1,0,0:0:0:0:
337,198,206356,1,0,0:0:0:0:
340,164,206443,1,0,0:0:0:0:
336,132,206529,6,0,P|312:88|272:72,1,85,0|0,0:0|0:0,0:0:0:0:
228,128,206874,2,0,L|228:224,1,85,0|0,0:0|0:0,0:0:0:0:
152,80,207219,2,0,L|152:176,1,85,0|0,0:0|0:0,0:0:0:0:
188,244,207564,1,2,0:0:0:0:
112,60,207736,1,10,0:0:0:0:
224,136,207909,2,0,L|224:220,1,85,0|0,0:0|0:0,0:0:0:0:
132,140,208254,5,2,0:0:0:0:
304,264,208426,1,0,0:0:0:0:
304,264,208512,1,0,0:0:0:0:
304,264,208598,1,0,0:0:0:0:
224,80,208771,5,2,0:0:0:0:
184,288,208943,1,0,0:0:0:0:
184,288,209029,1,0,0:0:0:0:
184,288,209116,5,2,0:0:0:0:
316,132,209288,1,2,0:0:0:0:
120,216,209460,1,2,0:0:0:0:
224,80,209633,1,4,0:0:0:0:
