osu file format v14

[General]
AudioFilename: audio.mp3
AudioLeadIn: 0
PreviewTime: 165493
Countdown: 0
SampleSet: Soft
StackLeniency: 0.7
Mode: 0
LetterboxInBreaks: 0
WidescreenStoryboard: 1

[Editor]
DistanceSpacing: 1
BeatDivisor: 4
GridSize: 4
TimelineZoom: 2.5

[Metadata]
Title:Taking Over (feat. Miyoki)
TitleUnicode:Taking Over (feat. Miyoki)
Artist:Rob Gasser
ArtistUnicode:Rob Gasser
Creator:Evgerable
Version:Extra
Source:
Tags:drum bass dnb fullscreen jumps full size
BeatmapID:1250718
BeatmapSetID:590956

[Difficulty]
HPDrainRate:6
CircleSize:3.3
OverallDifficulty:8
ApproachRate:9
SliderMultiplier:1.6
SliderTickRate:1

[Events]
//Background and Video events
0,0,"BG.jpg",0,0
//Break Periods
2,88454,98088
2,121557,125674
//Storyboard Layer 0 (Background)
//Storyboard Layer 1 (Fail)
//Storyboard Layer 2 (Pass)
//Storyboard Layer 3 (Foreground)
//Storyboard Sound Samples

[TimingPoints]
323,344.827586206897,4,2,1,100,1,0
22045,-133.333333333333,4,2,3,65,0,0
22736,-133.333333333333,4,2,1,65,0,0
33081,-133.333333333333,4,2,3,65,0,0
33598,-133.333333333333,4,2,1,65,0,0
44116,-100,4,2,2,100,0,1
66185,-100,4,2,2,90,0,0
88254,-100,4,2,3,90,0,0
99288,-133.333333333333,4,2,3,65,0,0
99978,-133.333333333333,4,2,2,65,0,0
130667,-133.333333333333,4,2,1,65,0,0
131529,-200,4,2,1,85,0,0
132047,-200,4,2,1,85,0,0
132391,-125,4,2,3,85,0,0
133081,-125,4,2,2,85,0,0
135150,-125,4,2,3,85,0,0
135840,-125,4,2,2,85,0,0
137909,-125,4,2,3,85,0,0
138598,-125,4,2,2,85,0,0
140667,-125,4,2,3,85,0,0
141357,-125,4,2,2,85,0,0
143426,-125,4,2,3,85,0,0
144116,-125,4,2,2,85,0,0
146185,-125,4,2,3,85,0,0
146874,-125,4,2,2,85,0,0
148943,-125,4,2,3,85,0,0
149633,-125,4,2,2,85,0,0
151702,-125,4,2,3,85,0,0
152391,-125,4,2,2,85,0,0
154460,-133.333333333333,4,2,1,65,0,0
165495,-100,4,2,2,100,0,1
187564,-100,4,2,2,90,0,0
209633,-100,4,2,3,90,0,0

[Colours]
Combo1 : 240,211,11
Combo2 : 164,82,0
Combo3 : 223,112,0
Combo4 : 145,0,0
Combo5 : 100,49,49
Combo6 : 193,132,132

[HitObjects]
372,300,22047,6,0,P|404:252|400:180,1,120.000004577637,4|0,0:0|0:0,0:0:0:0:
140,92,22736,1,8,0:0:0:0:
184,164,22909,1,8,0:0:0:0:
200,40,23081,1,8,0:0:0:0:
76,148,23254,2,0,P|88:180|120:200,1,60.0000022888184,0|0,0:0|0:0,0:0:0:0:
224,136,23598,2,0,P|188:164|180:188,1,60.0000022888184,0|0,0:0|0:0,0:0:0:0:
192,256,23943,5,0,0:0:0:0:
272,280,24116,2,0,P|324:272|340:256,1,60.0000022888184
364,192,24460,2,0,P|324:168|284:172,1,60.0000022888184
277,241,24805,6,0,P|309:265|345:265,1,60.0000022888184
264,160,25150,2,0,P|220:176|204:212,1,60.0000022888184
144,228,25495,6,8,P|104:204|92:168,2,60.0000022888184
224,232,26012,2,0,L|296:232,1,60.0000022888184
244,156,26357,2,0,L|176:156,1,60.0000022888184,0|0,0:0|0:0,0:0:0:0:
120,200,26702,2,0,P|124:252|232:296,1,180.000006866455,0|0,0:0|0:0,0:0:0:0:
200,220,27391,2,8,L|200:148,1,60.0000022888184
336,80,27909,1,8,0:0:0:0:
368,232,28254,6,8,P|396:252|412:284,2,60.0000022888184
332,304,28771,2,0,P|268:296|220:232,1,120.000004577637,0|0,0:0|0:0,0:0:0:0:
256,184,29288,2,0,P|188:188|152:236,1,120.000004577637,0|0,0:0|0:0,0:0:0:0:
176,300,29805,5,8,0:0:0:0:
244,336,29978,1,8,0:0:0:0:
320,312,30150,1,8,0:0:0:0:
380,260,30323,2,0,P|396:228|396:200,1,60.0000022888184,0|0,0:0|0:0,0:0:0:0:
316,208,30667,2,0,P|288:180|280:148,1,60.0000022888184,0|0,0:0|0:0,0:0:0:0:
228,104,31012,6,0,P|180:128|164:152,1,60.0000022888184,0|0,0:0|0:0,0:0:0:0:
132,196,31357,1,0,0:0:0:0:
104,268,31529,2,0,P|144:272|172:260,1,60.0000022888184,0|0,0:0|0:0,0:0:0:0:
232,208,31874,5,8,0:0:0:0:
104,160,32047,1,8,0:0:0:0:
244,208,32219,1,8,0:0:0:0:
100,156,32391,2,0,P|88:120|96:76,2,60.0000022888184,0|0|0,0:0|0:0|0:0,0:0:0:0:
232,296,33081,6,0,B|392:336|392:176|340:164,1,240.000009155274,4|0,0:0|0:0,0:0:0:0:
288,220,33943,6,0,P|272:164|276:148,1,60.0000022888184
328,104,34288,2,0,P|364:128|376:156,1,60.0000022888184,0|0,0:0|0:0,0:0:0:0:
344,216,34633,2,0,P|304:236|284:268,1,60.0000022888184,0|0,0:0|0:0,0:0:0:0:
220,276,34978,2,0,P|180:272|152:252,1,60.0000022888184,0|0,0:0|0:0,0:0:0:0:
68,204,35323,5,8,0:0:0:0:
212,196,35495,1,8,0:0:0:0:
64,192,35667,2,0,P|60:156|72:124,1,60.0000022888184,0|0,0:0|0:0,0:0:0:0:
124,80,36012,2,0,P|144:116|136:160,1,60.0000022888184,0|0,0:0|0:0,0:0:0:0:
132,212,36357,6,0,P|196:196|224:128,1,120.000004577637,0|0,0:0|0:0,0:0:0:0:
244,76,36874,1,0,0:0:0:0:
148,136,37047,2,0,P|108:116|76:124,1,60.0000022888184,0|0,0:0|0:0,0:0:0:0:
144,212,37391,2,0,P|152:264|140:292,1,60.0000022888184,0|8,0:0|0:0,0:0:0:0:
44,220,37736,2,0,P|52:176|76:152,1,60.0000022888184,0|0,0:0|0:0,0:0:0:0:
176,124,38081,5,8,0:0:0:0:
150,270,38254,1,8,0:0:0:0:
224,200,38426,1,8,0:0:0:0:
120,272,38598,6,8,P|76:255|60:223,1,60.0000022888184,0|0,0:0|0:0,0:0:0:0:
182,160,38943,2,0,P|214:180|226:216,1,60.0000022888184,0|0,0:0|0:0,0:0:0:0:
120,272,39288,2,0,P|112:332|120:348,1,60.0000022888184,0|8,0:0|0:0,0:0:0:0:
224,268,39633,5,8,0:0:0:0:
188,148,39805,1,8,0:0:0:0:
276,200,39978,2,0,P|312:204|352:192,2,60.0000022888184,0|0|0,0:0|0:0|0:0,0:0:0:0:
212,152,40495,2,0,P|248:124|288:124,1,60.0000022888184,0|0,0:0|0:0,0:0:0:0:
312,216,40840,5,8,0:0:0:0:
180,228,41012,1,8,0:0:0:0:
284,304,41185,1,8,0:0:0:0:
180,240,41357,1,8,0:0:0:0:
304,300,41529,2,0,B|424:300|424:300|360:280,1,180.000006866455,0|0,0:0|0:0,0:0:0:0:
316,216,42219,6,2,L|296:216,6,15.0000005722046
336,216,42564,6,0,P|348:168|332:136,1,60.0000022888184,0|0,0:0|0:0,0:0:0:0:
404,268,42909,2,0,P|380:312|348:324,1,60.0000022888184,0|0,0:0|0:0,0:0:0:0:
296,316,43254,2,0,P|264:272|268:248,1,60.0000022888184,0|0,0:0|0:0,0:0:0:0:
220,168,43598,5,8,0:0:0:0:
120,276,43771,1,12,0:0:0:0:
112,296,44116,6,0,P|168:304|216:272,1,80,4|0,0:0|0:0,0:0:0:0:
148,220,44460,2,0,P|72:220|56:232,1,80
164,328,44805,5,2,0:0:0:0:
72,144,44978,1,10,0:0:0:0:
72,272,45150,1,2,0:0:0:0:
184,184,45323,2,0,B|196:140|188:88|188:88|164:120|168:160,1,160,0|0,0:0|0:0,0:0:0:0:
112,220,45840,2,0,B|104:276|116:320|116:320|136:292|136:252,1,160
188,104,46357,6,2,P|136:92|84:120,2,80
224,176,46874,2,0,P|180:184|132:160,1,80,4|0,0:0|0:0,0:0:0:0:
112,244,47219,2,0,P|168:264|216:256,1,80,0|0,0:0|0:0,0:0:0:0:
300,164,47564,1,2,0:0:0:0:
188,104,47736,1,10,0:0:0:0:
184,236,47909,1,2,0:0:0:0:
300,152,48081,6,0,L|396:152,1,80,0|0,0:0|0:0,0:0:0:0:
340,244,48426,1,10,0:0:0:0:
216,72,48598,2,0,L|376:72,1,160
340,244,49116,5,2,0:0:0:0:
192,164,49288,1,10,0:0:0:0:
328,144,49460,1,2,0:0:0:0:
152,236,49633,6,0,P|120:204|112:168,1,80,4|0,0:0|0:0,0:0:0:0:
192,164,49978,2,0,P|224:108|212:68,1,80,0|0,0:0|0:0,0:0:0:0:
132,76,50323,5,2,0:0:0:0:
212,216,50495,1,10,0:0:0:0:
248,68,50667,1,2,0:0:0:0:
140,176,50840,2,0,P|132:236|156:276,1,80,0|0,0:0|0:0,0:0:0:0:
88,108,51185,1,2,0:0:0:0:
212,216,51357,2,0,P|264:232|304:224,2,80
140,136,51874,5,2,0:0:0:0:
272,64,52047,1,10,0:0:0:0:
164,144,52219,1,2,0:0:0:0:
284,152,52391,6,0,P|340:152|384:184,1,80,4|0,0:0|0:0,0:0:0:0:
312,228,52736,2,0,P|236:220|220:204,1,80,0|0,0:0|0:0,0:0:0:0:
192,136,53081,5,2,0:0:0:0:
160,268,53254,1,10,0:0:0:0:
284,152,53426,2,0,P|328:148|372:168,1,80,4|0,0:0|0:0,0:0:0:0:
280,232,53771,2,0,P|224:212|204:168,1,80,4|0,0:0|0:0,0:0:0:0:
200,84,54116,1,2,0:0:0:0:
112,148,54288,2,0,P|100:192|104:228,1,80,4|0,0:0|0:0,0:0:0:0:
136,296,54633,5,2,0:0:0:0:
208,196,54805,1,10,0:0:0:0:
240,336,54978,1,2,0:0:0:0:
324,248,55150,6,0,P|340:208|328:148,1,80,4|0,0:0|0:0,0:0:0:0:
188,180,55495,2,0,P|232:200|284:180,1,80,0|0,0:0|0:0,0:0:0:0:
456,52,55840,5,10,0:0:0:0:
236,120,56012,1,2,0:0:0:0:
456,168,56185,1,10,0:0:0:0:
220,48,56357,2,0,P|172:84|192:180,1,160
240,232,56874,2,0,B|280:284|352:280|352:280|328:264|320:248,1,160,0|0,0:0|0:0,0:0:0:0:
396,108,57391,5,2,0:0:0:0:
428,260,57564,1,10,0:0:0:0:
320,168,57736,1,2,0:0:0:0:
428,180,57909,6,0,L|428:268,1,80,4|0,0:0|0:0,0:0:0:0:
320,168,58254,2,0,L|320:88,1,80,0|0,0:0|0:0,0:0:0:0:
348,244,58598,5,2,0:0:0:0:
232,112,58771,1,10,0:0:0:0:
348,140,58943,1,2,0:0:0:0:
232,248,59116,2,0,L|144:248,1,80,0|0,0:0|0:0,0:0:0:0:
328,152,59460,1,10,0:0:0:0:
232,272,59633,2,0,L|72:268,1,160,0|0,0:0|0:0,0:0:0:0:
136,188,60150,6,2,P|184:164|208:128,2,80
252,192,60667,2,0,L|336:192,1,80,4|0,0:0|0:0,0:0:0:0:
272,276,61012,2,0,L|184:276,1,80
400,248,61357,5,10,0:0:0:0:
208,152,61529,1,2,0:0:0:0:
468,128,61702,1,10,0:0:0:0:
192,268,61874,1,2,0:0:0:0:
336,76,62047,5,8,0:0:0:0:
416,332,62219,1,2,0:0:0:0:
232,152,62391,2,0,B|232:36|232:36|256:80,1,160,0|0,0:0|0:0,0:0:0:0:
332,272,62909,5,2,0:0:0:0:
312,132,63081,1,10,0:0:0:0:
260,332,63254,1,2,0:0:0:0:
404,236,63426,2,0,P|416:196|404:148,1,80,4|0,0:0|0:0,0:0:0:0:
328,196,63771,2,0,P|316:240|336:288,1,80
424,248,64116,5,2,0:0:0:0:
344,104,64288,1,10,0:0:0:0:
424,168,64460,2,0,L|424:264,1,80,4|0,0:0|0:0,0:0:0:0:
344,104,64805,2,0,L|344:192,1,80,4|0,0:0|0:0,0:0:0:0:
276,64,65150,1,2,0:0:0:0:
424,140,65323,2,0,L|424:244,1,80,4|0,0:0|0:0,0:0:0:0:
348,288,65667,5,2,0:0:0:0:
392,176,65840,1,10,0:0:0:0:
348,304,66012,1,2,0:0:0:0:
348,96,66185,6,0,P|316:60|280:52,1,80,4|0,0:0|0:0,0:0:0:0:
208,52,66529,1,10,0:0:0:0:
144,108,66702,2,0,P|124:144|128:200,1,80,0|0,0:0|0:0,0:0:0:0:
148,260,67047,5,2,0:0:0:0:
192,328,67219,1,10,0:0:0:0:
112,332,67391,2,0,P|72:288|72:240,1,80,0|0,0:0|0:0,0:0:0:0:
72,188,67736,2,0,P|112:156|160:160,1,80,0|0,0:0|0:0,0:0:0:0:
136,232,68081,6,0,L|168:284,5,40
180,296,68598,6,0,L|96:296,1,80,0|0,0:0|0:0,0:0:0:0:
228,168,68943,2,0,L|324:168,1,80,0|0,0:0|0:0,0:0:0:0:
284,252,69288,2,0,L|200:252,1,80
152,108,69633,1,2,0:0:0:0:
328,220,69805,1,10,0:0:0:0:
128,244,69978,1,2,0:0:0:0:
252,144,70150,6,0,L|344:144,1,80,0|0,0:0|0:0,0:0:0:0:
304,60,70495,2,0,L|216:60,1,80
192,180,70840,1,2,0:0:0:0:
348,48,71012,1,10,0:0:0:0:
100,108,71185,1,2,0:0:0:0:
284,204,71357,2,0,L|372:204,1,80,0|0,0:0|0:0,0:0:0:0:
236,268,71702,6,0,P|204:224|212:176,1,80,0|0,0:0|0:0,0:0:0:0:
216,120,72047,1,10,0:0:0:0:
268,60,72219,2,0,P|296:116|288:152,1,80,0|0,0:0|0:0,0:0:0:0:
288,212,72564,6,0,P|300:264|344:296,1,80,0|0,0:0|0:0,0:0:0:0:
368,216,72909,2,0,P|356:164|320:136,1,80
268,100,73254,2,0,P|208:76|164:84,1,80,0|0,0:0|0:0,0:0:0:0:
164,160,73598,6,0,L|212:160,5,40
244,156,74116,6,0,P|256:188|248:252,1,80,0|0,0:0|0:0,0:0:0:0:
332,240,74460,2,0,P|328:160|316:128,1,80,0|0,0:0|0:0,0:0:0:0:
408,156,74805,2,0,P|412:228|404:268,1,80,0|0,0:0|0:0,0:0:0:0:
376,304,75150,5,2,0:0:0:0:
436,120,75323,1,10,0:0:0:0:
304,180,75495,2,0,P|280:232|292:268,1,80,0|0,0:0|0:0,0:0:0:0:
272,332,75840,2,0,P|348:304|360:232,1,160,4|2,0:0|0:0,0:0:0:0:
336,156,76357,2,0,P|372:108|404:96,1,80,4|0,0:0|0:0,0:0:0:0:
396,268,76702,5,2,0:0:0:0:
224,132,76874,1,10,0:0:0:0:
412,176,77047,1,2,0:0:0:0:
268,256,77219,6,0,P|220:232|204:200,1,80,4|0,0:0|0:0,0:0:0:0:
224,132,77564,1,10,0:0:0:0:
300,104,77736,2,0,P|316:140|304:192,1,80,0|0,0:0|0:0,0:0:0:0:
276,252,78081,5,2,0:0:0:0:
196,252,78254,1,10,0:0:0:0:
172,176,78426,2,0,P|124:152|64:168,1,80,0|0,0:0|0:0,0:0:0:0:
112,232,78771,2,0,P|156:256|208:252,1,80,0|0,0:0|0:0,0:0:0:0:
260,232,79116,6,0,L|312:232,4,40
256,152,79633,6,0,P|308:132|356:144,1,80,0|0,0:0|0:0,0:0:0:0:
380,196,79978,2,0,P|400:236|452:256,1,80
408,332,80323,2,0,L|308:332,1,80,0|0,0:0|0:0,0:0:0:0:
252,308,80667,2,2,P|252:256|272:212,2,80
172,320,81185,6,0,L|80:320,1,80,0|0,0:0|0:0,0:0:0:0:
224,240,81529,2,0,L|120:240,1,80,0|0,0:0|0:0,0:0:0:0:
68,208,81874,2,0,P|80:160|124:132,1,80,0|0,0:0|0:0,0:0:0:0:
172,100,82219,2,2,P|212:88|264:104,2,80
296,204,82736,6,0,P|356:184|376:140,1,80
216,168,83081,1,10,0:0:0:0:
248,268,83254,2,0,P|300:284|356:264,1,80,0|0,0:0|0:0,0:0:0:0:
300,128,83598,6,2,P|264:88|232:80,2,80
328,204,84116,1,0,0:0:0:0:
308,280,84288,2,0,P|276:324|240:336,1,80,0|0,0:0|0:0,0:0:0:0:
336,332,84633,6,0,L|376:332,4,40,0|0|0|0|0,0:0|0:0|0:0|0:0|0:0,0:0:0:0:
212,304,85150,6,0,P|212:252|232:220,1,80,0|0,0:0|0:0,0:0:0:0:
160,276,85495,2,0,P|120:276|80:240,1,80,0|0,0:0|0:0,0:0:0:0:
220,152,85840,2,0,P|260:156|292:188,1,80,0|0,0:0|0:0,0:0:0:0:
296,288,86185,5,2,0:0:0:0:
356,144,86357,1,10,0:0:0:0:
224,228,86529,2,0,P|200:260|200:304,1,80,0|0,0:0|0:0,0:0:0:0:
340,160,86874,5,2,0:0:0:0:
276,288,87047,2,0,L|276:332,2,40,0|0|0,0:0|0:0|0:0,0:0:0:0:
220,152,87391,5,2,0:0:0:0:
348,240,87564,2,0,L|392:240,2,40,0|0|0,0:0|0:0|0:0,0:0:0:0:
224,228,87909,5,2,0:0:0:0:
348,148,88081,1,2,0:0:0:0:
292,308,88254,1,4,0:0:0:0:
96,108,99288,6,0,P|96:176|128:224,1,120.000004577637,4|0,0:0|0:0,0:0:0:0:
320,112,99978,2,0,P|356:132|372:160,2,60.0000022888184,0|0|0,0:0|0:0|0:0,0:0:0:0:
244,88,100495,2,0,P|212:136|304:180,1,180.000006866455,0|0,0:0|0:0,0:0:0:0:
368,212,101185,2,0,P|408:196|428:168,2,60.0000022888184,0|0|0,0:0|0:0|0:0,0:0:0:0:
328,280,101702,6,0,P|292:224|312:156,1,120.000004577637,0|0,0:0|0:0,0:0:0:0:
172,280,102391,2,0,B|164:308|164:308|128:272|132:216,1,120.000004577637,0|0,0:0|0:0,0:0:0:0:
132,148,102909,1,0,0:0:0:0:
272,80,103254,2,0,P|332:72|392:96,2,120.000004577637,0|0|0,0:0|0:0|0:0,0:0:0:0:
176,292,104460,2,0,L|248:292,1,60.0000022888184,0|0,0:0|0:0,0:0:0:0:
316,292,104805,2,0,B|400:292|400:292|368:272,1,120.000004577637,0|0,0:0|0:0,0:0:0:0:
196,148,105495,6,0,P|168:176|160:208,2,60.0000022888184,0|0|0,0:0|0:0|0:0,0:0:0:0:
268,116,106012,2,0,P|316:108|344:120,1,60.0000022888184,0|0,0:0|0:0,0:0:0:0:
304,188,106357,2,0,P|352:196|376:224,1,60.0000022888184,0|0,0:0|0:0,0:0:0:0:
308,264,106702,2,0,P|288:328|284:264,1,180.000006866455,0|0,0:0|0:0,0:0:0:0:
400,168,107564,6,0,P|396:96|356:48,1,120.000004577637,0|0,0:0|0:0,0:0:0:0:
224,116,108254,1,0,0:0:0:0:
224,200,108426,1,0,0:0:0:0:
308,120,108598,1,0,0:0:0:0:
224,116,108771,2,0,P|176:132|152:156,1,60.0000022888184,0|0,0:0|0:0,0:0:0:0:
112,188,109116,2,0,P|108:248|120:268,1,60.0000022888184,0|0,0:0|0:0,0:0:0:0:
184,224,109460,2,0,P|248:192|308:272,1,180.000006866455
420,160,110323,6,0,P|408:100|400:88,1,60.0000022888184,0|0,0:0|0:0,0:0:0:0:
340,140,110667,2,0,P|332:192|312:220,1,60.0000022888184,0|0,0:0|0:0,0:0:0:0:
264,152,111012,2,0,P|252:120|256:92,2,60.0000022888184,0|0|0,0:0|0:0|0:0,0:0:0:0:
308,216,111529,2,0,B|336:268|332:300|332:300|300:272,1,120.000004577637,0|0,0:0|0:0,0:0:0:0:
232,244,112047,2,0,L|180:200,1,60.0000022888184
244,144,112391,2,0,L|308:196,3,60.0000022888184,0|0|0|0,0:0|0:0|0:0|0:0,0:0:0:0:
284,76,113081,6,0,P|252:64|216:72,1,60.0000022888184
244,144,113426,2,0,P|280:176|300:180,1,60.0000022888184,0|0,0:0|0:0,0:0:0:0:
364,200,113771,2,0,P|420:224|428:236,1,60.0000022888184,0|0,0:0|0:0,0:0:0:0:
360,276,114116,1,0,0:0:0:0:
282,269,114288,2,0,P|314:213|430:237,1,180.000006866455,0|0,0:0|0:0,0:0:0:0:
424,264,115495,6,0,P|400:304|364:320,1,60.0000022888184,0|0,0:0|0:0,0:0:0:0:
312,320,115840,2,0,B|252:328|228:280|228:280|192:288,1,120.000004577637,0|0,0:0|0:0,0:0:0:0:
296,240,116357,2,0,L|300:180,1,60.0000022888184
376,208,116702,2,0,L|392:132,1,60.0000022888184,0|0,0:0|0:0,0:0:0:0:
416,76,117047,2,0,L|472:120,1,60.0000022888184,0|0,0:0|0:0,0:0:0:0:
400,156,117391,2,0,P|344:156|404:108,1,180.000006866455,0|0,0:0|0:0,0:0:0:0:
324,240,118254,6,0,P|280:212|264:184,1,60.0000022888184,0|0,0:0|0:0,0:0:0:0:
236,140,118598,2,0,P|216:96|196:80,1,60.0000022888184,0|0,0:0|0:0,0:0:0:0:
156,148,118943,1,0,0:0:0:0:
132,72,119116,2,0,P|80:128|84:184,1,120.000004577637,0|0,0:0|0:0,0:0:0:0:
256,192,119805,12,0,121357,0:0:0:0:
176,344,126874,6,0,P|196:312|204:268,1,60.0000022888184,0|0,0:0|0:0,0:0:0:0:
192,212,127219,1,0,0:0:0:0:
128,260,127391,2,0,P|104:300|88:312,1,60.0000022888184,0|0,0:0|0:0,0:0:0:0:
52,240,127736,2,0,P|80:196|112:184,1,60.0000022888184,0|0,0:0|0:0,0:0:0:0:
164,176,128081,2,0,P|212:180|236:168,1,60.0000022888184,0|0,0:0|0:0,0:0:0:0:
292,144,128426,1,0,0:0:0:0:
352,92,128598,1,0,0:0:0:0:
428,68,128771,6,0,L|428:128,1,60.0000022888184,0|0,0:0|0:0,0:0:0:0:
404,200,129116,2,0,P|432:208|476:188,2,60.0000022888184,0|0|0,0:0|0:0|0:0,0:0:0:0:
336,164,129633,6,0,P|276:144|232:324,1,315.000012016297,0|0,0:0|0:0,0:0:0:0:
276,240,130667,6,0,L|300:240,6,15.0000005722046,10|10|10|0|10|0|0,0:0|0:0|0:0|0:0|0:0|0:0|0:0,0:0:0:0:
256,240,131012,6,0,L|124:240,1,120.000004577637,0|0,0:0|0:0,0:0:0:0:
136,164,131529,6,0,P|88:176|64:212,1,80
192,312,132047,1,4,0:0:0:0:
212,320,132391,6,0,L|412:320,1,192,4|0,0:0|0:0,0:0:0:0:
324,168,133081,1,2,0:0:0:0:
428,224,133254,1,2,0:0:0:0:
284,272,133426,1,2,0:0:0:0:
432,240,133598,6,0,P|424:200|404:172,1,64,0|0,0:0|0:0,0:0:0:0:
356,120,133943,2,0,P|312:100|284:104,1,64,0|0,0:0|0:0,0:0:0:0:
256,220,134288,2,0,P|288:200|304:172,1,64,0|0,0:0|0:0,0:0:0:0:
192,176,134633,2,0,P|180:240|228:292,1,128,0|0,0:0|0:0,0:0:0:0:
296,308,135150,6,0,B|336:324|384:308|384:308|280:272|316:152,1,256,4|0,0:0|0:0,0:0:0:0:
324,92,136012,1,2,0:0:0:0:
404,208,136185,1,2,0:0:0:0:
268,184,136357,2,0,L|196:172,1,64,0|0,0:0|0:0,0:0:0:0:
320,96,136702,2,0,L|396:84,1,64,0|0,0:0|0:0,0:0:0:0:
228,176,137047,2,0,B|152:200|152:200|228:128|268:128,1,192,0|0,0:0|0:0,0:0:0:0:
404,272,137909,6,0,B|364:324|288:304|288:304|220:352|152:312|152:312,1,256,4|0,0:0|0:0,0:0:0:0:
60,240,138771,1,2,0:0:0:0:
132,128,138943,1,2,0:0:0:0:
56,256,139116,2,0,P|88:304|108:312,1,64,0|0,0:0|0:0,0:0:0:0:
136,236,139460,2,0,P|112:196|80:180,1,64,0|0,0:0|0:0,0:0:0:0:
112,328,139805,2,0,L|184:328,1,64,0|0,0:0|0:0,0:0:0:0:
144,252,140150,2,0,B|72:252|72:252|104:176,1,128,0|0,0:0|0:0,0:0:0:0:
132,124,140667,6,2,B|172:52|172:52|172:244,1,256,4|0,0:0|0:0,0:0:0:0:
220,296,141529,1,2,0:0:0:0:
128,176,141702,1,2,0:0:0:0:
248,104,141874,2,0,P|284:92|328:92,1,64,0|0,0:0|0:0,0:0:0:0:
296,172,142219,2,0,P|348:168|384:180,1,64,0|0,0:0|0:0,0:0:0:0:
324,248,142564,2,0,P|272:248|240:228,1,64,0|0,0:0|0:0,0:0:0:0:
216,176,142909,6,0,L|196:128,4,32,0|0|0|0|0,0:0|0:0|0:0|0:0|0:0,0:0:0:0:
184,252,143426,6,2,P|120:276|148:148,1,256,4|0,0:0|0:0,0:0:0:0:
228,184,144288,5,2,0:0:0:0:
184,312,144460,1,2,0:0:0:0:
123,210,144633,2,0,L|123:142,1,64
204,176,144978,2,0,L|204:108,1,64
284,144,145323,2,0,L|284:76,1,64
364,112,145667,2,0,B|364:36|364:36|404:92,1,128
436,156,146185,6,0,B|476:220|476:220|276:164,1,256,4|0,0:0|0:0,0:0:0:0:
176,72,147047,5,2,0:0:0:0:
312,96,147219,1,2,0:0:0:0:
208,160,147391,2,0,L|136:168,1,64,0|0,0:0|0:0,0:0:0:0:
312,96,147736,2,0,L|404:112,1,64,0|0,0:0|0:0,0:0:0:0:
420,192,148081,2,0,B|432:216|456:240|456:240|408:204|324:208,1,192,0|0,0:0|0:0,0:0:0:0:
136,160,148943,6,0,B|184:316|184:316|192:212,1,256,4|0,0:0|0:0,0:0:0:0:
212,120,149805,1,2,0:0:0:0:
116,224,149978,1,2,0:0:0:0:
272,172,150150,2,0,L|348:144,1,64,0|0,0:0|0:0,0:0:0:0:
364,228,150495,2,0,L|444:244,1,64,0|0,0:0|0:0,0:0:0:0:
284,244,150840,2,0,L|316:316,1,64,0|0,0:0|0:0,0:0:0:0:
204,248,151185,2,0,P|212:204|292:164,1,128
284,244,151702,6,0,B|204:220|128:248|128:248|204:212|224:176,1,256,4|0,0:0|0:0,0:0:0:0:
280,80,152564,5,2,0:0:0:0:
213,199,152736,1,2,0:0:0:0:
348,160,152909,2,0,L|416:108,1,64
324,244,153254,2,0,L|300:312,1,64,0|0,0:0|0:0,0:0:0:0:
260,172,153598,2,0,B|256:112|284:36|284:36|284:68|312:104,1,192,0|0,0:0|0:0,0:0:0:0:
352,216,154460,6,0,B|260:224|264:124|264:124|192:112|176:64,1,240.000009155274,0|0,0:0|0:0,0:0:0:0:
112,108,155323,2,0,P|132:144|152:160,1,60.0000022888184,0|0,0:0|0:0,0:0:0:0:
216,192,155667,2,0,P|252:216|268:248,1,60.0000022888184,0|0,0:0|0:0,0:0:0:0:
192,268,156012,2,0,P|156:268|144:144,1,180.000006866455,0|0,0:0|0:0,0:0:0:0:
204,132,156702,5,8,0:0:0:0:
176,204,156874,1,8,0:0:0:0:
100,192,157047,2,0,P|88:152|92:124,1,60.0000022888184,0|0,0:0|0:0,0:0:0:0:
164,108,157391,2,0,P|168:68|188:44,1,60.0000022888184,0|0,0:0|0:0,0:0:0:0:
240,100,157736,6,0,P|232:148|216:164,1,60.0000022888184,0|0,0:0|0:0,0:0:0:0:
164,204,158081,1,0,0:0:0:0:
120,268,158254,2,0,P|220:256|236:224,1,120.000004577637,0|0,0:0|0:0,0:0:0:0:
292,288,158771,2,0,L|324:236,1,60.0000022888184,0|0,0:0|0:0,0:0:0:0:
392,272,159116,2,0,L|448:216,1,60.0000022888184,0|0,0:0|0:0,0:0:0:0:
416,152,159460,1,8,0:0:0:0:
420,72,159633,6,0,P|368:88|356:100,1,60.0000022888184,0|0,0:0|0:0,0:0:0:0:
300,136,159978,2,0,B|300:192|344:212|344:212|328:272|364:308|364:308|356:332|324:352,1,240.000009155274,0|0,0:0|0:0,0:0:0:0:
260,336,160840,5,8,0:0:0:0:
216,272,161012,1,8,0:0:0:0:
144,300,161185,1,8,0:0:0:0:
112,228,161357,2,0,P|120:192|200:144,1,120.000004577637,0|0,0:0|0:0,0:0:0:0:
260,168,161874,2,0,P|256:108|240:92,1,60.0000022888184
192,68,162219,5,8,0:0:0:0:
116,92,162391,1,8,0:0:0:0:
80,164,162564,1,8,0:0:0:0:
96,240,162736,1,8,0:0:0:0:
164,280,162909,2,0,P|216:272|280:156,1,180.000006866455,0|0,0:0|0:0,0:0:0:0:
232,108,163598,6,2,L|212:108,6,15.0000005722046
204,104,163943,6,0,P|216:68|256:44,1,60.0000022888184,0|0,0:0|0:0,0:0:0:0:
336,128,164288,2,0,P|368:128|400:152,1,60.0000022888184,0|0,0:0|0:0,0:0:0:0:
316,296,164633,2,0,P|336:252|332:228,1,60.0000022888184,0|0,0:0|0:0,0:0:0:0:
256,240,164978,5,8,0:0:0:0:
340,116,165150,1,12,0:0:0:0:
320,92,165495,6,0,P|260:80|232:96,1,80,4|0,0:0|0:0,0:0:0:0:
228,220,165840,2,0,P|272:176|276:152,1,80
176,72,166185,5,10,0:0:0:0:
264,288,166357,1,2,0:0:0:0:
400,60,166529,1,10,0:0:0:0:
92,152,166702,1,2,0:0:0:0:
340,240,166874,2,0,P|384:232|420:208,1,80,8|2,0:0|0:0,0:0:0:0:
292,176,167219,2,0,P|264:220|320:316,1,160,0|0,0:0|0:0,0:0:0:0:
384,328,167736,5,2,0:0:0:0:
368,248,167909,1,10,0:0:0:0:
288,232,168081,1,2,0:0:0:0:
232,288,168254,2,0,P|168:252|160:220,1,80,4|0,0:0|0:0,0:0:0:0:
168,168,168598,2,0,P|232:204|240:232,1,80,0|0,0:0|0:0,0:0:0:0:
166,249,168943,6,2,L|84:248,2,80
248,252,169460,2,0,P|252:212|228:160,1,80,0|0,0:0|0:0,0:0:0:0:
152,144,169805,1,10,0:0:0:0:
244,328,169978,2,0,B|360:328|360:328|312:304,1,160,0|0,0:0|0:0,0:0:0:0:
156,200,170495,5,2,0:0:0:0:
212,328,170667,1,10,0:0:0:0:
284,128,170840,1,2,0:0:0:0:
192,160,171012,6,0,L|192:252,1,80,4|0,0:0|0:0,0:0:0:0:
284,208,171357,2,0,L|284:128,1,80,0|0,0:0|0:0,0:0:0:0:
148,76,171702,5,10,0:0:0:0:
244,320,171874,1,2,0:0:0:0:
252,48,172047,5,10,0:0:0:0:
124,300,172219,1,2,0:0:0:0:
336,120,172391,5,10,0:0:0:0:
56,196,172564,1,2,0:0:0:0:
244,296,172736,6,0,B|352:296|352:296|288:268,1,160,0|0,0:0|0:0,0:0:0:0:
208,216,173254,5,2,0:0:0:0:
344,152,173426,1,10,0:0:0:0:
192,212,173598,1,2,0:0:0:0:
360,144,173771,6,0,P|376:100|364:52,1,80,4|0,0:0|0:0,0:0:0:0:
296,96,174116,2,0,P|260:64|220:60,1,80,0|0,0:0|0:0,0:0:0:0:
168,108,174460,2,2,L|168:204,2,80
216,252,174978,5,2,0:0:0:0:
88,148,175150,2,0,L|88:52,1,80,4|0,0:0|0:0,0:0:0:0:
168,188,175495,5,2,0:0:0:0:
240,148,175667,2,0,L|240:52,1,80,4|0,0:0|0:0,0:0:0:0:
344,212,176012,5,2,0:0:0:0:
308,36,176185,1,10,0:0:0:0:
392,136,176357,1,2,0:0:0:0:
232,56,176529,6,0,P|180:76|160:108,1,80,4|0,0:0|0:0,0:0:0:0:
152,172,176874,2,0,L|152:276,1,80,0|0,0:0|0:0,0:0:0:0:
212,332,177219,5,10,0:0:0:0:
284,168,177391,1,2,0:0:0:0:
356,332,177564,1,10,0:0:0:0:
196,108,177736,5,2,0:0:0:0:
284,332,177909,1,8,0:0:0:0:
372,108,178081,1,0,0:0:0:0:
264,336,178254,6,0,B|140:336|140:336|192:312,1,160,0|0,0:0|0:0,0:0:0:0:
217,259,178771,5,2,0:0:0:0:
248,188,178943,1,10,0:0:0:0:
212,116,179116,1,2,0:0:0:0:
140,148,179288,2,0,P|120:188|124:240,1,80,4|0,0:0|0:0,0:0:0:0:
217,259,179633,2,0,P|240:232|248:188,1,80,0|0,0:0|0:0,0:0:0:0:
340,124,179978,5,2,0:0:0:0:
332,260,180150,1,10,0:0:0:0:
292,52,180323,1,2,0:0:0:0:
416,156,180495,2,0,L|416:252,1,80,0|0,0:0|0:0,0:0:0:0:
264,332,180840,5,10,0:0:0:0:
320,152,181012,2,0,B|336:92|336:92|364:196,1,160,0|0,0:0|0:0,0:0:0:0:
392,332,181529,5,2,0:0:0:0:
220,232,181702,1,10,0:0:0:0:
348,260,181874,1,2,0:0:0:0:
188,312,182047,6,0,L|104:312,1,80,4|0,0:0|0:0,0:0:0:0:
140,232,182391,2,0,L|232:232,1,80,0|0,0:0|0:0,0:0:0:0:
384,184,182736,5,10,0:0:0:0:
220,320,182909,1,2,0:0:0:0:
388,296,183081,1,10,0:0:0:0:
212,332,183254,6,0,B|100:332|100:332|168:308,1,160,2|2,0:0|0:0,0:0:0:0:
196,248,183771,2,0,B|300:248|300:248|232:216,1,160
168,172,184288,5,2,0:0:0:0:
224,304,184460,1,10,0:0:0:0:
244,116,184633,1,2,0:0:0:0:
88,176,184805,6,0,P|104:232|144:256,1,80,4|0,0:0|0:0,0:0:0:0:
208,248,185150,2,0,L|172:168,1,80,0|0,0:0|0:0,0:0:0:0:
284,216,185495,5,2,0:0:0:0:
224,104,185667,1,10,0:0:0:0:
284,216,185840,2,0,P|332:240|372:240,1,80,4|0,0:0|0:0,0:0:0:0:
344,160,186185,2,0,P|400:140|424:112,1,80,4|0,0:0|0:0,0:0:0:0:
252,100,186529,1,2,0:0:0:0:
348,236,186702,2,0,P|416:236|456:212,1,80,4|0,0:0|0:0,0:0:0:0:
264,128,187047,5,2,0:0:0:0:
380,160,187219,1,10,0:0:0:0:
264,40,187391,1,2,0:0:0:0:
168,172,187564,6,0,P|172:224|200:268,1,80,4|0,0:0|0:0,0:0:0:0:
252,288,187909,1,10,0:0:0:0:
324,252,188081,2,0,P|376:280|388:328,1,80,0|0,0:0|0:0,0:0:0:0:
312,333,188426,6,0,P|264:309|248:257,1,80
228,208,188771,2,0,L|312:192,1,80,0|0,0:0|0:0,0:0:0:0:
260,116,189116,2,0,L|356:100,1,80
400,52,189460,6,0,L|432:100,5,40,0|0|0|0|0|0,0:0|0:0|0:0|0:0|0:0|0:0,0:0:0:0:
388,108,189978,6,0,P|408:160|400:196,1,80,0|0,0:0|0:0,0:0:0:0:
364,252,190323,2,0,P|408:264|452:248,1,80,0|0,0:0|0:0,0:0:0:0:
300,180,190667,2,0,P|276:208|288:284,1,80,0|0,0:0|0:0,0:0:0:0:
392,300,191012,1,2,0:0:0:0:
216,152,191185,1,10,0:0:0:0:
284,316,191357,1,2,0:0:0:0:
373,192,191529,6,0,L|276:192,1,80,0|0,0:0|0:0,0:0:0:0:
244,256,191874,2,0,L|144:256,1,80,0|0,0:0|0:0,0:0:0:0:
216,172,192219,5,2,0:0:0:0:
312,312,192391,1,10,0:0:0:0:
392,184,192564,1,2,0:0:0:0:
244,256,192736,2,0,P|224:300|232:352,1,80,0|0,0:0|0:0,0:0:0:0:
144,328,193081,6,0,P|148:280|164:236,1,80,0|0,0:0|0:0,0:0:0:0:
192,176,193426,1,10,0:0:0:0:
252,228,193598,2,0,P|272:188|264:140,1,80,0|0,0:0|0:0,0:0:0:0:
224,56,193943,5,2,0:0:0:0:
328,68,194116,1,10,0:0:0:0:
196,176,194288,2,0,P|136:180|116:168,1,80,0|0,0:0|0:0,0:0:0:0:
164,100,194633,2,0,P|204:92|248:112,1,80
348,196,194978,6,0,L|384:180,5,40,0|0|0|0|0|0,0:0|0:0|0:0|0:0|0:0|0:0,0:0:0:0:
412,188,195495,6,0,P|432:248|416:280,1,80,0|0,0:0|0:0,0:0:0:0:
364,312,195840,2,0,L|272:312,1,80,0|0,0:0|0:0,0:0:0:0:
212,276,196185,2,0,P|192:220|220:172,1,80,0|0,0:0|0:0,0:0:0:0:
228,128,196529,5,2,0:0:0:0:
268,60,196702,1,10,0:0:0:0:
316,168,196874,2,0,L|316:260,1,80,0|0,0:0|0:0,0:0:0:0:
392,120,197219,2,0,L|392:208,1,80,4|0,0:0|0:0,0:0:0:0:
448,260,197564,5,2,0:0:0:0:
312,136,197736,2,0,L|312:52,1,80,4|0,0:0|0:0,0:0:0:0:
392,120,198081,5,2,0:0:0:0:
208,168,198254,1,10,0:0:0:0:
332,48,198426,1,2,0:0:0:0:
256,232,198598,6,0,P|196:248|160:228,1,80,4|0,0:0|0:0,0:0:0:0:
148,172,198943,1,10,0:0:0:0:
192,104,199116,2,0,P|232:80|288:88,1,80,0|0,0:0|0:0,0:0:0:0:
388,128,199460,5,2,0:0:0:0:
248,156,199633,1,10,0:0:0:0:
400,52,199805,2,0,P|448:76|464:116,1,80,0|0,0:0|0:0,0:0:0:0:
472,176,200150,2,0,P|456:220|416:244,1,80,0|0,0:0|0:0,0:0:0:0:
312,236,200495,6,0,L|256:236,5,40,0|0|0|0|0|0,0:0|0:0|0:0|0:0|0:0|0:0,0:0:0:0:
248,204,201012,6,0,P|216:136|224:108,1,80,0|0,0:0|0:0,0:0:0:0:
344,160,201357,2,0,P|344:212|328:240,1,80,0|0,0:0|0:0,0:0:0:0:
192,188,201702,2,0,P|244:176|280:192,1,80
408,272,202047,5,2,0:0:0:0:
232,256,202219,1,10,0:0:0:0:
320,108,202391,1,2,0:0:0:0:
312,264,202564,6,0,P|288:316|244:336,1,80
187,194,202908,2,0,P|223:226|231:270,1,80
152,264,203253,5,2,0:0:0:0:
224,104,203425,1,10,0:0:0:0:
360,208,203598,1,2,0:0:0:0:
196,128,203770,1,10,0:0:0:0:
312,84,203943,1,2,0:0:0:0:
384,216,204116,6,0,P|388:268|376:296,1,80,0|0,0:0|0:0,0:0:0:0:
312,248,204460,1,10,0:0:0:0:
236,260,204633,2,0,P|196:228|188:200,1,80,0|0,0:0|0:0,0:0:0:0:
168,124,204978,2,0,P|116:172|112:204,1,80,0|0,0:0|0:0,0:0:0:0:
152,48,205323,2,0,P|196:48|232:80,1,80
256,140,205667,2,0,P|192:144|164:112,1,80,0|0,0:0|0:0,0:0:0:0:
84,80,206012,6,0,L|84:120,5,40,0|0|0|0|0|0,0:0|0:0|0:0|0:0|0:0|0:0,0:0:0:0:
128,112,206529,6,0,P|136:168|176:208,1,80,0|0,0:0|0:0,0:0:0:0:
228,244,206874,2,0,P|224:192|240:160,1,80,0|0,0:0|0:0,0:0:0:0:
360,168,207219,2,0,P|328:204|296:212,1,80,0|0,0:0|0:0,0:0:0:0:
212,104,207564,5,2,0:0:0:0:
352,64,207736,1,10,0:0:0:0:
248,208,207909,2,0,L|168:208,1,80,0|0,0:0|0:0,0:0:0:0:
88,176,208254,5,2,0:0:0:0:
216,108,208426,2,0,L|268:108,2,40,0|0|0,0:0|0:0|0:0,0:0:0:0:
184,200,208771,5,2,0:0:0:0:
116,80,208943,2,0,L|116:24,2,40
84,180,209288,5,2,0:0:0:0:
216,108,209460,1,2,0:0:0:0:
40,80,209633,1,4,0:0:0:0:
