osu file format v14

[General]
AudioFilename: audio.mp3
AudioLeadIn: 0
PreviewTime: 165493
Countdown: 0
SampleSet: Soft
StackLeniency: 0.7
Mode: 0
LetterboxInBreaks: 0
WidescreenStoryboard: 1

[Editor]
DistanceSpacing: 1.9
BeatDivisor: 2
GridSize: 4
TimelineZoom: 1.5

[Metadata]
Title:Taking Over (feat. Miyoki)
TitleUnicode:Taking Over (feat. Miyoki)
Artist:Rob Gasser
ArtistUnicode:Rob Gasser
Creator:Evgerable
Version:Beginner
Source:
Tags:drum bass dnb fullscreen jumps full size
BeatmapID:1255529
BeatmapSetID:590956

[Difficulty]
HPDrainRate:2
CircleSize:2
OverallDifficulty:2
ApproachRate:2
SliderMultiplier:0.500000005960464
SliderTickRate:1

[Events]
//Background and Video events
0,0,"BG.jpg",0,0
//Break Periods
2,88454,97728
2,121557,125314
//Storyboard Layer 0 (Background)
//Storyboard Layer 1 (Fail)
//Storyboard Layer 2 (Pass)
//Storyboard Layer 3 (Foreground)
//Storyboard Sound Samples

[TimingPoints]
323,344.827586206897,4,2,1,100,1,0
22045,-100,4,2,3,65,0,0
22736,-100,4,2,1,65,0,0
33081,-100,4,2,3,65,0,0
33943,-100,4,2,1,65,0,0
44116,-100,4,2,2,100,0,1
66185,-100,4,2,2,90,0,0
88254,-100,4,2,3,90,0,0
99288,-100,4,2,3,65,0,0
131529,-100,4,2,1,85,0,0
132391,-100,4,2,3,85,0,0
154460,-100,4,2,3,65,0,0
165150,-100,4,2,1,65,0,0
165495,-100,4,2,2,100,0,1
187564,-100,4,2,2,90,0,0
209633,-100,4,2,3,90,0,0

[Colours]
Combo1 : 240,211,11
Combo2 : 164,82,0
Combo3 : 223,112,0
Combo4 : 145,0,0
Combo5 : 100,49,49
Combo6 : 193,132,132

[HitObjects]
112,64,22047,6,0,P|128:136|124:196,1,100.000001192093,4|0,0:0|0:0,0:0:0:0:
104,256,23081,1,8,0:0:0:0:
196,276,23426,2,0,P|256:268|312:288,1,100.000001192093
384,300,24460,5,8,0:0:0:0:
432,216,24805,2,0,P|436:180|432:148,1,50.0000005960464
368,96,25495,2,8,P|328:84|304:88,2,50.0000005960464
320,180,26529,2,0,L|316:248,1,50.0000005960464
376,304,27219,1,8,0:0:0:0:
444,240,27564,2,0,P|456:196|452:172,1,50.0000005960464
408,112,28254,6,8,L|352:104,2,50.0000005960464
360,192,29288,2,0,L|288:120,1,100.000001192093
236,200,30323,2,0,L|244:268,1,50.0000005960464
148,244,31012,6,8,P|116:240|84:244,2,50.0000005960464
192,328,32047,1,8,0:0:0:0:
241,249,32391,2,0,P|264:232|292:224,1,50.0000005960464
380,212,33081,6,0,B|408:216|428:240|428:240|408:204|420:156,1,125.000001490116
436,80,34288,2,0,P|372:88|336:124,1,100.000001192093
288,184,35323,2,8,L|260:188,2,25.0000002980232
360,180,38598,6,0,P|368:228|352:296,1,100.000001192093
280,328,39633,5,8,0:0:0:0:
200,276,39978,2,0,P|192:244|204:188,1,75.0000008940696
288,236,40840,2,8,L|316:208,2,25.0000002980232
112,108,42564,6,0,L|240:108,1,125.000001490116
332,124,43771,1,4,0:0:0:0:
400,196,44116,6,0,P|428:256|420:300,1,100.000001192093
332,264,45150,1,0,0:0:0:0:
252,312,45495,2,0,P|204:328|144:312,1,100.000001192093
92,248,46529,5,0,0:0:0:0:
168,192,46874,2,0,P|180:168|180:92,1,100.000001192093
88,84,47909,1,0,0:0:0:0:
60,176,48254,2,0,P|60:224|88:272,1,100.000001192093
152,200,49288,5,0,0:0:0:0:
232,252,49633,2,0,P|252:284|260:356,1,100.000001192093
336,288,50667,1,0,0:0:0:0:
400,220,51012,2,0,B|412:180|412:180|416:72,1,150.000001788139
324,88,52391,6,0,L|216:100,1,100.000001192093
136,60,53426,1,0,0:0:0:0:
72,132,53771,2,0,P|68:180|76:220,1,75.0000008940696
140,272,54633,2,0,L|120:308,2,25.0000002980232
172,236,55150,6,0,L|280:220,1,100.000001192093
332,148,56185,1,0,0:0:0:0:
408,204,56529,2,0,P|420:236|412:308,1,100.000001192093
320,312,57564,1,0,0:0:0:0:
276,228,57909,6,0,L|180:196,1,100.000001192093
132,116,58943,1,0,0:0:0:0:
68,184,59288,2,0,L|68:296,1,100.000001192093
160,268,60323,5,0,0:0:0:0:
240,320,60667,2,0,P|280:328|344:304,1,100.000001192093
280,232,61702,1,0,0:0:0:0:
228,152,62047,2,0,P|228:104|256:48,1,100.000001192093
156,80,63081,5,0,0:0:0:0:
88,148,63426,2,0,P|76:200|92:260,1,100.000001192093
176,276,64460,1,0,0:0:0:0:
216,192,64805,6,0,L|324:220,1,100.000001192093
368,296,65840,1,0,0:0:0:0:
440,232,66185,2,0,P|440:192|376:100,1,150.000001788139
292,72,67564,2,0,P|220:76|164:140,1,150.000001788139
260,168,68943,6,0,L|300:284,1,100.000001192093
388,280,69978,1,0,0:0:0:0:
444,204,70323,2,0,B|468:96|468:96|436:144,1,150.000001788139
360,164,71702,6,0,P|312:176|216:136,1,150.000001788139
156,72,73081,2,0,L|168:224,1,150.000001788139
252,268,74460,6,0,P|308:256|396:296,1,150.000001788139
408,196,75840,2,0,L|416:128,1,50.0000005960464
380,112,76357,2,0,L|376:20,1,75.0000008940696
288,76,77219,6,0,B|248:84|212:72|212:72|136:92,1,150.000001788139
156,184,78598,2,0,B|208:168|208:168|128:252,1,150.000001788139
220,292,79978,6,0,P|268:280|324:292,1,100.000001192093
404,332,81012,1,0,0:0:0:0:
396,236,81357,2,0,L|432:84,1,150.000001788139
348,136,82736,6,0,P|320:144|200:108,1,150.000001788139
132,56,84116,2,0,P|112:120|152:192,1,150.000001788139
236,232,85495,2,0,P|284:248|344:348,1,150.000001788139
380,240,86874,6,0,L|344:132,1,100.000001192093
256,128,87909,1,0,0:0:0:0:
168,160,88254,1,4,0:0:0:0:
304,72,99288,6,0,B|284:104|284:104|296:128|292:208,1,125.000001490116
232,264,100495,2,0,P|200:224|116:204,1,125.000001490116
120,152,105495,6,0,B|100:88|252:192|364:132,1,250.000002980232
432,96,107564,2,0,B|472:144|412:216|432:288,1,175.000002086162
288,280,111529,6,0,B|232:288|232:288|104:276,1,175.000002086162
96,184,113081,2,0,L|224:196,1,125.000001490116
316,204,114288,2,0,P|380:172|388:136,1,100.000001192093
156,96,115840,6,0,L|176:232,1,125.000001490116
232,296,117047,2,0,P|264:308|372:236,1,175.000002086162
280,212,118598,2,0,P|280:172|304:124,1,75.0000008940696
256,192,119805,12,0,121357,0:0:0:0:
364,96,126874,6,0,B|376:168|376:168|372:248,1,150.000001788139
280,264,128254,2,0,B|284:176|284:176|252:240,1,150.000001788139
256,192,129633,12,0,131012,0:0:0:0:
344,112,132047,5,0,0:0:0:0:
412,180,132391,6,0,P|424:228|356:320,1,150.000001788139
332,228,133771,2,0,P|304:208|224:196,1,100.000001192093
88,308,135150,6,0,B|76:236|76:236|76:156,1,150.000001788139
168,132,136529,2,0,L|168:248,1,100.000001192093
304,100,137909,6,0,P|368:84|444:132,1,150.000001788139
360,180,139288,2,0,L|260:224,1,100.000001192093
80,200,140667,6,0,P|52:152|84:56,1,150.000001788139
144,128,142047,2,0,P|184:124|228:92,2,75.0000008940696
220,188,143426,6,0,B|232:240|232:240|232:340,1,150.000001788139
324,312,144805,2,0,L|324:196,1,100.000001192093
428,52,146185,6,0,P|444:84|448:204,1,150.000001788139
412,284,147564,2,0,P|372:272|304:288,1,100.000001192093
136,224,148943,6,0,B|108:176|108:176|108:64,1,150.000001788139
200,108,150323,2,0,P|264:120|312:100,1,100.000001192093
124,192,151702,6,0,B|112:256|112:256|116:364,1,150.000001788139
204,308,153081,2,0,P|252:300|312:316,1,100.000001192093
140,212,154460,6,0,B|112:152|168:124|124:48,1,150.000001788139
208,124,155840,2,0,P|280:144|360:96,1,150.000001788139
424,56,157219,2,0,B|416:144|416:144|420:228,1,150.000001788139
312,268,159978,6,0,P|272:252|164:268,1,150.000001788139
196,176,161357,2,0,P|208:124|152:40,1,150.000001788139
116,128,162736,2,0,L|52:140,2,50.0000005960464
220,224,163943,6,0,L|352:204,1,125.000001490116
380,116,165150,1,0,0:0:0:0:
460,172,165495,6,0,B|468:228|468:228|464:292,1,100.000001192093
384,316,166529,1,0,0:0:0:0:
316,248,166874,2,0,P|272:232|168:244,1,150.000001788139
92,296,168254,6,0,P|108:244|108:184,1,100.000001192093
80,108,169288,1,0,0:0:0:0:
172,80,169633,2,0,P|228:104|280:96,1,100.000001192093
352,60,170667,5,0,0:0:0:0:
432,116,171012,2,0,B|448:172|448:172|448:236,1,100.000001192093
392,288,172047,1,0,0:0:0:0:
328,216,172391,2,0,P|288:196|216:200,1,100.000001192093
148,240,173426,5,0,0:0:0:0:
80,176,173771,2,0,P|64:136|76:68,1,100.000001192093
160,116,174805,1,0,0:0:0:0:
240,68,175150,6,0,L|312:72,1,50.0000005960464
324,104,175667,2,0,L|416:140,1,75.0000008940696
448,208,176529,6,0,B|452:316|452:316|412:272,1,150.000001788139
352,224,177909,2,0,P|312:208|236:216,1,100.000001192093
176,256,178943,5,0,0:0:0:0:
88,220,179288,2,0,P|60:160|64:120,1,100.000001192093
136,64,180323,5,0,0:0:0:0:
208,128,180667,2,0,P|236:136|356:104,1,150.000001788139
440,80,182047,6,0,B|412:156|412:156|404:240,1,150.000001788139
312,240,183426,2,0,L|324:124,1,100.000001192093
264,68,184460,1,0,0:0:0:0:
172,88,184805,2,0,P|152:120|140:188,1,100.000001192093
172,268,185840,1,0,0:0:0:0:
248,208,186185,6,0,P|292:196|348:212,1,100.000001192093
428,256,187219,1,0,0:0:0:0:
456,164,187564,6,0,P|452:116|368:60,1,150.000001788139
280,52,188943,2,0,P|220:60|172:152,1,150.000001788139
152,224,190323,6,0,P|140:260|40:304,1,150.000001788139
60,212,191702,2,0,L|64:104,1,100.000001192093
144,60,192736,1,0,0:0:0:0:
220,116,193081,6,0,P|280:132|336:112,1,100.000001192093
392,64,194116,1,0,0:0:0:0:
448,140,194460,2,0,B|460:204|460:204|456:292,1,150.000001788139
368,256,195840,6,0,P|320:236|220:268,1,150.000001788139
156,324,197219,2,0,P|112:332|24:268,1,150.000001788139
116,236,198598,6,0,P|148:212|148:104,1,150.000001788139
232,56,199978,2,0,P|256:108|256:208,1,150.000001788139
244,292,201357,6,0,P|292:276|392:300,1,150.000001788139
348,208,202736,2,0,B|340:144|340:144|352:40,1,150.000001788139
276,120,204116,6,0,P|220:132|132:84,1,150.000001788139
68,156,205495,2,0,B|56:224|56:224|64:324,1,150.000001788139
148,260,206874,6,0,P|200:244|292:272,1,150.000001788139
380,304,208254,2,0,P|384:260|304:172,1,150.000001788139
236,144,209633,1,4,0:0:0:0:
