osu file format v14

[General]
AudioFilename: audio.mp3
AudioLeadIn: 0
PreviewTime: 47387
Countdown: 0
SampleSet: Normal
StackLeniency: 0.7
Mode: 3
LetterboxInBreaks: 0
SpecialStyle: 0
WidescreenStoryboard: 0

[Editor]
DistanceSpacing: 1.2
BeatDivisor: 4
GridSize: 32
TimelineZoom: 2.000001

[Metadata]
Title:Supersonic
TitleUnicode:Supersonic
Artist:Rob Gasser
ArtistUnicode:Rob Gasser
Creator:BringoBrango
Version:Above and Beyond
Source:
Tags:jumpstream stream practice trill rates
BeatmapID:2851727
BeatmapSetID:988183

[Difficulty]
HPDrainRate:8.2
CircleSize:4
OverallDifficulty:8.2
ApproachRate:5
SliderMultiplier:1.4
SliderTickRate:1

[Events]
//Background and Video events
0,0,"blackhole.jpg",0,0
//Break Periods
//Storyboard Layer 0 (Background)
//Storyboard Layer 1 (Fail)
//Storyboard Layer 2 (Pass)
//Storyboard Layer 3 (Foreground)
//Storyboard Layer 4 (Overlay)
//Storyboard Sound Samples

[TimingPoints]
1499,352.941176470588,4,1,0,10,1,0

[HitObjects]
64,192,2778,128,0,2910:0:0:0:0:
320,192,2910,1,0,0:0:0:0:
192,192,2910,1,0,0:0:0:0:
448,192,4322,1,0,0:0:0:0:
64,192,5734,1,0,0:0:0:0:
192,192,7146,1,0,0:0:0:0:
320,192,8557,1,0,0:0:0:0:
64,192,8734,1,0,0:0:0:0:
320,192,8910,1,0,0:0:0:0:
448,192,9087,1,0,0:0:0:0:
448,192,9969,1,0,0:0:0:0:
448,192,10322,1,0,0:0:0:0:
192,192,10498,1,0,0:0:0:0:
64,192,10851,1,0,0:0:0:0:
320,192,11381,1,0,0:0:0:0:
448,192,11557,1,0,0:0:0:0:
320,192,11734,1,0,0:0:0:0:
192,192,11910,1,0,0:0:0:0:
64,192,12263,1,0,0:0:0:0:
320,192,12793,1,0,0:0:0:0:
192,192,12969,1,0,0:0:0:0:
320,192,13146,1,0,0:0:0:0:
192,192,13322,1,0,0:0:0:0:
320,192,13498,1,0,0:0:0:0:
320,192,13675,1,0,0:0:0:0:
448,192,13675,1,0,0:0:0:0:
192,192,13851,1,0,0:0:0:0:
64,192,13851,1,0,0:0:0:0:
64,192,14028,1,0,0:0:0:0:
192,192,14204,1,0,0:0:0:0:
448,192,14204,1,0,0:0:0:0:
448,192,14734,1,0,0:0:0:0:
192,192,14734,1,0,0:0:0:0:
64,192,15616,1,0,0:0:0:0:
448,192,15616,1,0,0:0:0:0:
448,192,16146,1,0,0:0:0:0:
64,192,16146,1,0,0:0:0:0:
64,192,16675,1,0,0:0:0:0:
448,192,16675,1,0,0:0:0:0:
320,192,17028,1,0,0:0:0:0:
64,192,17028,1,0,0:0:0:0:
320,192,17557,1,0,0:0:0:0:
64,192,17557,1,0,0:0:0:0:
320,192,18440,1,0,0:0:0:0:
192,192,18440,1,0,0:0:0:0:
320,192,18969,1,0,0:0:0:0:
192,192,18969,1,0,0:0:0:0:
192,192,19498,1,0,0:0:0:0:
320,192,19498,1,0,0:0:0:0:
192,192,19851,1,0,0:0:0:0:
448,192,19851,1,0,0:0:0:0:
320,192,20028,1,0,0:0:0:0:
320,192,20204,1,0,0:0:0:0:
448,192,20381,1,0,0:0:0:0:
192,192,20381,1,0,0:0:0:0:
320,192,20557,1,0,0:0:0:0:
64,192,21263,1,0,0:0:0:0:
448,192,21263,1,0,0:0:0:0:
192,192,21440,1,0,0:0:0:0:
192,192,21616,1,0,0:0:0:0:
448,192,21793,1,0,0:0:0:0:
64,192,21793,1,0,0:0:0:0:
192,192,21969,1,0,0:0:0:0:
192,192,22146,1,0,0:0:0:0:
448,192,22322,1,0,0:0:0:0:
64,192,22322,1,0,0:0:0:0:
192,192,22498,1,0,0:0:0:0:
320,192,22675,1,0,0:0:0:0:
64,192,22675,1,0,0:0:0:0:
448,192,22851,1,0,0:0:0:0:
448,192,23028,1,0,0:0:0:0:
320,192,23204,1,0,0:0:0:0:
64,192,23204,1,0,0:0:0:0:
448,192,23381,1,0,0:0:0:0:
320,192,24087,1,0,0:0:0:0:
192,192,24087,1,0,0:0:0:0:
64,192,24263,1,0,0:0:0:0:
64,192,24440,1,0,0:0:0:0:
320,192,24616,1,0,0:0:0:0:
192,192,24616,1,0,0:0:0:0:
64,192,24793,1,0,0:0:0:0:
64,192,24969,1,0,0:0:0:0:
320,192,25146,1,0,0:0:0:0:
192,192,25146,1,0,0:0:0:0:
64,192,25322,1,0,0:0:0:0:
192,192,25498,1,0,0:0:0:0:
448,192,25498,1,0,0:0:0:0:
448,192,25675,1,0,0:0:0:0:
192,192,25851,1,0,0:0:0:0:
64,192,25851,1,0,0:0:0:0:
192,192,26028,1,0,0:0:0:0:
448,192,26028,1,0,0:0:0:0:
448,192,26204,1,0,0:0:0:0:
192,192,26381,1,0,0:0:0:0:
64,192,26557,1,0,0:0:0:0:
192,192,26557,1,0,0:0:0:0:
320,192,26734,1,0,0:0:0:0:
448,192,26910,1,0,0:0:0:0:
64,192,26910,1,0,0:0:0:0:
448,192,27087,1,0,0:0:0:0:
192,192,27263,1,0,0:0:0:0:
64,192,27263,1,0,0:0:0:0:
448,192,27440,1,0,0:0:0:0:
64,192,27440,1,0,0:0:0:0:
448,192,27616,1,0,0:0:0:0:
64,192,27793,1,0,0:0:0:0:
448,192,27969,1,0,0:0:0:0:
64,192,27969,1,0,0:0:0:0:
448,192,28146,1,0,0:0:0:0:
320,192,28322,1,0,0:0:0:0:
64,192,28322,1,0,0:0:0:0:
64,192,28498,1,0,0:0:0:0:
320,192,28675,1,0,0:0:0:0:
448,192,28675,1,0,0:0:0:0:
320,192,28851,1,0,0:0:0:0:
64,192,28851,1,0,0:0:0:0:
64,192,29028,1,0,0:0:0:0:
320,192,29204,1,0,0:0:0:0:
448,192,29381,1,0,0:0:0:0:
320,192,29381,1,0,0:0:0:0:
64,192,29557,1,0,0:0:0:0:
320,192,29734,1,0,0:0:0:0:
192,192,29734,1,0,0:0:0:0:
192,192,29910,1,0,0:0:0:0:
320,192,30087,1,0,0:0:0:0:
448,192,30087,1,0,0:0:0:0:
320,192,30263,1,0,0:0:0:0:
192,192,30263,1,0,0:0:0:0:
192,192,30440,1,0,0:0:0:0:
320,192,30616,1,0,0:0:0:0:
320,192,30793,1,0,0:0:0:0:
192,192,30793,1,0,0:0:0:0:
192,192,30969,1,0,0:0:0:0:
64,192,31146,1,0,0:0:0:0:
320,192,31146,1,0,0:0:0:0:
64,192,31322,1,0,0:0:0:0:
448,192,31498,1,0,0:0:0:0:
320,192,31498,1,0,0:0:0:0:
320,192,31675,1,0,0:0:0:0:
64,192,31675,1,0,0:0:0:0:
64,192,31851,1,0,0:0:0:0:
320,192,32028,1,0,0:0:0:0:
320,192,32204,1,0,0:0:0:0:
448,192,32204,1,0,0:0:0:0:
192,192,32381,1,0,0:0:0:0:
64,192,32557,1,0,0:0:0:0:
448,192,32557,1,0,0:0:0:0:
64,192,32734,1,0,0:0:0:0:
320,192,32910,1,0,0:0:0:0:
448,192,32910,1,0,0:0:0:0:
448,192,33087,1,0,0:0:0:0:
64,192,33087,1,0,0:0:0:0:
64,192,33263,1,0,0:0:0:0:
448,192,33440,1,0,0:0:0:0:
448,192,33616,1,0,0:0:0:0:
64,192,33616,1,0,0:0:0:0:
64,192,33793,1,0,0:0:0:0:
192,192,33969,1,0,0:0:0:0:
448,192,33969,1,0,0:0:0:0:
448,192,34146,1,0,0:0:0:0:
192,192,34322,1,0,0:0:0:0:
64,192,34322,1,0,0:0:0:0:
192,192,34498,1,0,0:0:0:0:
448,192,34498,1,0,0:0:0:0:
448,192,34675,1,0,0:0:0:0:
192,192,34851,1,0,0:0:0:0:
192,192,35028,1,0,0:0:0:0:
64,192,35028,1,0,0:0:0:0:
448,192,35204,1,0,0:0:0:0:
320,192,35381,1,0,0:0:0:0:
192,192,35381,1,0,0:0:0:0:
320,192,35557,1,0,0:0:0:0:
192,192,35734,1,0,0:0:0:0:
64,192,35734,1,0,0:0:0:0:
320,192,35910,1,0,0:0:0:0:
192,192,35910,1,0,0:0:0:0:
448,192,36087,1,0,0:0:0:0:
320,192,36087,1,0,0:0:0:0:
192,192,36263,1,0,0:0:0:0:
320,192,36440,1,0,0:0:0:0:
192,192,36440,1,0,0:0:0:0:
320,192,36616,1,0,0:0:0:0:
448,192,36616,1,0,0:0:0:0:
64,192,36793,1,0,0:0:0:0:
192,192,36793,1,0,0:0:0:0:
448,192,36793,1,0,0:0:0:0:
192,192,37146,1,0,0:0:0:0:
64,192,37146,1,0,0:0:0:0:
448,192,37146,1,0,0:0:0:0:
192,192,37498,1,0,0:0:0:0:
64,192,37498,1,0,0:0:0:0:
448,192,37498,1,0,0:0:0:0:
192,192,37851,1,0,0:0:0:0:
64,192,37851,1,0,0:0:0:0:
448,192,37851,1,0,0:0:0:0:
320,192,38204,1,0,0:0:0:0:
192,192,38204,1,0,0:0:0:0:
64,192,38204,1,0,0:0:0:0:
320,192,38557,1,0,0:0:0:0:
64,192,38557,1,0,0:0:0:0:
192,192,38557,1,0,0:0:0:0:
320,192,38910,1,0,0:0:0:0:
192,192,38910,1,0,0:0:0:0:
64,192,38910,1,0,0:0:0:0:
320,192,39263,1,0,0:0:0:0:
192,192,39263,1,0,0:0:0:0:
64,192,39263,1,0,0:0:0:0:
320,192,39616,1,0,0:0:0:0:
448,192,39616,1,0,0:0:0:0:
64,192,39616,1,0,0:0:0:0:
320,192,39969,1,0,0:0:0:0:
448,192,39969,1,0,0:0:0:0:
64,192,39969,1,0,0:0:0:0:
320,192,40322,1,0,0:0:0:0:
448,192,40322,1,0,0:0:0:0:
64,192,40322,1,0,0:0:0:0:
320,192,40675,1,0,0:0:0:0:
448,192,40675,1,0,0:0:0:0:
64,192,40675,1,0,0:0:0:0:
192,192,41028,1,0,0:0:0:0:
320,192,41028,1,0,0:0:0:0:
448,192,41028,1,0,0:0:0:0:
192,192,41381,1,0,0:0:0:0:
320,192,41381,1,0,0:0:0:0:
448,192,41381,1,0,0:0:0:0:
192,192,41734,1,0,0:0:0:0:
320,192,41734,1,0,0:0:0:0:
448,192,41734,1,0,0:0:0:0:
192,192,42087,1,0,0:0:0:0:
320,192,42087,1,0,0:0:0:0:
448,192,42087,1,0,0:0:0:0:
192,192,42440,1,0,0:0:0:0:
64,192,42440,1,0,0:0:0:0:
448,192,42440,1,0,0:0:0:0:
320,192,42616,1,0,0:0:0:0:
64,192,42616,1,0,0:0:0:0:
192,192,42793,1,0,0:0:0:0:
64,192,42793,1,0,0:0:0:0:
448,192,42793,1,0,0:0:0:0:
320,192,42969,1,0,0:0:0:0:
448,192,42969,1,0,0:0:0:0:
448,192,43146,1,0,0:0:0:0:
192,192,43146,1,0,0:0:0:0:
64,192,43146,1,0,0:0:0:0:
320,192,43322,1,0,0:0:0:0:
448,192,43322,1,0,0:0:0:0:
448,192,43498,1,0,0:0:0:0:
192,192,43498,1,0,0:0:0:0:
64,192,43498,1,0,0:0:0:0:
320,192,43675,1,0,0:0:0:0:
64,192,43675,1,0,0:0:0:0:
320,192,43851,1,0,0:0:0:0:
192,192,43851,1,0,0:0:0:0:
448,192,43851,1,0,0:0:0:0:
448,192,44028,1,0,0:0:0:0:
64,192,44028,1,0,0:0:0:0:
448,192,44204,1,0,0:0:0:0:
320,192,44204,1,0,0:0:0:0:
192,192,44204,1,0,0:0:0:0:
192,192,44381,1,0,0:0:0:0:
64,192,44381,1,0,0:0:0:0:
448,192,44557,1,0,0:0:0:0:
320,192,44557,1,0,0:0:0:0:
192,192,44557,1,0,0:0:0:0:
320,192,44734,1,0,0:0:0:0:
64,192,44734,1,0,0:0:0:0:
448,192,44910,1,0,0:0:0:0:
320,192,44910,1,0,0:0:0:0:
192,192,44910,1,0,0:0:0:0:
448,192,45087,1,0,0:0:0:0:
64,192,45087,1,0,0:0:0:0:
320,192,45263,1,0,0:0:0:0:
192,192,45263,1,0,0:0:0:0:
64,192,45263,1,0,0:0:0:0:
192,192,45440,1,0,0:0:0:0:
64,192,45440,1,0,0:0:0:0:
320,192,45528,1,0,0:0:0:0:
448,192,45528,1,0,0:0:0:0:
320,192,45704,1,0,0:0:0:0:
448,192,45704,1,0,0:0:0:0:
192,192,45793,1,0,0:0:0:0:
64,192,45793,1,0,0:0:0:0:
448,192,45969,1,0,0:0:0:0:
64,192,45969,1,0,0:0:0:0:
192,192,46057,1,0,0:0:0:0:
320,192,46057,1,0,0:0:0:0:
320,192,46234,1,0,0:0:0:0:
192,192,46234,1,0,0:0:0:0:
64,192,46322,1,0,0:0:0:0:
448,192,46322,1,0,0:0:0:0:
64,192,46498,1,0,0:0:0:0:
320,192,46498,1,0,0:0:0:0:
192,192,46587,1,0,0:0:0:0:
448,192,46631,1,0,0:0:0:0:
64,192,46675,1,0,0:0:0:0:
320,192,46675,1,0,0:0:0:0:
192,192,46763,1,0,0:0:0:0:
448,192,46851,1,0,0:0:0:0:
192,192,46940,1,0,0:0:0:0:
320,192,47028,1,0,0:0:0:0:
448,192,47028,1,0,0:0:0:0:
192,192,47116,1,0,0:0:0:0:
64,192,47116,1,0,0:0:0:0:
320,192,47204,1,0,0:0:0:0:
448,192,47204,1,0,0:0:0:0:
64,192,47293,1,0,0:0:0:0:
192,192,47381,1,0,0:0:0:0:
320,192,47381,1,0,0:0:0:0:
448,192,47381,1,0,0:0:0:0:
192,192,47557,1,0,0:0:0:0:
64,192,47557,1,0,0:0:0:0:
320,192,47557,1,0,0:0:0:0:
192,192,47734,128,0,47910:0:0:0:0:
320,192,47734,128,0,47910:0:0:0:0:
64,192,47734,128,0,47910:0:0:0:0:
448,192,47734,1,0,0:0:0:0:
448,192,47910,1,0,0:0:0:0:
192,192,48087,1,0,0:0:0:0:
64,192,48087,1,0,0:0:0:0:
320,192,48175,1,0,0:0:0:0:
448,192,48263,1,0,0:0:0:0:
192,192,48263,1,0,0:0:0:0:
64,192,48351,1,0,0:0:0:0:
192,192,48440,1,0,0:0:0:0:
448,192,48440,1,0,0:0:0:0:
64,192,48528,1,0,0:0:0:0:
448,192,48616,1,0,0:0:0:0:
320,192,48616,1,0,0:0:0:0:
192,192,48704,1,0,0:0:0:0:
64,192,48793,1,0,0:0:0:0:
320,192,48793,1,0,0:0:0:0:
320,192,48969,1,0,0:0:0:0:
64,192,48969,1,0,0:0:0:0:
192,192,49057,1,0,0:0:0:0:
320,192,49146,1,0,0:0:0:0:
448,192,49146,1,0,0:0:0:0:
448,192,49322,1,0,0:0:0:0:
64,192,49322,1,0,0:0:0:0:
192,192,49410,1,0,0:0:0:0:
448,192,49498,1,0,0:0:0:0:
320,192,49498,1,0,0:0:0:0:
64,192,49587,1,0,0:0:0:0:
320,192,49675,1,0,0:0:0:0:
192,192,49675,1,0,0:0:0:0:
448,192,49763,1,0,0:0:0:0:
192,192,49851,1,0,0:0:0:0:
320,192,49851,1,0,0:0:0:0:
448,192,49940,1,0,0:0:0:0:
64,192,50028,1,0,0:0:0:0:
192,192,50028,1,0,0:0:0:0:
320,192,50116,1,0,0:0:0:0:
448,192,50204,1,0,0:0:0:0:
192,192,50204,1,0,0:0:0:0:
64,192,50381,1,0,0:0:0:0:
320,192,50381,1,0,0:0:0:0:
192,192,50469,1,0,0:0:0:0:
320,192,50557,1,0,0:0:0:0:
64,192,50557,1,0,0:0:0:0:
448,192,50646,1,0,0:0:0:0:
320,192,50734,1,0,0:0:0:0:
192,192,50734,1,0,0:0:0:0:
64,192,50822,1,0,0:0:0:0:
320,192,50910,1,0,0:0:0:0:
448,192,50910,1,0,0:0:0:0:
64,192,50998,1,0,0:0:0:0:
192,192,51087,1,0,0:0:0:0:
448,192,51087,1,0,0:0:0:0:
320,192,51175,1,0,0:0:0:0:
448,192,51263,1,0,0:0:0:0:
192,192,51263,1,0,0:0:0:0:
320,192,51351,1,0,0:0:0:0:
192,192,51440,1,0,0:0:0:0:
64,192,51440,1,0,0:0:0:0:
448,192,51528,1,0,0:0:0:0:
64,192,51616,1,0,0:0:0:0:
320,192,51616,1,0,0:0:0:0:
320,192,51793,1,0,0:0:0:0:
64,192,51793,1,0,0:0:0:0:
192,192,51881,1,0,0:0:0:0:
448,192,51969,1,0,0:0:0:0:
320,192,51969,1,0,0:0:0:0:
448,192,52146,1,0,0:0:0:0:
64,192,52146,1,0,0:0:0:0:
192,192,52322,1,0,0:0:0:0:
320,192,52322,1,0,0:0:0:0:
64,192,52410,1,0,0:0:0:0:
192,192,52498,1,0,0:0:0:0:
448,192,52498,1,0,0:0:0:0:
320,192,52587,1,0,0:0:0:0:
448,192,52675,1,0,0:0:0:0:
192,192,52675,1,0,0:0:0:0:
64,192,52763,1,0,0:0:0:0:
448,192,52851,1,0,0:0:0:0:
320,192,52851,1,0,0:0:0:0:
192,192,52940,1,0,0:0:0:0:
64,192,53028,1,0,0:0:0:0:
320,192,53028,1,0,0:0:0:0:
320,192,53204,1,0,0:0:0:0:
64,192,53204,1,0,0:0:0:0:
448,192,53293,1,0,0:0:0:0:
64,192,53381,1,0,0:0:0:0:
192,192,53381,1,0,0:0:0:0:
320,192,53469,1,0,0:0:0:0:
192,192,53557,1,0,0:0:0:0:
448,192,53557,1,0,0:0:0:0:
64,192,53646,1,0,0:0:0:0:
320,192,53734,1,0,0:0:0:0:
448,192,53734,1,0,0:0:0:0:
192,192,53822,1,0,0:0:0:0:
64,192,53910,1,0,0:0:0:0:
320,192,53910,1,0,0:0:0:0:
448,192,53998,1,0,0:0:0:0:
320,192,54087,1,0,0:0:0:0:
64,192,54087,1,0,0:0:0:0:
448,192,54175,1,0,0:0:0:0:
64,192,54263,1,0,0:0:0:0:
192,192,54263,1,0,0:0:0:0:
320,192,54351,1,0,0:0:0:0:
192,192,54440,1,0,0:0:0:0:
448,192,54440,1,0,0:0:0:0:
192,192,54616,1,0,0:0:0:0:
448,192,54616,1,0,0:0:0:0:
64,192,54704,1,0,0:0:0:0:
320,192,54793,1,0,0:0:0:0:
448,192,54793,1,0,0:0:0:0:
320,192,54969,1,0,0:0:0:0:
64,192,54969,1,0,0:0:0:0:
448,192,55057,1,0,0:0:0:0:
64,192,55146,1,0,0:0:0:0:
192,192,55146,1,0,0:0:0:0:
448,192,55234,1,0,0:0:0:0:
192,192,55322,1,0,0:0:0:0:
320,192,55322,1,0,0:0:0:0:
64,192,55410,1,0,0:0:0:0:
320,192,55498,1,0,0:0:0:0:
192,192,55498,1,0,0:0:0:0:
64,192,55587,1,0,0:0:0:0:
448,192,55675,1,0,0:0:0:0:
320,192,55675,1,0,0:0:0:0:
192,192,55763,1,0,0:0:0:0:
448,192,55851,1,0,0:0:0:0:
64,192,55851,1,0,0:0:0:0:
320,192,56028,1,0,0:0:0:0:
192,192,56028,1,0,0:0:0:0:
448,192,56116,1,0,0:0:0:0:
64,192,56204,1,0,0:0:0:0:
192,192,56204,1,0,0:0:0:0:
448,192,56293,1,0,0:0:0:0:
320,192,56381,1,0,0:0:0:0:
64,192,56381,1,0,0:0:0:0:
192,192,56469,1,0,0:0:0:0:
320,192,56557,1,0,0:0:0:0:
448,192,56557,1,0,0:0:0:0:
64,192,56646,1,0,0:0:0:0:
448,192,56734,1,0,0:0:0:0:
192,192,56734,1,0,0:0:0:0:
320,192,56822,1,0,0:0:0:0:
448,192,56910,1,0,0:0:0:0:
192,192,56910,1,0,0:0:0:0:
320,192,56998,1,0,0:0:0:0:
64,192,57087,1,0,0:0:0:0:
192,192,57087,1,0,0:0:0:0:
448,192,57175,1,0,0:0:0:0:
64,192,57263,1,0,0:0:0:0:
320,192,57263,1,0,0:0:0:0:
64,192,57440,1,0,0:0:0:0:
320,192,57440,1,0,0:0:0:0:
192,192,57528,1,0,0:0:0:0:
320,192,57616,1,0,0:0:0:0:
448,192,57616,1,0,0:0:0:0:
192,192,57793,128,0,57881:0:0:0:0:
64,192,57969,1,0,0:0:0:0:
192,192,58057,1,0,0:0:0:0:
320,192,58146,1,0,0:0:0:0:
448,192,58234,1,0,0:0:0:0:
64,192,58322,1,0,0:0:0:0:
192,192,58322,1,0,0:0:0:0:
320,192,58410,1,0,0:0:0:0:
448,192,58498,1,0,0:0:0:0:
64,192,58587,128,0,58675:0:0:0:0:
192,192,58675,1,0,0:0:0:0:
448,192,58675,1,0,0:0:0:0:
192,192,58851,1,0,0:0:0:0:
320,192,58851,1,0,0:0:0:0:
64,192,59028,1,0,0:0:0:0:
192,192,59028,1,0,0:0:0:0:
320,192,59028,1,0,0:0:0:0:
448,192,59028,1,0,0:0:0:0:
192,192,59381,1,0,0:0:0:0:
64,192,59381,1,0,0:0:0:0:
320,192,59557,1,0,0:0:0:0:
448,192,59557,1,0,0:0:0:0:
448,192,59734,1,0,0:0:0:0:
320,192,59734,1,0,0:0:0:0:
192,192,59822,1,0,0:0:0:0:
64,192,59910,1,0,0:0:0:0:
320,192,59910,1,0,0:0:0:0:
192,192,59998,1,0,0:0:0:0:
320,192,60087,1,0,0:0:0:0:
448,192,60087,1,0,0:0:0:0:
320,192,60263,1,0,0:0:0:0:
448,192,60263,1,0,0:0:0:0:
64,192,60351,1,0,0:0:0:0:
448,192,60440,1,0,0:0:0:0:
192,192,60440,1,0,0:0:0:0:
64,192,60616,1,0,0:0:0:0:
320,192,60616,1,0,0:0:0:0:
192,192,60704,1,0,0:0:0:0:
448,192,60793,1,0,0:0:0:0:
64,192,60793,1,0,0:0:0:0:
320,192,60881,1,0,0:0:0:0:
192,192,60969,1,0,0:0:0:0:
64,192,60969,1,0,0:0:0:0:
448,192,61057,1,0,0:0:0:0:
192,192,61146,1,0,0:0:0:0:
64,192,61146,1,0,0:0:0:0:
448,192,61234,1,0,0:0:0:0:
320,192,61322,1,0,0:0:0:0:
192,192,61322,1,0,0:0:0:0:
64,192,61410,1,0,0:0:0:0:
320,192,61498,1,0,0:0:0:0:
448,192,61498,1,0,0:0:0:0:
192,192,61675,1,0,0:0:0:0:
64,192,61675,1,0,0:0:0:0:
320,192,61763,1,0,0:0:0:0:
448,192,61851,1,0,0:0:0:0:
64,192,61851,1,0,0:0:0:0:
192,192,61940,1,0,0:0:0:0:
448,192,62028,1,0,0:0:0:0:
320,192,62028,1,0,0:0:0:0:
64,192,62116,1,0,0:0:0:0:
448,192,62204,1,0,0:0:0:0:
192,192,62204,1,0,0:0:0:0:
320,192,62293,1,0,0:0:0:0:
192,192,62381,1,0,0:0:0:0:
64,192,62381,1,0,0:0:0:0:
448,192,62469,1,0,0:0:0:0:
192,192,62557,1,0,0:0:0:0:
64,192,62557,1,0,0:0:0:0:
448,192,62646,1,0,0:0:0:0:
320,192,62734,1,0,0:0:0:0:
192,192,62734,1,0,0:0:0:0:
448,192,62822,1,0,0:0:0:0:
64,192,62910,1,0,0:0:0:0:
192,192,62910,1,0,0:0:0:0:
192,192,63087,1,0,0:0:0:0:
64,192,63087,1,0,0:0:0:0:
320,192,63175,1,0,0:0:0:0:
64,192,63263,1,0,0:0:0:0:
448,192,63263,1,0,0:0:0:0:
320,192,63440,1,0,0:0:0:0:
192,192,63440,1,0,0:0:0:0:
320,192,63616,1,0,0:0:0:0:
448,192,63616,1,0,0:0:0:0:
64,192,63704,1,0,0:0:0:0:
192,192,63793,1,0,0:0:0:0:
448,192,63793,1,0,0:0:0:0:
320,192,63881,1,0,0:0:0:0:
64,192,63969,1,0,0:0:0:0:
448,192,63969,1,0,0:0:0:0:
192,192,64057,1,0,0:0:0:0:
320,192,64146,1,0,0:0:0:0:
64,192,64146,1,0,0:0:0:0:
448,192,64234,1,0,0:0:0:0:
320,192,64322,1,0,0:0:0:0:
192,192,64322,1,0,0:0:0:0:
64,192,64498,1,0,0:0:0:0:
448,192,64498,1,0,0:0:0:0:
320,192,64587,1,0,0:0:0:0:
192,192,64675,1,0,0:0:0:0:
448,192,64675,1,0,0:0:0:0:
64,192,64763,1,0,0:0:0:0:
192,192,64851,1,0,0:0:0:0:
320,192,64851,1,0,0:0:0:0:
448,192,64940,1,0,0:0:0:0:
64,192,65028,1,0,0:0:0:0:
320,192,65028,1,0,0:0:0:0:
192,192,65116,1,0,0:0:0:0:
448,192,65204,1,0,0:0:0:0:
320,192,65204,1,0,0:0:0:0:
64,192,65293,1,0,0:0:0:0:
448,192,65381,1,0,0:0:0:0:
320,192,65381,1,0,0:0:0:0:
64,192,65469,1,0,0:0:0:0:
192,192,65557,1,0,0:0:0:0:
448,192,65557,1,0,0:0:0:0:
64,192,65646,1,0,0:0:0:0:
320,192,65734,1,0,0:0:0:0:
448,192,65734,1,0,0:0:0:0:
320,192,65910,1,0,0:0:0:0:
448,192,65910,1,0,0:0:0:0:
192,192,65998,1,0,0:0:0:0:
64,192,66087,1,0,0:0:0:0:
320,192,66087,1,0,0:0:0:0:
192,192,66263,1,0,0:0:0:0:
448,192,66263,1,0,0:0:0:0:
64,192,66351,1,0,0:0:0:0:
192,192,66440,1,0,0:0:0:0:
320,192,66440,1,0,0:0:0:0:
448,192,66528,1,0,0:0:0:0:
192,192,66616,1,0,0:0:0:0:
64,192,66616,1,0,0:0:0:0:
320,192,66704,1,0,0:0:0:0:
192,192,66793,1,0,0:0:0:0:
64,192,66793,1,0,0:0:0:0:
320,192,66881,1,0,0:0:0:0:
448,192,66969,1,0,0:0:0:0:
64,192,66969,1,0,0:0:0:0:
192,192,67057,1,0,0:0:0:0:
320,192,67146,1,0,0:0:0:0:
448,192,67146,1,0,0:0:0:0:
192,192,67322,1,0,0:0:0:0:
64,192,67322,1,0,0:0:0:0:
448,192,67410,1,0,0:0:0:0:
320,192,67498,1,0,0:0:0:0:
192,192,67498,1,0,0:0:0:0:
64,192,67587,1,0,0:0:0:0:
320,192,67675,1,0,0:0:0:0:
448,192,67675,1,0,0:0:0:0:
192,192,67763,1,0,0:0:0:0:
64,192,67851,1,0,0:0:0:0:
320,192,67851,1,0,0:0:0:0:
448,192,67940,1,0,0:0:0:0:
192,192,68028,1,0,0:0:0:0:
64,192,68028,1,0,0:0:0:0:
320,192,68116,1,0,0:0:0:0:
192,192,68204,1,0,0:0:0:0:
64,192,68204,1,0,0:0:0:0:
320,192,68293,1,0,0:0:0:0:
192,192,68381,1,0,0:0:0:0:
448,192,68381,1,0,0:0:0:0:
320,192,68469,1,0,0:0:0:0:
192,192,68557,1,0,0:0:0:0:
64,192,68557,1,0,0:0:0:0:
192,192,68734,1,0,0:0:0:0:
64,192,68734,1,0,0:0:0:0:
448,192,68822,1,0,0:0:0:0:
320,192,68910,1,0,0:0:0:0:
64,192,68910,1,0,0:0:0:0:
192,192,69087,128,0,69175:0:0:0:0:
448,192,69263,1,0,0:0:0:0:
320,192,69351,1,0,0:0:0:0:
192,192,69440,1,0,0:0:0:0:
64,192,69528,1,0,0:0:0:0:
320,192,69616,1,0,0:0:0:0:
448,192,69616,1,0,0:0:0:0:
192,192,69704,1,0,0:0:0:0:
64,192,69793,1,0,0:0:0:0:
448,192,69881,128,0,69969:0:0:0:0:
320,192,69969,1,0,0:0:0:0:
64,192,69969,1,0,0:0:0:0:
448,192,70146,1,0,0:0:0:0:
320,192,70146,1,0,0:0:0:0:
64,192,70322,1,0,0:0:0:0:
192,192,70322,1,0,0:0:0:0:
320,192,70322,1,0,0:0:0:0:
448,192,70322,1,0,0:0:0:0:
64,192,70675,5,0,0:0:0:0:
192,192,70675,1,0,0:0:0:0:
64,192,70851,1,0,0:0:0:0:
448,192,70851,1,0,0:0:0:0:
192,192,71028,1,0,0:0:0:0:
64,192,71028,1,0,0:0:0:0:
320,192,71204,1,0,0:0:0:0:
192,192,71204,1,0,0:0:0:0:
320,192,71381,1,0,0:0:0:0:
64,192,71381,1,0,0:0:0:0:
192,192,71557,1,0,0:0:0:0:
448,192,71557,1,0,0:0:0:0:
320,192,71734,1,0,0:0:0:0:
448,192,71734,1,0,0:0:0:0:
320,192,71910,1,0,0:0:0:0:
192,192,71910,1,0,0:0:0:0:
64,192,72087,1,0,0:0:0:0:
448,192,72087,1,0,0:0:0:0:
192,192,72263,1,0,0:0:0:0:
64,192,72263,1,0,0:0:0:0:
192,192,72440,1,0,0:0:0:0:
448,192,72440,1,0,0:0:0:0:
320,192,72616,1,0,0:0:0:0:
64,192,72616,1,0,0:0:0:0:
320,192,72793,1,0,0:0:0:0:
448,192,72793,1,0,0:0:0:0:
64,192,72969,1,0,0:0:0:0:
448,192,72969,1,0,0:0:0:0:
64,192,73146,1,0,0:0:0:0:
320,192,73146,1,0,0:0:0:0:
64,192,73322,1,0,0:0:0:0:
448,192,73322,1,0,0:0:0:0:
192,192,73498,1,0,0:0:0:0:
448,192,73498,1,0,0:0:0:0:
320,192,73675,1,0,0:0:0:0:
192,192,73675,1,0,0:0:0:0:
64,192,73851,1,0,0:0:0:0:
448,192,73851,1,0,0:0:0:0:
320,192,74028,1,0,0:0:0:0:
448,192,74028,1,0,0:0:0:0:
64,192,74204,1,0,0:0:0:0:
320,192,74204,1,0,0:0:0:0:
192,192,74381,1,0,0:0:0:0:
448,192,74381,1,0,0:0:0:0:
192,192,74557,1,0,0:0:0:0:
64,192,74557,1,0,0:0:0:0:
64,192,74734,1,0,0:0:0:0:
448,192,74734,1,0,0:0:0:0:
320,192,74910,1,0,0:0:0:0:
192,192,74910,1,0,0:0:0:0:
320,192,75087,1,0,0:0:0:0:
448,192,75087,1,0,0:0:0:0:
192,192,75263,1,0,0:0:0:0:
448,192,75263,1,0,0:0:0:0:
320,192,75440,1,0,0:0:0:0:
64,192,75440,1,0,0:0:0:0:
192,192,75616,1,0,0:0:0:0:
64,192,75616,1,0,0:0:0:0:
192,192,75793,1,0,0:0:0:0:
320,192,75793,1,0,0:0:0:0:
320,192,75969,1,0,0:0:0:0:
64,192,75969,1,0,0:0:0:0:
320,192,76146,1,0,0:0:0:0:
192,192,76146,1,0,0:0:0:0:
448,192,76322,1,0,0:0:0:0:
192,192,76322,1,0,0:0:0:0:
448,192,76498,1,0,0:0:0:0:
64,192,76498,1,0,0:0:0:0:
192,192,76675,1,0,0:0:0:0:
320,192,76675,1,0,0:0:0:0:
192,192,76851,1,0,0:0:0:0:
64,192,76851,1,0,0:0:0:0:
64,192,77028,1,0,0:0:0:0:
320,192,77028,1,0,0:0:0:0:
192,192,77204,1,0,0:0:0:0:
448,192,77204,1,0,0:0:0:0:
320,192,77381,1,0,0:0:0:0:
448,192,77381,1,0,0:0:0:0:
320,192,77557,1,0,0:0:0:0:
192,192,77557,1,0,0:0:0:0:
64,192,77734,1,0,0:0:0:0:
448,192,77734,1,0,0:0:0:0:
192,192,77910,1,0,0:0:0:0:
64,192,77910,1,0,0:0:0:0:
192,192,78087,1,0,0:0:0:0:
448,192,78087,1,0,0:0:0:0:
320,192,78263,1,0,0:0:0:0:
64,192,78263,1,0,0:0:0:0:
320,192,78440,1,0,0:0:0:0:
448,192,78440,1,0,0:0:0:0:
448,192,78616,1,0,0:0:0:0:
64,192,78616,1,0,0:0:0:0:
64,192,78793,1,0,0:0:0:0:
320,192,78793,1,0,0:0:0:0:
64,192,78969,1,0,0:0:0:0:
448,192,78969,1,0,0:0:0:0:
192,192,79146,1,0,0:0:0:0:
448,192,79146,1,0,0:0:0:0:
320,192,79322,1,0,0:0:0:0:
192,192,79322,1,0,0:0:0:0:
64,192,79498,1,0,0:0:0:0:
448,192,79498,1,0,0:0:0:0:
320,192,79675,1,0,0:0:0:0:
448,192,79675,1,0,0:0:0:0:
320,192,79851,1,0,0:0:0:0:
64,192,79851,1,0,0:0:0:0:
192,192,80028,1,0,0:0:0:0:
448,192,80028,1,0,0:0:0:0:
192,192,80204,1,0,0:0:0:0:
64,192,80204,1,0,0:0:0:0:
64,192,80381,1,0,0:0:0:0:
448,192,80381,1,0,0:0:0:0:
320,192,80557,1,0,0:0:0:0:
192,192,80557,1,0,0:0:0:0:
192,192,80910,1,0,0:0:0:0:
448,192,80910,1,0,0:0:0:0:
320,192,81087,1,0,0:0:0:0:
64,192,81087,1,0,0:0:0:0:
192,192,81175,128,0,81263:0:0:0:0:
320,192,81263,1,0,0:0:0:0:
448,192,81263,1,0,0:0:0:0:
448,192,81440,1,0,0:0:0:0:
64,192,81440,1,0,0:0:0:0:
64,192,81616,1,0,0:0:0:0:
192,192,81616,1,0,0:0:0:0:
320,192,81616,1,0,0:0:0:0:
448,192,81616,1,0,0:0:0:0:
192,192,81969,1,0,0:0:0:0:
64,192,81969,1,0,0:0:0:0:
320,192,82057,1,0,0:0:0:0:
64,192,82146,1,0,0:0:0:0:
448,192,82146,1,0,0:0:0:0:
64,192,82322,1,0,0:0:0:0:
448,192,82322,1,0,0:0:0:0:
192,192,82410,1,0,0:0:0:0:
448,192,82498,1,0,0:0:0:0:
320,192,82498,1,0,0:0:0:0:
64,192,82675,1,0,0:0:0:0:
320,192,82675,1,0,0:0:0:0:
448,192,82763,1,0,0:0:0:0:
64,192,82851,1,0,0:0:0:0:
320,192,82851,1,0,0:0:0:0:
192,192,83028,1,0,0:0:0:0:
64,192,83028,1,0,0:0:0:0:
448,192,83116,1,0,0:0:0:0:
320,192,83204,1,0,0:0:0:0:
192,192,83204,1,0,0:0:0:0:
320,192,83381,1,0,0:0:0:0:
192,192,83381,1,0,0:0:0:0:
64,192,83469,1,0,0:0:0:0:
320,192,83557,1,0,0:0:0:0:
448,192,83557,1,0,0:0:0:0:
192,192,83734,1,0,0:0:0:0:
448,192,83734,1,0,0:0:0:0:
64,192,83822,1,0,0:0:0:0:
192,192,83910,1,0,0:0:0:0:
448,192,83910,1,0,0:0:0:0:
192,192,84087,1,0,0:0:0:0:
64,192,84087,1,0,0:0:0:0:
320,192,84175,1,0,0:0:0:0:
64,192,84263,1,0,0:0:0:0:
448,192,84263,1,0,0:0:0:0:
192,192,84440,1,0,0:0:0:0:
448,192,84440,1,0,0:0:0:0:
320,192,84528,1,0,0:0:0:0:
64,192,84616,1,0,0:0:0:0:
448,192,84616,1,0,0:0:0:0:
192,192,84793,1,0,0:0:0:0:
64,192,84793,1,0,0:0:0:0:
448,192,84881,1,0,0:0:0:0:
192,192,84969,1,0,0:0:0:0:
320,192,84969,1,0,0:0:0:0:
320,192,85146,1,0,0:0:0:0:
192,192,85146,1,0,0:0:0:0:
64,192,85234,1,0,0:0:0:0:
320,192,85322,1,0,0:0:0:0:
448,192,85322,1,0,0:0:0:0:
448,192,85498,1,0,0:0:0:0:
64,192,85498,1,0,0:0:0:0:
192,192,85587,1,0,0:0:0:0:
64,192,85675,1,0,0:0:0:0:
448,192,85675,1,0,0:0:0:0:
192,192,85851,1,0,0:0:0:0:
64,192,85851,1,0,0:0:0:0:
320,192,85940,1,0,0:0:0:0:
192,192,86028,1,0,0:0:0:0:
448,192,86028,1,0,0:0:0:0:
448,192,86204,1,0,0:0:0:0:
192,192,86204,1,0,0:0:0:0:
64,192,86293,1,0,0:0:0:0:
448,192,86381,1,0,0:0:0:0:
320,192,86381,1,0,0:0:0:0:
320,192,86557,1,0,0:0:0:0:
64,192,86557,1,0,0:0:0:0:
448,192,86646,1,0,0:0:0:0:
320,192,86734,1,0,0:0:0:0:
64,192,86734,1,0,0:0:0:0:
192,192,86910,1,0,0:0:0:0:
64,192,86910,1,0,0:0:0:0:
448,192,86998,1,0,0:0:0:0:
192,192,87087,1,0,0:0:0:0:
320,192,87087,1,0,0:0:0:0:
320,192,87263,1,0,0:0:0:0:
64,192,87263,1,0,0:0:0:0:
448,192,87351,1,0,0:0:0:0:
320,192,87440,1,0,0:0:0:0:
192,192,87440,1,0,0:0:0:0:
192,192,87616,1,0,0:0:0:0:
64,192,87616,1,0,0:0:0:0:
320,192,87704,1,0,0:0:0:0:
64,192,87793,1,0,0:0:0:0:
448,192,87793,1,0,0:0:0:0:
448,192,87969,1,0,0:0:0:0:
64,192,87969,1,0,0:0:0:0:
192,192,88057,1,0,0:0:0:0:
320,192,88146,1,0,0:0:0:0:
448,192,88146,1,0,0:0:0:0:
320,192,88322,1,0,0:0:0:0:
64,192,88322,1,0,0:0:0:0:
192,192,88410,1,0,0:0:0:0:
320,192,88498,1,0,0:0:0:0:
64,192,88498,1,0,0:0:0:0:
192,192,88675,1,0,0:0:0:0:
64,192,88675,1,0,0:0:0:0:
320,192,88763,1,0,0:0:0:0:
192,192,88851,1,0,0:0:0:0:
448,192,88851,1,0,0:0:0:0:
448,192,89028,1,0,0:0:0:0:
192,192,89028,1,0,0:0:0:0:
64,192,89116,1,0,0:0:0:0:
320,192,89204,1,0,0:0:0:0:
448,192,89204,1,0,0:0:0:0:
320,192,89381,1,0,0:0:0:0:
192,192,89381,1,0,0:0:0:0:
448,192,89469,1,0,0:0:0:0:
320,192,89557,1,0,0:0:0:0:
192,192,89557,1,0,0:0:0:0:
192,192,89734,1,0,0:0:0:0:
64,192,89734,1,0,0:0:0:0:
320,192,89822,1,0,0:0:0:0:
64,192,89910,1,0,0:0:0:0:
448,192,89910,1,0,0:0:0:0:
320,192,90087,1,0,0:0:0:0:
64,192,90087,1,0,0:0:0:0:
192,192,90175,1,0,0:0:0:0:
64,192,90263,1,0,0:0:0:0:
448,192,90263,1,0,0:0:0:0:
320,192,90440,1,0,0:0:0:0:
448,192,90440,1,0,0:0:0:0:
64,192,90528,1,0,0:0:0:0:
320,192,90616,1,0,0:0:0:0:
192,192,90616,1,0,0:0:0:0:
192,192,90793,1,0,0:0:0:0:
320,192,90793,1,0,0:0:0:0:
448,192,90881,1,0,0:0:0:0:
192,192,90969,1,0,0:0:0:0:
64,192,90969,1,0,0:0:0:0:
64,192,91146,1,0,0:0:0:0:
448,192,91146,1,0,0:0:0:0:
320,192,91234,1,0,0:0:0:0:
64,192,91322,1,0,0:0:0:0:
448,192,91322,1,0,0:0:0:0:
448,192,91498,1,0,0:0:0:0:
320,192,91498,1,0,0:0:0:0:
192,192,91587,1,0,0:0:0:0:
64,192,91675,1,0,0:0:0:0:
320,192,91675,1,0,0:0:0:0:
320,192,91851,1,0,0:0:0:0:
64,192,91851,1,0,0:0:0:0:
448,192,91940,1,0,0:0:0:0:
192,192,92028,1,0,0:0:0:0:
64,192,92028,1,0,0:0:0:0:
320,192,92116,1,0,0:0:0:0:
192,192,92204,1,0,0:0:0:0:
448,192,92204,1,0,0:0:0:0:
64,192,92293,1,0,0:0:0:0:
448,192,92381,1,0,0:0:0:0:
192,192,92381,1,0,0:0:0:0:
320,192,92469,1,0,0:0:0:0:
448,192,92557,1,0,0:0:0:0:
64,192,92557,1,0,0:0:0:0:
192,192,92734,1,0,0:0:0:0:
64,192,92734,1,0,0:0:0:0:
448,192,92910,1,0,0:0:0:0:
320,192,92910,1,0,0:0:0:0:
192,192,92910,1,0,0:0:0:0:
64,192,92910,1,0,0:0:0:0:
320,192,93087,1,0,0:0:0:0:
64,192,93263,1,0,0:0:0:0:
448,192,93263,1,0,0:0:0:0:
320,192,93351,1,0,0:0:0:0:
192,192,93440,1,0,0:0:0:0:
64,192,93528,1,0,0:0:0:0:
448,192,93616,1,0,0:0:0:0:
320,192,93704,1,0,0:0:0:0:
192,192,93793,1,0,0:0:0:0:
64,192,93881,1,0,0:0:0:0:
448,192,93969,1,0,0:0:0:0:
320,192,94057,1,0,0:0:0:0:
192,192,94146,1,0,0:0:0:0:
64,192,94234,1,0,0:0:0:0:
448,192,94322,1,0,0:0:0:0:
320,192,94440,1,0,0:0:0:0:
192,192,94557,1,0,0:0:0:0:
64,192,94675,1,0,0:0:0:0:
448,192,94793,1,0,0:0:0:0:
320,192,94910,1,0,0:0:0:0:
192,192,95028,1,0,0:0:0:0:
64,192,95146,1,0,0:0:0:0:
448,192,95263,1,0,0:0:0:0:
320,192,95381,1,0,0:0:0:0:
192,192,95498,1,0,0:0:0:0:
64,192,95616,1,0,0:0:0:0:
448,192,95734,1,0,0:0:0:0:
320,192,95910,1,0,0:0:0:0:
192,192,96087,1,0,0:0:0:0:
64,192,96263,128,0,97146:0:0:0:0:
192,192,97146,1,0,0:0:0:0:
320,192,97263,1,0,0:0:0:0:
448,192,97381,1,0,0:0:0:0:
64,192,97498,1,0,0:0:0:0:
192,192,97587,1,0,0:0:0:0:
320,192,97675,1,0,0:0:0:0:
448,192,97763,1,0,0:0:0:0:
64,192,97851,1,0,0:0:0:0:
192,192,97940,1,0,0:0:0:0:
320,192,98028,1,0,0:0:0:0:
448,192,98116,1,0,0:0:0:0:
64,192,98204,1,0,0:0:0:0:
192,192,98293,1,0,0:0:0:0:
320,192,98381,1,0,0:0:0:0:
448,192,98469,1,0,0:0:0:0:
64,192,98557,1,0,0:0:0:0:
192,192,98616,1,0,0:0:0:0:
320,192,98675,1,0,0:0:0:0:
448,192,98734,1,0,0:0:0:0:
64,192,98793,1,0,0:0:0:0:
192,192,98851,1,0,0:0:0:0:
320,192,98910,1,0,0:0:0:0:
448,192,98910,1,0,0:0:0:0:
448,192,99616,1,0,0:0:0:0:
64,192,99616,1,0,0:0:0:0:
448,192,100498,1,0,0:0:0:0:
320,192,100498,1,0,0:0:0:0:
448,192,100675,1,0,0:0:0:0:
320,192,100675,1,0,0:0:0:0:
448,192,101028,1,0,0:0:0:0:
64,192,101028,1,0,0:0:0:0:
192,192,101734,1,0,0:0:0:0:
64,192,101734,1,0,0:0:0:0:
64,192,102440,1,0,0:0:0:0:
448,192,102440,1,0,0:0:0:0:
192,192,103322,1,0,0:0:0:0:
64,192,103322,1,0,0:0:0:0:
192,192,103498,1,0,0:0:0:0:
64,192,103498,1,0,0:0:0:0:
64,192,103851,1,0,0:0:0:0:
448,192,103851,1,0,0:0:0:0:
448,192,104557,1,0,0:0:0:0:
320,192,104557,1,0,0:0:0:0:
64,192,105263,1,0,0:0:0:0:
448,192,105263,1,0,0:0:0:0:
320,192,106146,1,0,0:0:0:0:
448,192,106146,1,0,0:0:0:0:
320,192,106322,1,0,0:0:0:0:
448,192,106322,1,0,0:0:0:0:
64,192,106675,1,0,0:0:0:0:
448,192,106675,1,0,0:0:0:0:
64,192,107381,1,0,0:0:0:0:
192,192,107381,1,0,0:0:0:0:
448,192,108087,1,0,0:0:0:0:
64,192,108087,1,0,0:0:0:0:
64,192,108969,1,0,0:0:0:0:
192,192,108969,1,0,0:0:0:0:
64,192,109146,1,0,0:0:0:0:
192,192,109146,1,0,0:0:0:0:
448,192,109498,1,0,0:0:0:0:
64,192,109498,1,0,0:0:0:0:
320,192,110204,1,0,0:0:0:0:
448,192,110204,1,0,0:0:0:0:
192,192,110557,1,0,0:0:0:0:
448,192,110910,1,0,0:0:0:0:
64,192,110910,1,0,0:0:0:0:
192,192,110910,1,0,0:0:0:0:
320,192,111263,1,0,0:0:0:0:
192,192,111616,1,0,0:0:0:0:
448,192,111793,1,0,0:0:0:0:
320,192,111793,1,0,0:0:0:0:
448,192,111969,1,0,0:0:0:0:
320,192,111969,1,0,0:0:0:0:
448,192,112322,1,0,0:0:0:0:
64,192,112322,1,0,0:0:0:0:
192,192,112322,1,0,0:0:0:0:
64,192,112675,1,0,0:0:0:0:
448,192,112851,1,0,0:0:0:0:
192,192,113028,1,0,0:0:0:0:
64,192,113028,1,0,0:0:0:0:
320,192,113381,1,0,0:0:0:0:
64,192,113734,1,0,0:0:0:0:
448,192,113734,1,0,0:0:0:0:
320,192,113734,1,0,0:0:0:0:
320,192,114087,1,0,0:0:0:0:
192,192,114087,1,0,0:0:0:0:
448,192,114440,1,0,0:0:0:0:
192,192,114616,1,0,0:0:0:0:
64,192,114616,1,0,0:0:0:0:
64,192,114793,1,0,0:0:0:0:
192,192,114793,128,0,115146:0:0:0:0:
64,192,115146,1,0,0:0:0:0:
448,192,115146,1,0,0:0:0:0:
320,192,115146,1,0,0:0:0:0:
448,192,115498,1,0,0:0:0:0:
64,192,115675,1,0,0:0:0:0:
448,192,115851,1,0,0:0:0:0:
320,192,115851,1,0,0:0:0:0:
192,192,116204,1,0,0:0:0:0:
64,192,116557,1,0,0:0:0:0:
448,192,116557,1,0,0:0:0:0:
192,192,116557,1,0,0:0:0:0:
320,192,116910,1,0,0:0:0:0:
192,192,117263,1,0,0:0:0:0:
320,192,117440,1,0,0:0:0:0:
448,192,117440,1,0,0:0:0:0:
320,192,117616,1,0,0:0:0:0:
448,192,117616,1,0,0:0:0:0:
64,192,117969,1,0,0:0:0:0:
448,192,117969,1,0,0:0:0:0:
192,192,117969,1,0,0:0:0:0:
64,192,118322,1,0,0:0:0:0:
448,192,118498,1,0,0:0:0:0:
64,192,118675,1,0,0:0:0:0:
192,192,118675,1,0,0:0:0:0:
320,192,119028,1,0,0:0:0:0:
448,192,119381,1,0,0:0:0:0:
64,192,119381,1,0,0:0:0:0:
320,192,119381,1,0,0:0:0:0:
192,192,119734,1,0,0:0:0:0:
320,192,119734,1,0,0:0:0:0:
64,192,119910,1,0,0:0:0:0:
320,192,120087,1,0,0:0:0:0:
192,192,120087,1,0,0:0:0:0:
64,192,120263,1,0,0:0:0:0:
192,192,120263,1,0,0:0:0:0:
64,192,120440,1,0,0:0:0:0:
192,192,120440,1,0,0:0:0:0:
320,192,120616,1,0,0:0:0:0:
448,192,120793,1,0,0:0:0:0:
64,192,120793,1,0,0:0:0:0:
448,192,120969,1,0,0:0:0:0:
448,192,121146,1,0,0:0:0:0:
192,192,121146,1,0,0:0:0:0:
192,192,121322,1,0,0:0:0:0:
192,192,121498,1,0,0:0:0:0:
448,192,121498,1,0,0:0:0:0:
448,192,121675,1,0,0:0:0:0:
192,192,121851,1,0,0:0:0:0:
64,192,121851,1,0,0:0:0:0:
192,192,122028,1,0,0:0:0:0:
448,192,122028,1,0,0:0:0:0:
448,192,122204,1,0,0:0:0:0:
192,192,122381,1,0,0:0:0:0:
64,192,122557,1,0,0:0:0:0:
192,192,122557,1,0,0:0:0:0:
320,192,122734,1,0,0:0:0:0:
448,192,122910,1,0,0:0:0:0:
64,192,122910,1,0,0:0:0:0:
448,192,123087,1,0,0:0:0:0:
192,192,123263,1,0,0:0:0:0:
64,192,123263,1,0,0:0:0:0:
448,192,123440,1,0,0:0:0:0:
64,192,123440,1,0,0:0:0:0:
448,192,123616,1,0,0:0:0:0:
64,192,123793,1,0,0:0:0:0:
448,192,123969,1,0,0:0:0:0:
64,192,123969,1,0,0:0:0:0:
448,192,124146,1,0,0:0:0:0:
320,192,124322,1,0,0:0:0:0:
64,192,124322,1,0,0:0:0:0:
64,192,124498,1,0,0:0:0:0:
320,192,124675,1,0,0:0:0:0:
448,192,124675,1,0,0:0:0:0:
320,192,124851,1,0,0:0:0:0:
64,192,124851,1,0,0:0:0:0:
64,192,125028,1,0,0:0:0:0:
320,192,125204,1,0,0:0:0:0:
448,192,125381,1,0,0:0:0:0:
320,192,125381,1,0,0:0:0:0:
64,192,125557,1,0,0:0:0:0:
320,192,125734,1,0,0:0:0:0:
192,192,125734,1,0,0:0:0:0:
192,192,125910,1,0,0:0:0:0:
320,192,126087,1,0,0:0:0:0:
448,192,126087,1,0,0:0:0:0:
320,192,126263,1,0,0:0:0:0:
192,192,126263,1,0,0:0:0:0:
192,192,126440,1,0,0:0:0:0:
320,192,126616,1,0,0:0:0:0:
320,192,126793,1,0,0:0:0:0:
192,192,126793,1,0,0:0:0:0:
192,192,126969,1,0,0:0:0:0:
64,192,127146,1,0,0:0:0:0:
320,192,127146,1,0,0:0:0:0:
64,192,127322,1,0,0:0:0:0:
448,192,127498,1,0,0:0:0:0:
320,192,127498,1,0,0:0:0:0:
320,192,127675,1,0,0:0:0:0:
64,192,127675,1,0,0:0:0:0:
64,192,127851,1,0,0:0:0:0:
320,192,128028,1,0,0:0:0:0:
320,192,128204,1,0,0:0:0:0:
448,192,128204,1,0,0:0:0:0:
192,192,128381,1,0,0:0:0:0:
64,192,128557,1,0,0:0:0:0:
448,192,128557,1,0,0:0:0:0:
64,192,128734,1,0,0:0:0:0:
320,192,128910,1,0,0:0:0:0:
448,192,128910,1,0,0:0:0:0:
448,192,129087,1,0,0:0:0:0:
64,192,129087,1,0,0:0:0:0:
64,192,129263,1,0,0:0:0:0:
448,192,129440,1,0,0:0:0:0:
448,192,129616,1,0,0:0:0:0:
64,192,129616,1,0,0:0:0:0:
64,192,129793,1,0,0:0:0:0:
192,192,129969,1,0,0:0:0:0:
448,192,129969,1,0,0:0:0:0:
448,192,130146,1,0,0:0:0:0:
192,192,130322,1,0,0:0:0:0:
64,192,130322,1,0,0:0:0:0:
192,192,130498,1,0,0:0:0:0:
448,192,130498,1,0,0:0:0:0:
448,192,130675,1,0,0:0:0:0:
192,192,130851,1,0,0:0:0:0:
192,192,131028,1,0,0:0:0:0:
64,192,131028,1,0,0:0:0:0:
448,192,131204,1,0,0:0:0:0:
320,192,131381,1,0,0:0:0:0:
192,192,131381,1,0,0:0:0:0:
320,192,131557,1,0,0:0:0:0:
192,192,131734,1,0,0:0:0:0:
64,192,131734,1,0,0:0:0:0:
320,192,131910,1,0,0:0:0:0:
192,192,131910,1,0,0:0:0:0:
320,192,132087,1,0,0:0:0:0:
192,192,132263,1,0,0:0:0:0:
320,192,132440,1,0,0:0:0:0:
192,192,132440,1,0,0:0:0:0:
320,192,132616,1,0,0:0:0:0:
192,192,132793,1,0,0:0:0:0:
448,192,132793,1,0,0:0:0:0:
448,192,132969,1,0,0:0:0:0:
192,192,133146,1,0,0:0:0:0:
64,192,133146,1,0,0:0:0:0:
192,192,133322,1,0,0:0:0:0:
448,192,133322,1,0,0:0:0:0:
448,192,133498,1,0,0:0:0:0:
192,192,133675,1,0,0:0:0:0:
64,192,133851,1,0,0:0:0:0:
192,192,133851,1,0,0:0:0:0:
320,192,134028,1,0,0:0:0:0:
448,192,134204,1,0,0:0:0:0:
64,192,134204,1,0,0:0:0:0:
448,192,134381,1,0,0:0:0:0:
192,192,134557,1,0,0:0:0:0:
64,192,134557,1,0,0:0:0:0:
448,192,134734,1,0,0:0:0:0:
64,192,134734,1,0,0:0:0:0:
448,192,134910,1,0,0:0:0:0:
64,192,135087,1,0,0:0:0:0:
448,192,135263,1,0,0:0:0:0:
64,192,135263,1,0,0:0:0:0:
448,192,135440,1,0,0:0:0:0:
320,192,135616,1,0,0:0:0:0:
64,192,135616,1,0,0:0:0:0:
64,192,135793,1,0,0:0:0:0:
320,192,135969,1,0,0:0:0:0:
448,192,135969,1,0,0:0:0:0:
320,192,136146,1,0,0:0:0:0:
64,192,136146,1,0,0:0:0:0:
64,192,136322,1,0,0:0:0:0:
320,192,136498,1,0,0:0:0:0:
448,192,136675,1,0,0:0:0:0:
320,192,136675,1,0,0:0:0:0:
64,192,136851,1,0,0:0:0:0:
320,192,137028,1,0,0:0:0:0:
192,192,137028,1,0,0:0:0:0:
192,192,137204,1,0,0:0:0:0:
320,192,137381,1,0,0:0:0:0:
448,192,137381,1,0,0:0:0:0:
320,192,137557,1,0,0:0:0:0:
192,192,137557,1,0,0:0:0:0:
192,192,137734,1,0,0:0:0:0:
320,192,137910,1,0,0:0:0:0:
320,192,138087,1,0,0:0:0:0:
192,192,138087,1,0,0:0:0:0:
192,192,138263,1,0,0:0:0:0:
64,192,138440,1,0,0:0:0:0:
320,192,138440,1,0,0:0:0:0:
64,192,138616,1,0,0:0:0:0:
448,192,138793,1,0,0:0:0:0:
320,192,138793,1,0,0:0:0:0:
320,192,138969,1,0,0:0:0:0:
64,192,138969,1,0,0:0:0:0:
64,192,139146,1,0,0:0:0:0:
320,192,139322,1,0,0:0:0:0:
320,192,139498,1,0,0:0:0:0:
448,192,139498,1,0,0:0:0:0:
192,192,139675,1,0,0:0:0:0:
64,192,139851,1,0,0:0:0:0:
448,192,139851,1,0,0:0:0:0:
64,192,140028,1,0,0:0:0:0:
320,192,140204,1,0,0:0:0:0:
448,192,140204,1,0,0:0:0:0:
448,192,140381,1,0,0:0:0:0:
64,192,140381,1,0,0:0:0:0:
64,192,140557,1,0,0:0:0:0:
448,192,140734,1,0,0:0:0:0:
448,192,140910,1,0,0:0:0:0:
64,192,140910,1,0,0:0:0:0:
64,192,141087,1,0,0:0:0:0:
192,192,141263,1,0,0:0:0:0:
448,192,141263,1,0,0:0:0:0:
448,192,141440,1,0,0:0:0:0:
192,192,141616,1,0,0:0:0:0:
64,192,141616,1,0,0:0:0:0:
192,192,141793,1,0,0:0:0:0:
448,192,141793,1,0,0:0:0:0:
448,192,141969,1,0,0:0:0:0:
192,192,142146,1,0,0:0:0:0:
192,192,142322,1,0,0:0:0:0:
64,192,142322,1,0,0:0:0:0:
448,192,142498,1,0,0:0:0:0:
320,192,142675,1,0,0:0:0:0:
192,192,142675,1,0,0:0:0:0:
320,192,142851,1,0,0:0:0:0:
192,192,143028,1,0,0:0:0:0:
64,192,143028,1,0,0:0:0:0:
320,192,143204,1,0,0:0:0:0:
192,192,143204,1,0,0:0:0:0:
448,192,143381,1,0,0:0:0:0:
320,192,143381,1,0,0:0:0:0:
192,192,143557,1,0,0:0:0:0:
320,192,143734,1,0,0:0:0:0:
192,192,143734,1,0,0:0:0:0:
320,192,143910,1,0,0:0:0:0:
448,192,143910,1,0,0:0:0:0:
448,192,144087,1,0,0:0:0:0:
192,192,144087,1,0,0:0:0:0:
64,192,144087,1,0,0:0:0:0:
64,192,144440,1,0,0:0:0:0:
192,192,144440,1,0,0:0:0:0:
448,192,144440,1,0,0:0:0:0:
448,192,144793,1,0,0:0:0:0:
192,192,144793,1,0,0:0:0:0:
64,192,144793,1,0,0:0:0:0:
448,192,145146,1,0,0:0:0:0:
192,192,145146,1,0,0:0:0:0:
64,192,145146,1,0,0:0:0:0:
320,192,145498,1,0,0:0:0:0:
192,192,145498,1,0,0:0:0:0:
64,192,145498,1,0,0:0:0:0:
320,192,145851,1,0,0:0:0:0:
192,192,145851,1,0,0:0:0:0:
64,192,145851,1,0,0:0:0:0:
320,192,146204,1,0,0:0:0:0:
192,192,146204,1,0,0:0:0:0:
64,192,146204,1,0,0:0:0:0:
320,192,146557,1,0,0:0:0:0:
192,192,146557,1,0,0:0:0:0:
64,192,146557,1,0,0:0:0:0:
320,192,146910,1,0,0:0:0:0:
448,192,146910,1,0,0:0:0:0:
64,192,146910,1,0,0:0:0:0:
320,192,147263,1,0,0:0:0:0:
448,192,147263,1,0,0:0:0:0:
64,192,147263,1,0,0:0:0:0:
320,192,147616,1,0,0:0:0:0:
448,192,147616,1,0,0:0:0:0:
64,192,147616,1,0,0:0:0:0:
320,192,147969,1,0,0:0:0:0:
448,192,147969,1,0,0:0:0:0:
64,192,147969,1,0,0:0:0:0:
192,192,148322,1,0,0:0:0:0:
320,192,148322,1,0,0:0:0:0:
448,192,148322,1,0,0:0:0:0:
192,192,148675,1,0,0:0:0:0:
320,192,148675,1,0,0:0:0:0:
448,192,148675,1,0,0:0:0:0:
192,192,149028,1,0,0:0:0:0:
320,192,149028,1,0,0:0:0:0:
448,192,149028,1,0,0:0:0:0:
192,192,149381,1,0,0:0:0:0:
320,192,149381,1,0,0:0:0:0:
448,192,149381,1,0,0:0:0:0:
448,192,149734,1,0,0:0:0:0:
192,192,149734,1,0,0:0:0:0:
64,192,149734,1,0,0:0:0:0:
448,192,150087,1,0,0:0:0:0:
192,192,150087,1,0,0:0:0:0:
64,192,150087,1,0,0:0:0:0:
448,192,150263,1,0,0:0:0:0:
192,192,150263,1,0,0:0:0:0:
64,192,150263,1,0,0:0:0:0:
448,192,150616,1,0,0:0:0:0:
192,192,150616,1,0,0:0:0:0:
64,192,150616,1,0,0:0:0:0:
448,192,150793,1,0,0:0:0:0:
192,192,150793,1,0,0:0:0:0:
64,192,150793,1,0,0:0:0:0:
192,192,150969,1,0,0:0:0:0:
64,192,150969,1,0,0:0:0:0:
448,192,151057,1,0,0:0:0:0:
192,192,151146,1,0,0:0:0:0:
64,192,151146,1,0,0:0:0:0:
320,192,151146,1,0,0:0:0:0:
320,192,151498,1,0,0:0:0:0:
192,192,151498,1,0,0:0:0:0:
64,192,151498,1,0,0:0:0:0:
64,192,151675,1,0,0:0:0:0:
192,192,151675,1,0,0:0:0:0:
320,192,151675,1,0,0:0:0:0:
320,192,152028,1,0,0:0:0:0:
192,192,152028,1,0,0:0:0:0:
64,192,152028,1,0,0:0:0:0:
320,192,152204,1,0,0:0:0:0:
192,192,152204,1,0,0:0:0:0:
64,192,152204,1,0,0:0:0:0:
320,192,152381,1,0,0:0:0:0:
448,192,152381,1,0,0:0:0:0:
192,192,152469,1,0,0:0:0:0:
320,192,152557,1,0,0:0:0:0:
448,192,152557,1,0,0:0:0:0:
64,192,152557,1,0,0:0:0:0:
320,192,152734,1,0,0:0:0:0:
64,192,152734,1,0,0:0:0:0:
192,192,152822,1,0,0:0:0:0:
448,192,152822,1,0,0:0:0:0:
448,192,152998,1,0,0:0:0:0:
64,192,152998,1,0,0:0:0:0:
192,192,153087,1,0,0:0:0:0:
320,192,153087,1,0,0:0:0:0:
192,192,153263,1,0,0:0:0:0:
448,192,153263,1,0,0:0:0:0:
320,192,153351,1,0,0:0:0:0:
64,192,153351,1,0,0:0:0:0:
320,192,153528,1,0,0:0:0:0:
192,192,153528,1,0,0:0:0:0:
64,192,153616,1,0,0:0:0:0:
448,192,153616,1,0,0:0:0:0:
320,192,153793,1,0,0:0:0:0:
64,192,153793,1,0,0:0:0:0:
448,192,153881,1,0,0:0:0:0:
192,192,153925,1,0,0:0:0:0:
320,192,153969,1,0,0:0:0:0:
64,192,153969,1,0,0:0:0:0:
448,192,154057,1,0,0:0:0:0:
192,192,154146,1,0,0:0:0:0:
448,192,154234,1,0,0:0:0:0:
192,192,154322,1,0,0:0:0:0:
64,192,154322,1,0,0:0:0:0:
320,192,154410,1,0,0:0:0:0:
448,192,154410,1,0,0:0:0:0:
192,192,154498,1,0,0:0:0:0:
64,192,154498,1,0,0:0:0:0:
320,192,154587,1,0,0:0:0:0:
448,192,154675,1,0,0:0:0:0:
192,192,154675,1,0,0:0:0:0:
64,192,154675,1,0,0:0:0:0:
320,192,154851,1,0,0:0:0:0:
448,192,154851,1,0,0:0:0:0:
448,192,155028,1,0,0:0:0:0:
320,192,155028,1,0,0:0:0:0:
192,192,155028,1,0,0:0:0:0:
64,192,155028,1,0,0:0:0:0:
192,192,155381,1,0,0:0:0:0:
64,192,155381,1,0,0:0:0:0:
320,192,155469,1,0,0:0:0:0:
448,192,155557,1,0,0:0:0:0:
192,192,155557,1,0,0:0:0:0:
64,192,155646,1,0,0:0:0:0:
320,192,155734,1,0,0:0:0:0:
448,192,155734,1,0,0:0:0:0:
64,192,155822,1,0,0:0:0:0:
448,192,155910,1,0,0:0:0:0:
192,192,155910,1,0,0:0:0:0:
64,192,155998,1,0,0:0:0:0:
320,192,156087,1,0,0:0:0:0:
448,192,156087,1,0,0:0:0:0:
192,192,156263,1,0,0:0:0:0:
64,192,156263,1,0,0:0:0:0:
320,192,156351,1,0,0:0:0:0:
192,192,156440,1,0,0:0:0:0:
64,192,156440,1,0,0:0:0:0:
448,192,156616,1,0,0:0:0:0:
192,192,156616,1,0,0:0:0:0:
64,192,156704,1,0,0:0:0:0:
320,192,156793,1,0,0:0:0:0:
448,192,156793,1,0,0:0:0:0:
192,192,156881,1,0,0:0:0:0:
64,192,156969,1,0,0:0:0:0:
320,192,156969,1,0,0:0:0:0:
448,192,157057,1,0,0:0:0:0:
192,192,157146,1,0,0:0:0:0:
64,192,157146,1,0,0:0:0:0:
448,192,157234,1,0,0:0:0:0:
64,192,157322,1,0,0:0:0:0:
320,192,157322,1,0,0:0:0:0:
448,192,157410,1,0,0:0:0:0:
192,192,157498,1,0,0:0:0:0:
64,192,157498,1,0,0:0:0:0:
320,192,157675,1,0,0:0:0:0:
448,192,157675,1,0,0:0:0:0:
64,192,157763,1,0,0:0:0:0:
320,192,157851,1,0,0:0:0:0:
448,192,157851,1,0,0:0:0:0:
192,192,157940,1,0,0:0:0:0:
320,192,158028,1,0,0:0:0:0:
64,192,158028,1,0,0:0:0:0:
448,192,158116,1,0,0:0:0:0:
192,192,158204,1,0,0:0:0:0:
64,192,158204,1,0,0:0:0:0:
448,192,158293,1,0,0:0:0:0:
320,192,158381,1,0,0:0:0:0:
192,192,158381,1,0,0:0:0:0:
64,192,158469,1,0,0:0:0:0:
448,192,158557,1,0,0:0:0:0:
320,192,158557,1,0,0:0:0:0:
64,192,158646,1,0,0:0:0:0:
192,192,158734,1,0,0:0:0:0:
320,192,158734,1,0,0:0:0:0:
64,192,158822,1,0,0:0:0:0:
320,192,158910,1,0,0:0:0:0:
448,192,158910,1,0,0:0:0:0:
192,192,159087,1,0,0:0:0:0:
64,192,159087,1,0,0:0:0:0:
448,192,159175,1,0,0:0:0:0:
192,192,159263,1,0,0:0:0:0:
64,192,159263,1,0,0:0:0:0:
320,192,159440,1,0,0:0:0:0:
192,192,159440,1,0,0:0:0:0:
448,192,159616,1,0,0:0:0:0:
64,192,159616,1,0,0:0:0:0:
192,192,159704,1,0,0:0:0:0:
320,192,159793,1,0,0:0:0:0:
448,192,159793,1,0,0:0:0:0:
64,192,159881,1,0,0:0:0:0:
448,192,159969,1,0,0:0:0:0:
320,192,159969,1,0,0:0:0:0:
192,192,160057,1,0,0:0:0:0:
320,192,160146,1,0,0:0:0:0:
64,192,160146,1,0,0:0:0:0:
192,192,160234,1,0,0:0:0:0:
448,192,160322,1,0,0:0:0:0:
64,192,160322,1,0,0:0:0:0:
320,192,160498,1,0,0:0:0:0:
448,192,160498,1,0,0:0:0:0:
192,192,160587,1,0,0:0:0:0:
448,192,160675,1,0,0:0:0:0:
320,192,160675,1,0,0:0:0:0:
192,192,160851,1,0,0:0:0:0:
64,192,160851,1,0,0:0:0:0:
320,192,160940,1,0,0:0:0:0:
192,192,161028,1,0,0:0:0:0:
64,192,161028,1,0,0:0:0:0:
448,192,161116,1,0,0:0:0:0:
320,192,161204,1,0,0:0:0:0:
64,192,161204,1,0,0:0:0:0:
192,192,161293,1,0,0:0:0:0:
320,192,161381,1,0,0:0:0:0:
448,192,161381,1,0,0:0:0:0:
192,192,161469,1,0,0:0:0:0:
320,192,161557,1,0,0:0:0:0:
64,192,161557,1,0,0:0:0:0:
192,192,161646,1,0,0:0:0:0:
320,192,161734,1,0,0:0:0:0:
448,192,161734,1,0,0:0:0:0:
192,192,161910,1,0,0:0:0:0:
64,192,161910,1,0,0:0:0:0:
448,192,161998,1,0,0:0:0:0:
192,192,162087,1,0,0:0:0:0:
64,192,162087,1,0,0:0:0:0:
320,192,162263,1,0,0:0:0:0:
64,192,162263,1,0,0:0:0:0:
192,192,162351,1,0,0:0:0:0:
320,192,162440,1,0,0:0:0:0:
448,192,162440,1,0,0:0:0:0:
64,192,162528,1,0,0:0:0:0:
192,192,162616,1,0,0:0:0:0:
448,192,162616,1,0,0:0:0:0:
320,192,162704,1,0,0:0:0:0:
192,192,162793,1,0,0:0:0:0:
64,192,162793,1,0,0:0:0:0:
320,192,162881,1,0,0:0:0:0:
192,192,162969,1,0,0:0:0:0:
448,192,162969,1,0,0:0:0:0:
320,192,163057,1,0,0:0:0:0:
192,192,163146,1,0,0:0:0:0:
64,192,163146,1,0,0:0:0:0:
320,192,163322,1,0,0:0:0:0:
448,192,163322,1,0,0:0:0:0:
192,192,163410,1,0,0:0:0:0:
320,192,163498,1,0,0:0:0:0:
448,192,163498,1,0,0:0:0:0:
64,192,163587,1,0,0:0:0:0:
448,192,163675,1,0,0:0:0:0:
192,192,163675,1,0,0:0:0:0:
320,192,163763,1,0,0:0:0:0:
192,192,163851,1,0,0:0:0:0:
64,192,163851,1,0,0:0:0:0:
320,192,163940,1,0,0:0:0:0:
448,192,164028,1,0,0:0:0:0:
64,192,164028,1,0,0:0:0:0:
192,192,164116,1,0,0:0:0:0:
448,192,164204,1,0,0:0:0:0:
320,192,164204,1,0,0:0:0:0:
192,192,164293,1,0,0:0:0:0:
64,192,164381,1,0,0:0:0:0:
448,192,164381,1,0,0:0:0:0:
192,192,164469,1,0,0:0:0:0:
320,192,164557,1,0,0:0:0:0:
448,192,164557,1,0,0:0:0:0:
192,192,164734,1,0,0:0:0:0:
64,192,164734,1,0,0:0:0:0:
320,192,164822,1,0,0:0:0:0:
192,192,164910,1,0,0:0:0:0:
64,192,164910,1,0,0:0:0:0:
320,192,165087,128,0,165175:0:0:0:0:
64,192,165263,1,0,0:0:0:0:
192,192,165351,1,0,0:0:0:0:
320,192,165440,1,0,0:0:0:0:
448,192,165440,1,0,0:0:0:0:
64,192,165528,1,0,0:0:0:0:
448,192,165616,1,0,0:0:0:0:
320,192,165616,1,0,0:0:0:0:
192,192,165704,1,0,0:0:0:0:
64,192,165793,1,0,0:0:0:0:
448,192,165881,128,0,165969:0:0:0:0:
64,192,165969,1,0,0:0:0:0:
320,192,165969,1,0,0:0:0:0:
192,192,166146,1,0,0:0:0:0:
64,192,166146,1,0,0:0:0:0:
320,192,166322,1,0,0:0:0:0:
192,192,166322,1,0,0:0:0:0:
448,192,166322,1,0,0:0:0:0:
64,192,166675,1,0,0:0:0:0:
448,192,166675,1,0,0:0:0:0:
192,192,166763,1,0,0:0:0:0:
64,192,166851,1,0,0:0:0:0:
320,192,166851,1,0,0:0:0:0:
320,192,167028,1,0,0:0:0:0:
192,192,167028,1,0,0:0:0:0:
448,192,167116,1,0,0:0:0:0:
64,192,167204,1,0,0:0:0:0:
320,192,167204,1,0,0:0:0:0:
448,192,167293,1,0,0:0:0:0:
320,192,167381,1,0,0:0:0:0:
192,192,167381,1,0,0:0:0:0:
192,192,167557,1,0,0:0:0:0:
64,192,167557,1,0,0:0:0:0:
448,192,167646,1,0,0:0:0:0:
192,192,167734,1,0,0:0:0:0:
64,192,167734,1,0,0:0:0:0:
448,192,167910,1,0,0:0:0:0:
320,192,167910,1,0,0:0:0:0:
192,192,167998,1,0,0:0:0:0:
448,192,168087,1,0,0:0:0:0:
64,192,168087,1,0,0:0:0:0:
320,192,168175,1,0,0:0:0:0:
448,192,168263,1,0,0:0:0:0:
192,192,168263,1,0,0:0:0:0:
64,192,168351,1,0,0:0:0:0:
192,192,168440,1,0,0:0:0:0:
320,192,168440,1,0,0:0:0:0:
64,192,168528,1,0,0:0:0:0:
448,192,168616,1,0,0:0:0:0:
192,192,168616,1,0,0:0:0:0:
64,192,168704,1,0,0:0:0:0:
320,192,168793,1,0,0:0:0:0:
448,192,168793,1,0,0:0:0:0:
192,192,168969,1,0,0:0:0:0:
64,192,168969,1,0,0:0:0:0:
448,192,169057,1,0,0:0:0:0:
192,192,169146,1,0,0:0:0:0:
64,192,169146,1,0,0:0:0:0:
320,192,169234,1,0,0:0:0:0:
448,192,169322,1,0,0:0:0:0:
192,192,169322,1,0,0:0:0:0:
64,192,169410,1,0,0:0:0:0:
192,192,169498,1,0,0:0:0:0:
320,192,169498,1,0,0:0:0:0:
64,192,169587,1,0,0:0:0:0:
192,192,169675,1,0,0:0:0:0:
448,192,169675,1,0,0:0:0:0:
320,192,169763,1,0,0:0:0:0:
448,192,169851,1,0,0:0:0:0:
64,192,169851,1,0,0:0:0:0:
320,192,169940,1,0,0:0:0:0:
192,192,170028,1,0,0:0:0:0:
448,192,170028,1,0,0:0:0:0:
320,192,170116,1,0,0:0:0:0:
192,192,170204,1,0,0:0:0:0:
64,192,170204,1,0,0:0:0:0:
320,192,170381,1,0,0:0:0:0:
448,192,170381,1,0,0:0:0:0:
192,192,170469,1,0,0:0:0:0:
320,192,170557,1,0,0:0:0:0:
448,192,170557,1,0,0:0:0:0:
64,192,170734,1,0,0:0:0:0:
448,192,170734,1,0,0:0:0:0:
192,192,170910,1,0,0:0:0:0:
320,192,170910,1,0,0:0:0:0:
64,192,170998,1,0,0:0:0:0:
192,192,171087,1,0,0:0:0:0:
448,192,171087,1,0,0:0:0:0:
320,192,171175,1,0,0:0:0:0:
448,192,171263,1,0,0:0:0:0:
192,192,171263,1,0,0:0:0:0:
64,192,171351,1,0,0:0:0:0:
448,192,171440,1,0,0:0:0:0:
320,192,171440,1,0,0:0:0:0:
64,192,171528,1,0,0:0:0:0:
320,192,171616,1,0,0:0:0:0:
192,192,171616,1,0,0:0:0:0:
320,192,171793,1,0,0:0:0:0:
64,192,171793,1,0,0:0:0:0:
448,192,171881,1,0,0:0:0:0:
64,192,171969,1,0,0:0:0:0:
320,192,171969,1,0,0:0:0:0:
448,192,172146,1,0,0:0:0:0:
192,192,172146,1,0,0:0:0:0:
64,192,172234,1,0,0:0:0:0:
192,192,172322,1,0,0:0:0:0:
448,192,172322,1,0,0:0:0:0:
320,192,172410,1,0,0:0:0:0:
448,192,172498,1,0,0:0:0:0:
64,192,172498,1,0,0:0:0:0:
192,192,172587,1,0,0:0:0:0:
64,192,172675,1,0,0:0:0:0:
320,192,172675,1,0,0:0:0:0:
192,192,172763,1,0,0:0:0:0:
64,192,172851,1,0,0:0:0:0:
448,192,172851,1,0,0:0:0:0:
192,192,172940,1,0,0:0:0:0:
320,192,173028,1,0,0:0:0:0:
448,192,173028,1,0,0:0:0:0:
192,192,173204,1,0,0:0:0:0:
64,192,173204,1,0,0:0:0:0:
320,192,173293,1,0,0:0:0:0:
192,192,173381,1,0,0:0:0:0:
64,192,173381,1,0,0:0:0:0:
448,192,173557,1,0,0:0:0:0:
320,192,173557,1,0,0:0:0:0:
192,192,173646,1,0,0:0:0:0:
320,192,173734,1,0,0:0:0:0:
64,192,173734,1,0,0:0:0:0:
192,192,173822,1,0,0:0:0:0:
64,192,173910,1,0,0:0:0:0:
448,192,173910,1,0,0:0:0:0:
320,192,173998,1,0,0:0:0:0:
448,192,174087,1,0,0:0:0:0:
192,192,174087,1,0,0:0:0:0:
320,192,174175,1,0,0:0:0:0:
448,192,174263,1,0,0:0:0:0:
64,192,174263,1,0,0:0:0:0:
320,192,174351,1,0,0:0:0:0:
192,192,174440,1,0,0:0:0:0:
64,192,174440,1,0,0:0:0:0:
320,192,174616,1,0,0:0:0:0:
448,192,174616,1,0,0:0:0:0:
192,192,174704,1,0,0:0:0:0:
320,192,174793,1,0,0:0:0:0:
448,192,174793,1,0,0:0:0:0:
64,192,174881,1,0,0:0:0:0:
320,192,174969,1,0,0:0:0:0:
192,192,174969,1,0,0:0:0:0:
448,192,175057,1,0,0:0:0:0:
64,192,175146,1,0,0:0:0:0:
320,192,175146,1,0,0:0:0:0:
448,192,175234,1,0,0:0:0:0:
320,192,175322,1,0,0:0:0:0:
192,192,175322,1,0,0:0:0:0:
64,192,175410,1,0,0:0:0:0:
192,192,175498,1,0,0:0:0:0:
448,192,175498,1,0,0:0:0:0:
64,192,175587,1,0,0:0:0:0:
192,192,175675,1,0,0:0:0:0:
320,192,175675,1,0,0:0:0:0:
64,192,175763,1,0,0:0:0:0:
320,192,175851,1,0,0:0:0:0:
448,192,175851,1,0,0:0:0:0:
192,192,176028,1,0,0:0:0:0:
64,192,176028,1,0,0:0:0:0:
448,192,176116,1,0,0:0:0:0:
192,192,176204,1,0,0:0:0:0:
64,192,176204,1,0,0:0:0:0:
320,192,176381,128,0,176469:0:0:0:0:
192,192,176557,1,0,0:0:0:0:
64,192,176646,1,0,0:0:0:0:
192,192,176734,1,0,0:0:0:0:
320,192,176734,1,0,0:0:0:0:
448,192,176822,5,0,0:0:0:0:
320,192,176910,1,0,0:0:0:0:
192,192,176910,1,0,0:0:0:0:
64,192,176998,1,0,0:0:0:0:
448,192,177087,1,0,0:0:0:0:
320,192,177175,128,0,177263:0:0:0:0:
192,192,177263,1,0,0:0:0:0:
64,192,177263,1,0,0:0:0:0:
320,192,177440,1,0,0:0:0:0:
192,192,177440,1,0,0:0:0:0:
320,192,177616,1,0,0:0:0:0:
448,192,177616,1,0,0:0:0:0:
192,192,177616,1,0,0:0:0:0:
64,192,177616,1,0,0:0:0:0:
320,192,177969,1,0,0:0:0:0:
448,192,177969,1,0,0:0:0:0:
64,192,178940,128,0,179028:0:0:0:0:
320,192,179028,1,0,0:0:0:0:
448,192,179028,1,0,0:0:0:0:
320,192,179204,1,0,0:0:0:0:
192,192,179204,1,0,0:0:0:0:
64,192,179381,1,0,0:0:0:0:
448,192,179381,1,0,0:0:0:0:
192,192,179557,1,0,0:0:0:0:
64,192,179557,1,0,0:0:0:0:
192,192,179734,1,0,0:0:0:0:
448,192,179734,1,0,0:0:0:0:
320,192,179910,1,0,0:0:0:0:
64,192,179910,1,0,0:0:0:0:
320,192,180087,1,0,0:0:0:0:
448,192,180087,1,0,0:0:0:0:
64,192,180263,1,0,0:0:0:0:
448,192,180263,1,0,0:0:0:0:
64,192,180440,1,0,0:0:0:0:
320,192,180440,1,0,0:0:0:0:
64,192,180616,1,0,0:0:0:0:
448,192,180616,1,0,0:0:0:0:
192,192,180793,1,0,0:0:0:0:
448,192,180793,1,0,0:0:0:0:
320,192,180969,1,0,0:0:0:0:
192,192,180969,1,0,0:0:0:0:
64,192,181146,1,0,0:0:0:0:
448,192,181146,1,0,0:0:0:0:
320,192,181322,1,0,0:0:0:0:
448,192,181322,1,0,0:0:0:0:
64,192,181498,1,0,0:0:0:0:
320,192,181498,1,0,0:0:0:0:
192,192,181675,1,0,0:0:0:0:
448,192,181675,1,0,0:0:0:0:
192,192,181851,1,0,0:0:0:0:
64,192,181851,1,0,0:0:0:0:
64,192,182028,1,0,0:0:0:0:
448,192,182028,1,0,0:0:0:0:
320,192,182204,1,0,0:0:0:0:
192,192,182204,1,0,0:0:0:0:
320,192,182381,1,0,0:0:0:0:
448,192,182381,1,0,0:0:0:0:
192,192,182557,1,0,0:0:0:0:
448,192,182557,1,0,0:0:0:0:
320,192,182734,1,0,0:0:0:0:
64,192,182734,1,0,0:0:0:0:
192,192,182910,1,0,0:0:0:0:
64,192,182910,1,0,0:0:0:0:
192,192,183087,1,0,0:0:0:0:
320,192,183087,1,0,0:0:0:0:
320,192,183263,1,0,0:0:0:0:
64,192,183263,1,0,0:0:0:0:
320,192,183440,1,0,0:0:0:0:
192,192,183440,1,0,0:0:0:0:
448,192,183616,1,0,0:0:0:0:
192,192,183616,1,0,0:0:0:0:
448,192,183793,1,0,0:0:0:0:
64,192,183793,1,0,0:0:0:0:
192,192,183969,1,0,0:0:0:0:
320,192,183969,1,0,0:0:0:0:
192,192,184146,1,0,0:0:0:0:
64,192,184146,1,0,0:0:0:0:
64,192,184322,1,0,0:0:0:0:
320,192,184322,1,0,0:0:0:0:
192,192,184498,1,0,0:0:0:0:
448,192,184498,1,0,0:0:0:0:
320,192,184675,1,0,0:0:0:0:
448,192,184675,1,0,0:0:0:0:
320,192,184851,1,0,0:0:0:0:
192,192,184851,1,0,0:0:0:0:
64,192,185028,1,0,0:0:0:0:
448,192,185028,1,0,0:0:0:0:
192,192,185204,1,0,0:0:0:0:
64,192,185204,1,0,0:0:0:0:
192,192,185381,1,0,0:0:0:0:
448,192,185381,1,0,0:0:0:0:
320,192,185557,1,0,0:0:0:0:
64,192,185557,1,0,0:0:0:0:
320,192,185734,1,0,0:0:0:0:
448,192,185734,1,0,0:0:0:0:
448,192,185910,1,0,0:0:0:0:
64,192,185910,1,0,0:0:0:0:
64,192,186087,1,0,0:0:0:0:
320,192,186087,1,0,0:0:0:0:
64,192,186263,1,0,0:0:0:0:
448,192,186263,1,0,0:0:0:0:
192,192,186440,1,0,0:0:0:0:
448,192,186440,1,0,0:0:0:0:
320,192,186616,1,0,0:0:0:0:
192,192,186616,1,0,0:0:0:0:
64,192,186793,1,0,0:0:0:0:
448,192,186793,1,0,0:0:0:0:
320,192,186969,1,0,0:0:0:0:
448,192,186969,1,0,0:0:0:0:
320,192,187146,1,0,0:0:0:0:
64,192,187146,1,0,0:0:0:0:
192,192,187322,1,0,0:0:0:0:
448,192,187322,1,0,0:0:0:0:
192,192,187498,1,0,0:0:0:0:
64,192,187498,1,0,0:0:0:0:
64,192,187675,1,0,0:0:0:0:
448,192,187675,1,0,0:0:0:0:
320,192,187851,1,0,0:0:0:0:
192,192,187851,1,0,0:0:0:0:
192,192,188204,1,0,0:0:0:0:
448,192,188204,1,0,0:0:0:0:
320,192,188381,1,0,0:0:0:0:
64,192,188381,1,0,0:0:0:0:
192,192,188469,128,0,188557:0:0:0:0:
320,192,188557,1,0,0:0:0:0:
448,192,188557,1,0,0:0:0:0:
448,192,188734,1,0,0:0:0:0:
64,192,188734,1,0,0:0:0:0:
64,192,188910,1,0,0:0:0:0:
192,192,188910,1,0,0:0:0:0:
320,192,188910,1,0,0:0:0:0:
448,192,188910,1,0,0:0:0:0:
192,192,189263,1,0,0:0:0:0:
64,192,189263,1,0,0:0:0:0:
320,192,189351,1,0,0:0:0:0:
64,192,189440,1,0,0:0:0:0:
448,192,189440,1,0,0:0:0:0:
64,192,189616,1,0,0:0:0:0:
448,192,189616,1,0,0:0:0:0:
192,192,189704,1,0,0:0:0:0:
448,192,189793,1,0,0:0:0:0:
320,192,189793,1,0,0:0:0:0:
64,192,189969,1,0,0:0:0:0:
320,192,189969,1,0,0:0:0:0:
448,192,190057,1,0,0:0:0:0:
64,192,190146,1,0,0:0:0:0:
320,192,190146,1,0,0:0:0:0:
192,192,190322,1,0,0:0:0:0:
64,192,190322,1,0,0:0:0:0:
448,192,190410,1,0,0:0:0:0:
320,192,190498,1,0,0:0:0:0:
192,192,190498,1,0,0:0:0:0:
320,192,190675,1,0,0:0:0:0:
192,192,190675,1,0,0:0:0:0:
64,192,190763,1,0,0:0:0:0:
320,192,190851,1,0,0:0:0:0:
448,192,190851,1,0,0:0:0:0:
192,192,191028,1,0,0:0:0:0:
448,192,191028,1,0,0:0:0:0:
64,192,191116,1,0,0:0:0:0:
192,192,191204,1,0,0:0:0:0:
448,192,191204,1,0,0:0:0:0:
192,192,191381,1,0,0:0:0:0:
64,192,191381,1,0,0:0:0:0:
320,192,191469,1,0,0:0:0:0:
64,192,191557,1,0,0:0:0:0:
448,192,191557,1,0,0:0:0:0:
192,192,191734,1,0,0:0:0:0:
448,192,191734,1,0,0:0:0:0:
320,192,191822,1,0,0:0:0:0:
64,192,191910,1,0,0:0:0:0:
448,192,191910,1,0,0:0:0:0:
192,192,192087,1,0,0:0:0:0:
64,192,192087,1,0,0:0:0:0:
448,192,192175,1,0,0:0:0:0:
192,192,192263,1,0,0:0:0:0:
320,192,192263,1,0,0:0:0:0:
320,192,192440,1,0,0:0:0:0:
192,192,192440,1,0,0:0:0:0:
64,192,192528,1,0,0:0:0:0:
320,192,192616,1,0,0:0:0:0:
448,192,192616,1,0,0:0:0:0:
448,192,192793,1,0,0:0:0:0:
64,192,192793,1,0,0:0:0:0:
192,192,192881,1,0,0:0:0:0:
64,192,192969,1,0,0:0:0:0:
448,192,192969,1,0,0:0:0:0:
192,192,193146,1,0,0:0:0:0:
64,192,193146,1,0,0:0:0:0:
320,192,193234,1,0,0:0:0:0:
192,192,193322,1,0,0:0:0:0:
448,192,193322,1,0,0:0:0:0:
448,192,193498,1,0,0:0:0:0:
192,192,193498,1,0,0:0:0:0:
64,192,193587,1,0,0:0:0:0:
448,192,193675,1,0,0:0:0:0:
320,192,193675,1,0,0:0:0:0:
320,192,193851,1,0,0:0:0:0:
64,192,193851,1,0,0:0:0:0:
448,192,193940,1,0,0:0:0:0:
320,192,194028,1,0,0:0:0:0:
64,192,194028,1,0,0:0:0:0:
192,192,194204,1,0,0:0:0:0:
64,192,194204,1,0,0:0:0:0:
448,192,194293,1,0,0:0:0:0:
192,192,194381,1,0,0:0:0:0:
320,192,194381,1,0,0:0:0:0:
320,192,194557,1,0,0:0:0:0:
64,192,194557,1,0,0:0:0:0:
448,192,194646,1,0,0:0:0:0:
320,192,194734,1,0,0:0:0:0:
192,192,194734,1,0,0:0:0:0:
192,192,194910,1,0,0:0:0:0:
64,192,194910,1,0,0:0:0:0:
320,192,194998,1,0,0:0:0:0:
64,192,195087,1,0,0:0:0:0:
448,192,195087,1,0,0:0:0:0:
448,192,195263,1,0,0:0:0:0:
64,192,195263,1,0,0:0:0:0:
192,192,195351,1,0,0:0:0:0:
320,192,195440,1,0,0:0:0:0:
448,192,195440,1,0,0:0:0:0:
320,192,195616,1,0,0:0:0:0:
64,192,195616,1,0,0:0:0:0:
192,192,195704,1,0,0:0:0:0:
320,192,195793,1,0,0:0:0:0:
64,192,195793,1,0,0:0:0:0:
192,192,195969,1,0,0:0:0:0:
64,192,195969,1,0,0:0:0:0:
320,192,196057,1,0,0:0:0:0:
192,192,196146,1,0,0:0:0:0:
448,192,196146,1,0,0:0:0:0:
448,192,196322,1,0,0:0:0:0:
192,192,196322,1,0,0:0:0:0:
64,192,196410,1,0,0:0:0:0:
320,192,196498,1,0,0:0:0:0:
448,192,196498,1,0,0:0:0:0:
320,192,196675,1,0,0:0:0:0:
192,192,196675,1,0,0:0:0:0:
448,192,196763,1,0,0:0:0:0:
320,192,196851,1,0,0:0:0:0:
192,192,196851,1,0,0:0:0:0:
192,192,197028,1,0,0:0:0:0:
64,192,197028,1,0,0:0:0:0:
320,192,197116,1,0,0:0:0:0:
64,192,197204,1,0,0:0:0:0:
448,192,197204,1,0,0:0:0:0:
320,192,197381,1,0,0:0:0:0:
64,192,197381,1,0,0:0:0:0:
192,192,197469,1,0,0:0:0:0:
64,192,197557,1,0,0:0:0:0:
448,192,197557,1,0,0:0:0:0:
320,192,197734,1,0,0:0:0:0:
448,192,197734,1,0,0:0:0:0:
64,192,197822,1,0,0:0:0:0:
320,192,197910,1,0,0:0:0:0:
192,192,197910,1,0,0:0:0:0:
192,192,198087,1,0,0:0:0:0:
320,192,198087,1,0,0:0:0:0:
448,192,198175,1,0,0:0:0:0:
192,192,198263,1,0,0:0:0:0:
64,192,198263,1,0,0:0:0:0:
64,192,198440,1,0,0:0:0:0:
448,192,198440,1,0,0:0:0:0:
320,192,198528,1,0,0:0:0:0:
64,192,198616,1,0,0:0:0:0:
448,192,198616,1,0,0:0:0:0:
448,192,198793,1,0,0:0:0:0:
320,192,198793,1,0,0:0:0:0:
192,192,198881,1,0,0:0:0:0:
64,192,198969,1,0,0:0:0:0:
320,192,198969,1,0,0:0:0:0:
320,192,199146,1,0,0:0:0:0:
64,192,199146,1,0,0:0:0:0:
448,192,199234,1,0,0:0:0:0:
192,192,199322,1,0,0:0:0:0:
64,192,199322,1,0,0:0:0:0:
320,192,199410,1,0,0:0:0:0:
192,192,199498,1,0,0:0:0:0:
448,192,199498,1,0,0:0:0:0:
64,192,199587,1,0,0:0:0:0:
448,192,199675,1,0,0:0:0:0:
192,192,199675,1,0,0:0:0:0:
320,192,199763,1,0,0:0:0:0:
448,192,199851,1,0,0:0:0:0:
64,192,199851,1,0,0:0:0:0:
192,192,200028,1,0,0:0:0:0:
64,192,200028,1,0,0:0:0:0:
448,192,200204,1,0,0:0:0:0:
320,192,200204,1,0,0:0:0:0:
192,192,200204,1,0,0:0:0:0:
64,192,200204,1,0,0:0:0:0:
320,192,200381,1,0,0:0:0:0:
448,192,200557,1,0,0:0:0:0:
320,192,200557,1,0,0:0:0:0:
