osu file format v14

[General]
AudioFilename: audio.mp3
AudioLeadIn: 0
PreviewTime: 132327
Countdown: 0
SampleSet: Normal
StackLeniency: 0.7
Mode: 0
LetterboxInBreaks: 0
WidescreenStoryboard: 1

[Editor]
Bookmarks: 88289,110258,132327,154396,176465,198534,220603,242672,264741,286810,308879,330948,353017,375086
DistanceSpacing: 1
BeatDivisor: 4
GridSize: 4
TimelineZoom: 1.6

[Metadata]
Title:Exhale
TitleUnicode:Exhale
Artist:Rob Gasser & Blend
ArtistUnicode:Rob Gasser & Blend
Creator:Poggo
Version:Exhalation
Source:
Tags:
BeatmapID:1087141
BeatmapSetID:511410

[Difficulty]
HPDrainRate:6
CircleSize:4
OverallDifficulty:8
ApproachRate:9
SliderMultiplier:2
SliderTickRate:1

[Events]
//Background and Video events
0,0,"2M-gwIf7YtQ.jpg",0,0
//Break Periods
//Storyboard Layer 0 (Background)
//Storyboard Layer 1 (Fail)
//Storyboard Layer 2 (Pass)
//Storyboard Layer 3 (Foreground)
//Storyboard Sound Samples

[TimingPoints]
44152,344.827586206897,4,2,1,20,1,0
66220,-90.9090909090909,4,1,1,40,0,0

[Colours]
Combo1 : 255,255,21
Combo2 : 0,136,68
Combo3 : 47,140,255
Combo4 : 0,0,255
Combo5 : 255,128,0
Combo6 : 255,64,64

[HitObjects]
376,172,44151,5,0,0:0:0:0:
420,84,44324,1,0,0:0:0:0:
92,84,44669,1,0,0:0:0:0:
136,172,44841,1,0,0:0:0:0:
256,12,45186,2,0,L|256:116,1,100
432,342,45703,5,0,0:0:0:0:
505,241,45876,1,0,0:0:0:0:
313,303,46220,1,0,0:0:0:0:
432,140,46565,1,0,0:0:0:0:
313,178,46910,5,0,0:0:0:0:
240,108,47083,1,0,0:0:0:0:
220,308,47427,1,0,0:0:0:0:
118,305,47600,1,0,0:0:0:0:
112,104,47945,1,0,0:0:0:0:
41,178,48117,1,0,0:0:0:0:
256,304,48462,5,0,0:0:0:0:
352,272,48634,2,0,P|416:200|224:140,1,400
313,178,49669,5,0,0:0:0:0:
313,178,49841,1,0,0:0:0:0:
30,178,50186,1,0,0:0:0:0:
30,178,50358,1,0,0:0:0:0:
172,37,50703,1,0,0:0:0:0:
172,37,50876,1,0,0:0:0:0:
172,320,51220,5,0,0:0:0:0:
172,320,51393,2,0,P|332:356|368:136,1,400
344,28,52427,6,0,P|356:80|336:124,1,100
188,72,52772,2,0,P|233:100|250:145,1,100
76,184,53117,2,0,P|128:172|172:192,2,100
332,320,53807,5,0,0:0:0:0:
360,224,53979,1,0,0:0:0:0:
312,136,54152,1,0,0:0:0:0:
220,100,54324,2,0,L|121:40,1,100
47,102,54669,2,0,L|145:161,1,100
223,309,55186,5,0,0:0:0:0:
304,198,55358,1,0,0:0:0:0:
304,336,55531,1,0,0:0:0:0:
223,224,55703,1,0,0:0:0:0:
353,267,55876,1,0,0:0:0:0:
223,309,56048,2,0,P|167:305|119:329,2,100
428,312,56565,6,0,P|444:252|340:180,1,200
256,252,57083,1,0,0:0:0:0:
220,160,57255,1,0,0:0:0:0:
40,272,57600,1,0,0:0:0:0:
124,64,57945,5,0,0:0:0:0:
204,124,58117,1,0,0:0:0:0:
284,64,58289,1,0,0:0:0:0:
368,120,58462,1,0,0:0:0:0:
452,64,58634,2,0,P|464:116|448:160,1,100
368,300,58979,2,0,P|356:248|372:204,1,100
447,63,59324,6,0,B|384:28|384:28|332:72|263:55,1,200
164,72,59841,1,0,0:0:0:0:
92,144,60014,1,0,0:0:0:0:
100,244,60186,1,0,0:0:0:0:
184,296,60358,1,0,0:0:0:0:
280,272,60531,1,0,0:0:0:0:
336,192,60703,6,0,P|364:148|464:232,1,200
396,272,61220,2,0,P|336:312|296:312,1,100
256,156,61565,1,0,0:0:0:0:
112,272,61738,2,0,P|172:312|212:312,1,100
256,156,62083,6,0,P|292:48|380:36,1,200
256,228,62772,2,0,P|220:336|132:348,1,200
160,252,63289,1,0,0:0:0:0:
184,156,63462,5,0,0:0:0:0:
256,228,63634,1,0,0:0:0:0:
328,156,63807,1,0,0:0:0:0:
352,252,63979,2,0,P|400:272|459:251,1,100
256,192,64238,12,0,66134,0:0:0:0:
