osu file format v14

[General]
AudioFilename: audio.mp3
AudioLeadIn: 0
PreviewTime: 338
Countdown: 0
SampleSet: Soft
StackLeniency: 0.3
Mode: 0
LetterboxInBreaks: 0
WidescreenStoryboard: 0

[Editor]
Bookmarks: 651,10651,20651,30651,50651,60651,70651,80651,90651,100651,110651,120651,130651,140651
DistanceSpacing: 0.5
BeatDivisor: 6
GridSize: 32
TimelineZoom: 1.600001

[Metadata]
Title:"SHIA LABEOUF" LIVE
TitleUnicode:"SHIA LABEOUF" LIVE
Artist:Rob Cantor
ArtistUnicode:Rob Cantor
Creator:Striderin
Version:Actual Cannibal Shia LaBeouf
Source:
Tags:English murder ballad true story knightc0re knightcore yuuya_ke
BeatmapID:2363770
BeatmapSetID:1131644

[Difficulty]
HPDrainRate:6
CircleSize:5
OverallDifficulty:8
ApproachRate:9
SliderMultiplier:2
SliderTickRate:2

[Events]
//Background and Video events
0,0,"maxresdefault.jpg",0,0
Video,-1750,"shiavid.mp4"
//Break Periods
//Storyboard Layer 0 (Background)
//Storyboard Layer 1 (Fail)
//Storyboard Layer 2 (Pass)
//Storyboard Layer 3 (Foreground)
//Storyboard Layer 4 (Overlay)
//Storyboard Sound Samples

[TimingPoints]
651,625,4,2,1,50,1,0
1901,-133.333333333333,4,2,1,50,0,0
3151,-100,4,2,1,50,0,0
4401,-133.333333333333,4,2,1,50,0,0
5651,-100,4,2,1,50,0,0
6901,-133.333333333333,4,2,1,50,0,0
8151,-400,4,2,1,50,0,0
10651,-100,4,2,1,50,0,0
18151,-200,4,2,1,50,0,0
20494,-200,4,2,99,5,0,0
20651,-100,4,2,1,50,0,0
22526,-133.333333333333,4,2,1,50,0,0
23151,-100,4,2,1,50,0,0
24609,-100,4,2,99,5,0,0
24713,-100,4,2,1,50,0,0
24921,-100,4,2,99,5,0,0
25026,-100,4,2,1,50,0,0
30026,-200,4,2,1,50,0,0
30651,-100,4,2,1,50,0,0
50651,-133.333333333333,4,2,1,50,0,0
61171,-133.333333333333,4,2,99,5,0,0
61276,-133.333333333333,4,2,1,50,0,0
62526,-200,4,2,1,50,0,0
63046,-200,4,2,99,5,0,0
63151,-133.333333333333,4,2,1,50,0,0
63671,-133.333333333333,4,2,99,5,0,0
63776,-133.333333333333,4,2,1,50,0,0
66171,-133.333333333333,4,2,99,5,0,0
66276,-133.333333333333,4,2,1,50,0,0
67526,-100,4,2,1,50,0,0
67838,-66.6666666666667,4,2,1,50,0,0
68151,-100,4,2,1,50,0,0
71901,-200,4,2,1,50,0,0
73151,-100,4,2,1,50,0,0
74401,-200,4,2,1,50,0,0
75651,-100,4,2,1,50,0,0
77421,-100,4,2,99,5,0,0
77526,-80,4,2,1,50,0,0
78046,-80,4,2,99,5,0,0
78151,-100,4,2,1,50,0,0
86901,-80,4,2,1,50,0,0
88151,-100,4,2,1,50,0,0
90546,-100,4,2,99,5,0,0
90651,-66.6666666666667,4,2,1,50,0,1
100651,-133.333333333333,4,2,1,50,0,0
110338,-57.1428571428571,4,2,1,50,0,0
110651,-57.1428571428571,4,2,1,50,0,1
120494,-57.1428571428571,4,2,1,50,0,0
120651,-50,4,2,1,50,0,1
130494,-57.1428571428571,4,2,1,50,0,0
130651,-50,4,2,1,50,0,1
138151,-50,4,2,1,50,0,0
139401,-50,4,2,1,50,0,1
140651,-133.333333333333,4,2,1,50,0,0
146432,-133.333333333333,4,2,99,5,0,0
146588,-133.333333333333,4,2,1,50,0,0
146744,-133.333333333333,4,2,99,5,0,0
146901,-133.333333333333,4,2,1,50,0,0
148151,-117.647058823529,4,2,1,50,0,0
148463,-100,4,2,1,45,0,0
148776,-100,4,2,1,40,0,0
149088,-100,4,2,1,35,0,0
149401,-100,4,2,1,30,0,0
149713,-100,4,2,1,25,0,0
150026,-100,4,2,1,20,0,0
150338,-100,4,2,1,15,0,0
150651,-100,4,2,1,10,0,0
150963,-100,4,2,1,5,0,0
153151,-100,4,2,99,5,0,0

[Colours]
Combo1 : 185,158,104
Combo2 : 90,102,45
Combo3 : 205,73,58
Combo4 : 45,72,57
Combo5 : 118,37,53

[HitObjects]
126,213,651,6,0,B|140:170|144:106|144:106|161:169|185:205|185:205|157:220|157:220|166:292,1,300
74,261,1901,2,0,B|84:227|87:178|87:178|100:227|119:254|119:254|97:266|97:266|104:321,1,225.000008583069
386,213,3151,22,0,B|372:170|368:106|368:106|351:169|327:205|327:205|355:220|355:220|346:292,1,300
438,261,4401,2,0,B|427:227|424:178|424:178|411:227|392:254|392:254|414:266|414:266|407:321,1,225.000008583069
184,98,5651,22,0,P|232:44|273:183,1,300
319,326,6901,2,0,P|241:312|153:337,1,150.000005722046
6,329,7838,1,0,0:0:0:0:
6,329,8151,22,0,B|12:339|2:366|9:380,1,50
434,278,10651,53,0,1:0:0:0:
212,313,11276,1,8,0:0:0:0:
307,182,11796,1,0,1:0:0:0:
314,221,11901,1,0,1:0:0:0:
434,278,12213,1,0,1:0:0:0:
212,313,12526,1,8,0:0:0:0:
330,105,13151,21,0,1:0:0:0:
96,62,13776,1,8,0:0:0:0:
191,162,14296,1,0,1:0:0:0:
184,201,14401,1,0,1:0:0:0:
330,105,14713,1,0,1:0:0:0:
96,62,15026,1,8,0:0:0:0:
330,105,15338,1,0,1:0:0:0:
473,18,15651,21,0,1:0:0:0:
425,252,16276,1,8,0:0:0:0:
330,105,16796,1,0,1:0:0:0:
368,115,16901,1,0,1:0:0:0:
473,18,17213,1,0,1:0:0:0:
425,252,17526,1,8,0:0:0:0:
289,214,17838,1,0,0:0:0:0:
108,273,18151,22,0,B|90:305|133:339|113:374,1,100,0|0,1:0|0:0,0:0:0:0:
108,273,20026,53,8,0:0:0:0:
185,328,20182,2,0,L|253:323,1,50,0|0,1:0|0:0,0:0:0:0:
290,277,20651,21,0,1:0:0:0:
374,381,20963,1,0,1:0:0:0:
290,277,21276,2,0,P|296:222|306:161,1,100,8|0,0:0|0:0,0:0:0:0:
184,104,21796,1,0,1:0:0:0:
198,141,21901,2,0,P|203:187|206:254,1,100,0|0,1:0|0:0,0:0:0:0:
406,158,22526,2,0,P|404:208|396:293,1,125.000004768372,8|0,0:0|0:0,0:0:0:0:
446,205,23151,21,0,1:0:0:0:
297,80,23776,2,0,P|231:71|174:65,1,100,8|0,0:0|0:0,0:0:0:0:
67,159,24296,1,0,1:0:0:0:
106,148,24401,2,0,P|153:146|200:147,1,66.6666666666667,0|0,1:0|0:0,0:0:0:0:
228,200,24713,2,0,P|279:206|321:214,1,66.6666666666667,0|0,1:0|0:0,0:0:0:0:
361,173,25026,1,8,0:0:0:0:
261,339,25338,1,0,1:0:0:0:
72,251,25651,5,0,1:0:0:0:
158,113,26276,2,0,P|152:60|140:4,1,100,8|0,0:0|0:0,0:0:0:0:
268,80,26796,1,0,1:0:0:0:
254,117,26901,2,0,P|243:205|241:245,1,100,0|0,1:0|0:0,0:0:0:0:
361,122,27526,1,8,0:0:0:0:
415,206,27838,1,0,0:0:0:0:
118,264,28151,21,0,1:0:0:0:
158,113,28463,1,8,0:0:0:0:
328,196,28776,21,8,0:0:0:0:
372,137,28932,2,0,L|477:128,1,100,0|0,1:0|1:0,0:0:0:0:
387,247,29401,5,8,0:3:0:0:
328,196,29557,2,0,L|228:204,1,100,8|4,0:3|0:3,0:0:0:0:
341,307,30026,22,0,P|348:376|348:396,1,75,4|0,0:3|0:0,0:0:0:0:
310,290,30651,53,2,1:2:0:0:
247,331,30807,1,2,0:0:0:0:
173,317,30963,1,2,0:0:0:0:
133,253,31119,1,2,0:0:0:0:
314,212,31276,1,10,0:0:0:0:
154,178,31588,2,0,P|146:143|145:95,1,66.6666666666667,0|0,0:0|1:0,0:0:0:0:
145,11,31901,21,0,1:0:0:0:
133,85,32057,1,0,0:0:0:0:
323,159,32213,1,0,1:0:0:0:
250,174,32369,1,0,0:0:0:0:
386,199,32526,2,0,L|382:266,1,50,8|0,0:0|0:0,0:0:0:0:
457,176,32838,2,0,L|461:99,1,50
439,299,33151,5,2,1:2:0:0:
383,248,33307,1,2,0:0:0:0:
308,253,33463,1,2,0:0:0:0:
263,312,33619,1,2,0:0:0:0:
91,337,33776,1,10,0:0:0:0:
233,243,34088,2,0,P|230:197|218:159,1,66.6666666666667,0|0,0:0|1:0,0:0:0:0:
180,94,34401,21,0,1:0:0:0:
202,165,34557,1,0,0:0:0:0:
40,296,34713,1,0,1:0:0:0:
60,224,34869,1,0,0:0:0:0:
81,359,35026,1,8,0:0:0:0:
130,193,35338,1,0,1:0:0:0:
40,41,35651,21,2,1:2:0:0:
76,106,35807,1,2,0:0:0:0:
149,120,35963,1,2,0:0:0:0:
207,72,36119,1,2,0:0:0:0:
280,87,36276,2,0,L|354:103,1,50,10|0,0:0|0:0,0:0:0:0:
456,64,36588,2,0,P|376:96|357:241,1,200,2|0,0:0|1:0,0:0:0:0:
83,66,37526,1,8,0:0:0:0:
358,53,38151,5,2,1:2:0:0:
348,127,38307,1,2,0:0:0:0:
338,201,38463,1,2,0:0:0:0:
111,133,38776,21,10,0:0:0:0:
121,207,38932,1,2,0:0:0:0:
131,281,39088,1,2,0:0:0:0:
244,38,39401,21,2,1:2:0:0:
210,105,39557,1,2,0:0:0:0:
222,236,39713,1,2,1:2:0:0:
256,169,39869,1,2,0:0:0:0:
266,301,40026,1,10,0:0:0:0:
256,169,40338,1,0,1:0:0:0:
415,242,40651,5,2,1:2:0:0:
394,169,40807,1,2,0:0:0:0:
325,139,40963,1,2,0:0:0:0:
256,169,41119,1,2,0:0:0:0:
380,308,41276,2,0,P|276:315|205:330,1,166.666666666667,10|0,0:0|1:0,0:0:0:0:
121,294,41901,21,0,1:0:0:0:
195,310,42057,1,0,0:0:0:0:
332,192,42213,1,0,1:0:0:0:
258,208,42369,1,0,0:0:0:0:
369,120,42526,1,8,0:0:0:0:
188,165,42838,2,0,L|116:155,1,50
222,22,43151,21,2,1:2:0:0:
233,95,43307,1,2,0:0:0:0:
13,268,43619,5,2,0:0:0:0:
24,194,43776,2,0,P|118:173|211:163,1,166.666666666667,10|0,0:0|1:0,0:0:0:0:
279,202,44401,21,0,1:0:0:0:
206,185,44557,1,0,0:0:0:0:
391,111,44713,1,0,1:0:0:0:
319,131,44869,1,0,0:0:0:0:
461,193,45026,2,0,L|466:144,1,50,8|0,0:0|0:0,0:0:0:0:
487,266,45338,1,0,1:0:0:0:
242,331,45651,21,2,1:2:0:0:
274,263,45807,1,2,0:0:0:0:
347,246,45963,1,2,0:0:0:0:
411,283,46119,1,2,0:0:0:0:
421,357,46276,2,0,L|362:366,1,50,10|0,0:0|0:0,0:0:0:0:
242,331,46588,2,0,P|181:281|44:318,1,200,2|0,0:0|1:0,0:0:0:0:
305,90,47526,2,0,L|295:199,1,100,8|0,0:0|0:0,0:0:0:0:
97,188,48151,5,2,0:0:0:0:
168,164,48307,1,2,0:0:0:0:
224,212,48463,1,2,0:0:0:0:
449,269,48776,21,2,0:0:0:0:
378,245,48932,1,2,0:0:0:0:
322,293,49088,1,2,0:0:0:0:
224,212,49401,21,2,0:0:0:0:
295,189,49557,1,2,0:0:0:0:
251,316,49713,1,2,0:0:0:0:
322,293,49869,1,2,0:0:0:0:
58,186,50651,22,0,B|137:167|142:197|184:214|188:243|278:219,1,225.000008583069
375,173,51901,1,0,0:0:0:0:
437,274,52213,22,0,B|358:255|353:285|311:302|307:331|199:341|140:275|153:168|229:123|297:143,1,450.000017166138
435,125,54401,22,0,P|400:136|370:158,1,75.0000028610231
324,75,55026,2,0,P|302:105|291:141,1,75.0000028610231
212,99,55651,6,0,B|193:178|223:183|240:225|269:229|245:319,1,225.000008583069
169,362,56901,1,0,0:0:0:0:
101,303,57213,22,0,P|263:330|321:331,1,200.000007629395
333,329,58151,21,0,1:0:0:0:
368,161,58463,1,8,0:0:0:0:
333,329,58776,1,8,0:0:0:0:
275,261,58932,2,0,L|159:268,1,112.500004291535,0|0,1:0|0:0,0:0:0:0:
275,261,59869,5,0,1:0:0:0:
310,181,60026,1,0,1:0:0:0:
409,340,60338,1,8,0:0:0:0:
310,181,60651,22,0,P|303:127|301:38,1,125.000004768372,0|0,1:0|0:0,0:0:0:0:
389,13,61276,2,0,P|387:50|384:87,1,75.0000028610231,8|0,0:0|0:0,0:0:0:0:
462,165,61796,1,0,1:0:0:0:
457,199,61901,1,0,1:0:0:0:
310,181,62213,1,0,1:0:0:0:
215,256,62526,2,0,L|129:264,1,83.3333333333333,8|0,0:0|0:0,0:0:0:0:
32,188,63151,22,0,P|115:188|177:197,1,125.000004768372,0|0,1:0|0:0,0:0:0:0:
218,108,63776,2,0,B|179:105|179:105|141:123,1,75.0000028610231,8|0,0:0|0:0,0:0:0:0:
77,40,64296,1,0,1:0:0:0:
71,75,64401,1,0,1:0:0:0:
218,108,64713,1,0,1:0:0:0:
15,5,65026,1,8,0:0:0:0:
218,108,65338,1,0,1:0:0:0:
323,70,65651,6,0,P|333:132|336:204,1,125.000004768372,0|0,1:0|0:0,0:0:0:0:
266,248,66276,2,0,P|262:290|262:339,1,75.0000028610231,8|0,0:0|0:0,0:0:0:0:
380,324,66796,1,0,1:0:0:0:
385,358,66901,1,0,1:0:0:0:
448,271,67213,6,0,P|451:240|456:215,1,37.5000014305115,0|0,1:0|0:0,0:0:0:0:
352,233,67526,22,0,P|345:202|344:167,1,50,8|0,0:0|0:0,0:0:0:0:
211,216,67838,38,0,P|184:162|186:116,1,75.0000028610231
0,296,68151,21,0,1:0:0:0:
37,175,70026,5,8,0:0:0:0:
111,229,70182,2,0,B|129:218|129:218|156:230|156:230|177:212|177:212|208:221,1,100,0|0,1:0|0:0,0:0:0:0:
311,119,70651,21,2,1:2:0:0:
264,177,70807,1,2,0:0:0:0:
321,225,70963,1,2,0:0:0:0:
300,297,71119,1,2,0:0:0:0:
389,193,71276,1,10,0:0:0:0:
448,307,71796,53,0,1:0:0:0:
423,329,71901,2,0,L|419:381,1,50,0|0,1:0|1:0,0:0:0:0:
342,277,72526,2,0,L|345:326,1,50,8|0,0:0|0:0,0:0:0:0:
178,232,73151,53,2,1:2:0:0:
146,299,73307,1,2,0:0:0:0:
72,316,73463,1,2,0:0:0:0:
11,271,73619,1,2,0:0:0:0:
19,117,73776,2,0,B|46:115|46:115|88:132,1,50,10|0,0:0|0:0,0:0:0:0:
190,161,74088,2,0,B|155:158|155:158|124:170,1,66.6666666666667,2|0,0:0|1:0,0:0:0:0:
179,239,74401,6,0,L|176:190,1,50,0|0,1:0|1:0,0:0:0:0:
70,73,75026,2,0,L|67:123,1,50,8|0,0:0|1:0,0:0:0:0:
236,30,75651,53,2,1:2:0:0:
292,79,75807,1,2,0:0:0:0:
366,67,75963,1,2,0:0:0:0:
407,4,76119,1,2,0:0:0:0:
477,1,76276,2,0,L|467:88,1,50,10|0,0:0|0:0,0:0:0:0:
335,140,76588,2,0,P|339:194|339:230,1,66.6666666666667,2|0,0:0|1:0,0:0:0:0:
244,279,76901,22,0,P|336:285|428:299,1,166.666666666667,0|0,1:0|0:0,0:0:0:0:
458,214,77526,2,0,P|372:219|315:322,1,208.333333333333,8|0,0:0|0:0,0:0:0:0:
257,231,78151,21,2,1:2:0:0:
184,250,78307,1,2,0:0:0:0:
119,212,78463,1,2,0:0:0:0:
116,137,78619,1,2,0:0:0:0:
184,250,78776,2,0,P|215:200|197:89,1,166.666666666667,8|0,0:0|1:0,0:0:0:0:
129,47,79401,5,2,1:2:0:0:
198,74,79557,1,2,0:0:0:0:
328,42,79713,1,2,1:2:0:0:
301,111,79869,1,2,0:0:0:0:
176,150,80026,2,0,P|180:215|186:272,1,100,8|0,0:0|1:0,0:0:0:0:
33,366,80651,21,2,1:2:0:0:
88,323,80807,1,2,0:0:0:0:
101,254,80963,1,2,0:0:0:0:
65,193,81119,1,2,0:0:0:0:
48,37,81276,2,0,B|34:49|34:49|58:109|65:192,1,166.666666666667,10|0,0:0|1:0,0:0:0:0:
98,108,81901,21,0,1:0:0:0:
87,177,82057,1,0,0:0:0:0:
244,108,82213,1,0,1:0:0:0:
176,125,82369,1,0,0:0:0:0:
306,156,82526,2,0,L|321:230,1,50,8|0,0:0|0:0,0:0:0:0:
351,79,82838,1,2,0:0:0:0:
341,148,82994,1,2,0:0:0:0:
452,193,83151,5,2,1:2:0:0:
391,228,83307,1,2,0:0:0:0:
375,296,83463,1,2,0:0:0:0:
409,356,83619,1,2,0:0:0:0:
291,307,83776,1,10,0:0:0:0:
177,383,84088,2,0,P|120:377|80:377,1,66.6666666666667,2|0,0:0|1:0,0:0:0:0:
78,286,84401,21,0,1:0:0:0:
91,354,84557,1,0,0:0:0:0:
187,185,84713,1,0,1:0:0:0:
254,202,84869,1,0,0:0:0:0:
142,247,85026,1,8,0:0:0:0:
227,115,85338,2,0,L|231:66,1,50,2|0,1:2|0:0,0:0:0:0:
391,95,85651,21,2,1:2:0:0:
355,36,85807,1,2,0:0:0:0:
286,23,85963,1,2,0:0:0:0:
231,66,86119,1,2,0:0:0:0:
179,113,86276,2,0,L|110:119,1,50,10|0,0:0|0:0,0:0:0:0:
26,49,86588,2,0,L|117:57,1,66.6666666666667,2|0,0:0|1:0,0:0:0:0:
95,185,86901,2,0,B|87:266|131:350|222:376|222:376|240:327|270:295|304:285,1,375,0|0,1:0|0:0,0:0:0:0:
465,309,88151,5,2,1:2:0:0:
361,235,88307,1,2,0:0:0:0:
430,245,88463,1,2,0:0:0:0:
151,226,88776,21,2,0:0:0:0:
255,152,88932,1,2,0:0:0:0:
186,162,89088,1,2,0:0:0:0:
361,235,89401,21,2,0:0:0:0:
327,173,89557,1,2,0:0:0:0:
406,65,89713,1,2,0:0:0:0:
393,133,89869,1,2,0:0:0:0:
255,152,90026,2,0,B|244:169|244:169|244:194|244:194|211:244|213:336,1,166.666666666667
221,384,90651,5,6,1:2:0:0:
176,323,90807,1,2,0:0:0:0:
101,320,90963,1,2,0:0:0:0:
61,256,91119,1,2,0:0:0:0:
126,120,91276,2,0,L|208:128,1,75.0000028610231,10|0,0:0|0:0,0:0:0:0:
100,52,91588,2,0,P|55:54|-4:67,1,100.000003814697,2|0,0:0|1:0,0:0:0:0:
39,151,91901,21,2,1:2:0:0:
23,77,92057,1,2,0:0:0:0:
218,58,92213,1,2,1:2:0:0:
200,127,92369,1,2,0:0:0:0:
165,12,92526,2,0,L|72:4,1,75.0000028610231,8|0,0:0|0:0,0:0:0:0:
262,171,92838,2,0,L|353:163,1,75.0000028610231
451,262,93151,21,6,1:2:0:0:
403,202,93307,1,2,0:0:0:0:
439,136,93463,1,2,0:0:0:0:
393,76,93619,1,2,0:0:0:0:
512,0,93776,2,0,P|490:112|478:265,1,250.000009536744,10|0,0:0|1:0,0:0:0:0:
503,342,94401,5,2,1:2:0:0:
473,273,94557,1,2,0:0:0:0:
271,298,94713,1,2,1:2:0:0:
344,313,94869,1,2,0:0:0:0:
214,355,95026,2,0,L|196:258,1,75.0000028610231,8|0,0:0|0:0,0:0:0:0:
398,262,95338,2,0,L|407:148,1,75.0000028610231,0|0,1:0|0:0,0:0:0:0:
252,58,95651,21,2,1:2:0:0:
286,124,95807,1,2,0:0:0:0:
236,179,95963,1,2,0:0:0:0:
271,245,96119,1,2,0:0:0:0:
119,311,96276,2,0,L|128:219,1,75.0000028610231,10|0,0:0|0:0,0:0:0:0:
0,368,96588,2,0,B|5:254|152:232|199:337|343:286,1,375.000014305115,2|0,0:0|0:0,0:0:0:0:
387,260,97526,22,0,L|398:170,1,75.0000028610231,8|0,0:0|0:0,0:0:0:0:
441,320,97838,1,0,0:0:0:0:
347,123,98151,5,2,1:2:0:0:
183,230,98463,1,2,0:0:0:0:
202,157,98619,2,0,P|283:129|383:124,1,150.000005722046,2|0,0:0|0:0,0:0:0:0:
426,16,99088,2,0,P|419:52|414:90,1,75.0000028610231,2|0,0:0|0:0,0:0:0:0:
468,170,99401,21,2,0:0:0:0:
441,100,99557,1,2,0:0:0:0:
373,192,99713,1,2,0:0:0:0:
346,122,99869,1,2,0:0:0:0:
142,199,100651,54,0,P|135:269|131:349,1,150.000005722046
18,151,101901,1,0,0:0:0:0:
109,78,102213,2,0,P|118:156|122:244,1,150.000005722046
0,324,103151,22,0,P|58:283|84:278,1,75.0000028610231
170,310,103776,1,0,0:0:0:0:
198,333,104088,1,0,0:0:0:0:
296,350,104401,1,0,0:0:0:0:
332,343,104713,1,0,0:0:0:0:
388,268,105026,1,0,0:0:0:0:
171,64,105651,21,0,0:0:0:0:
180,98,105963,1,0,0:0:0:0:
329,142,106276,1,0,0:0:0:0:
320,176,106588,1,0,0:0:0:0:
216,230,106901,1,0,0:0:0:0:
225,264,107213,1,0,0:0:0:0:
283,302,107526,1,0,0:0:0:0:
274,336,107838,1,0,0:0:0:0:
256,192,108151,12,0,110026,0:0:0:0:
338,74,110338,22,0,P|331:141|326:270,1,175.00000166893,2|4,0:0|1:2,0:0:0:0:
422,162,110807,21,2,0:0:0:0:
452,234,110963,1,2,0:0:0:0:
398,291,111119,1,2,0:0:0:0:
245,258,111276,2,0,P|181:268|143:286,1,87.500000834465,10|0,0:0|0:0,0:0:0:0:
47,165,111588,2,0,P|129:178|168:193,1,116.666667779287,0|0,0:0|1:0,0:0:0:0:
235,88,111901,5,2,1:0:0:0:
195,174,112057,21,2,0:0:0:0:
145,15,112213,21,2,1:2:0:0:
340,89,112369,5,2,0:1:0:0:
268,187,112526,22,0,L|281:287,1,87.500000834465,8|0,0:0|0:0,0:0:0:0:
199,358,112838,1,2,0:0:0:0:
260,308,112994,1,2,0:0:0:0:
432,355,113151,21,2,1:2:0:0:
491,304,113307,1,2,0:0:0:0:
482,225,113463,1,2,0:0:0:0:
413,185,113619,1,2,0:0:0:0:
476,109,113776,2,0,P|437:100|390:98,1,87.500000834465,10|0,0:0|0:0,0:0:0:0:
363,252,114088,2,0,L|278:273,1,87.500000834465,0|2,0:0|0:0,0:0:0:0:
269,68,114401,5,2,1:2:0:0:
190,58,114557,1,2,0:0:0:0:
131,110,114713,1,2,1:2:0:0:
133,188,114869,1,2,0:0:0:0:
53,319,115026,2,0,P|56:275|64:233,1,87.500000834465,10|0,0:0|0:0,0:0:0:0:
189,347,115338,2,0,L|174:240,1,87.500000834465,0|2,1:0|0:0,0:0:0:0:
259,152,115651,21,2,1:2:0:0:
297,220,115807,1,2,0:0:0:0:
375,229,115963,1,2,0:0:0:0:
413,297,116119,1,2,0:0:0:0:
503,197,116276,2,0,P|463:171|412:172,1,87.500000834465,10|0,0:0|0:0,0:0:0:0:
363,361,116588,2,0,P|317:382|215:370,1,116.666667779287,2|0,0:0|1:0,0:0:0:0:
182,352,116901,21,0,1:0:0:0:
372,129,117213,1,0,1:0:0:0:
112,182,117526,1,8,0:0:0:0:
316,303,117838,1,0,0:0:0:0:
291,92,118151,5,2,1:2:0:0:
258,240,118307,1,2,0:0:0:0:
248,161,118463,1,2,0:0:0:0:
126,334,118776,21,10,0:0:0:0:
93,186,118932,1,2,0:0:0:0:
133,253,119088,1,2,0:0:0:0:
399,233,119401,21,2,1:2:0:0:
332,275,119557,1,2,0:0:0:0:
175,133,119713,1,2,1:2:0:0:
248,161,119869,1,2,0:0:0:0:
351,81,120026,2,0,L|471:73,1,87.500000834465,8|0,0:0|0:0,0:0:0:0:
274,51,120338,2,0,L|164:60,1,87.500000834465,0|0,1:0|0:0,0:0:0:0:
46,7,120651,5,6,1:2:0:0:
105,60,120807,1,2,0:0:0:0:
82,136,120963,1,2,0:0:0:0:
140,190,121119,1,2,0:0:0:0:
273,154,121276,2,0,P|281:229|281:283,1,100,10|0,0:0|0:0,0:0:0:0:
78,384,121588,2,0,P|81:307|90:239,1,133.333333333333,2|0,0:0|1:0,0:0:0:0:
201,239,121901,21,2,1:2:0:0:
129,274,122057,1,2,0:0:0:0:
286,373,122213,1,2,1:2:0:0:
207,358,122369,1,2,0:0:0:0:
345,314,122526,2,0,P|369:197|369:6,1,300,8|0,0:0|0:0,0:0:0:0:
483,131,123151,21,6,1:2:0:0:
408,101,123307,1,2,0:0:0:0:
345,150,123463,1,2,0:0:0:0:
345,229,123619,1,2,0:0:0:0:
268,119,123776,2,0,P|197:110|56:106,1,200,10|0,0:0|0:0,0:0:0:0:
213,37,124244,1,2,0:0:0:0:
122,197,124401,5,2,1:2:0:0:
162,265,124557,1,2,0:0:0:0:
35,353,124713,1,2,1:2:0:0:
62,278,124869,1,2,0:0:0:0:
207,336,125026,2,0,L|331:348,1,100,8|0,0:0|0:0,0:0:0:0:
162,265,125338,2,0,L|24:284,1,100,0|2,1:0|0:0,0:0:0:0:
204,202,125651,21,2,1:2:0:0:
283,211,125807,1,2,0:0:0:0:
326,144,125963,1,2,0:0:0:0:
404,156,126119,1,2,0:0:0:0:
413,300,126276,2,0,B|424:315|424:315|432:284|436:234,1,100,10|0,0:0|0:0,0:0:0:0:
249,133,126588,2,0,P|236:63|233:-7,1,133.333333333333,2|0,0:0|1:0,0:0:0:0:
329,62,126901,21,2,1:2:0:0:
254,34,127057,1,2,0:0:0:0:
122,215,127213,1,2,1:2:0:0:
200,201,127369,1,2,0:0:0:0:
61,163,127526,1,8,0:0:0:0:
270,250,127838,2,0,P|265:318|255:362,1,100,2|0,0:0|0:0,0:0:0:0:
398,300,128151,5,6,1:2:0:0:
349,236,128307,1,2,0:0:0:0:
371,159,128463,1,2,0:0:0:0:
447,136,128619,1,2,0:0:0:0:
322,98,128776,2,0,P|279:102|222:111,1,100,10|0,0:0|0:0,0:0:0:0:
368,29,129088,1,2,0:0:0:0:
444,50,129244,1,2,0:0:0:0:
512,190,129401,22,0,P|497:246|487:299,1,100,2|0,1:2|0:0,0:0:0:0:
349,236,129713,2,0,P|357:309|369:369,1,100,2|0,1:2|0:0,0:0:0:0:
220,155,130026,2,0,L|70:175,1,100,8|0,0:0|0:0,0:0:0:0:
261,231,130338,2,0,L|114:252,1,100,0|2,1:0|0:0,0:0:0:0:
349,236,130651,21,6,1:2:0:0:
370,159,130807,1,2,0:0:0:0:
449,148,130963,1,2,0:0:0:0:
464,69,131119,1,2,0:0:0:0:
331,37,131276,2,0,P|330:137|348:235,1,200,10|0,0:0|0:0,0:0:0:0:
413,291,131744,1,2,0:0:0:0:
207,264,131901,5,2,1:2:0:0:
139,306,132057,1,2,0:0:0:0:
64,276,132213,1,2,1:2:0:0:
48,197,132369,1,2,0:0:0:0:
205,183,132526,2,0,P|158:199|91:238,1,100,10|0,0:0|0:0,0:0:0:0:
22,49,132838,1,0,0:0:0:0:
70,112,132994,1,2,0:0:0:0:
226,20,133151,21,6,1:2:0:0:
268,87,133307,1,2,0:0:0:0:
347,95,133463,1,2,0:0:0:0:
387,163,133619,1,2,0:0:0:0:
398,28,133776,2,0,P|455:32|534:45,1,100,10|0,0:0|0:0,0:0:0:0:
509,232,134088,1,0,0:0:0:0:
430,247,134244,1,2,0:0:0:0:
305,160,134401,21,2,1:2:0:0:
255,222,134557,1,2,0:0:0:0:
176,206,134713,1,2,1:2:0:0:
122,265,134869,1,2,0:0:0:0:
125,138,135026,2,0,P|120:89|111:38,1,100,10|0,0:0|0:0,0:0:0:0:
47,164,135338,1,0,1:0:0:0:
47,242,135494,1,2,0:0:0:0:
170,345,135651,5,2,1:2:0:0:
237,266,135807,1,2,0:0:0:0:
338,277,135963,1,2,0:0:0:0:
385,371,136119,1,2,0:0:0:0:
454,222,136276,2,0,P|452:156|439:88,1,100,10|0,0:0|0:0,0:0:0:0:
299,187,136588,2,0,P|339:9|458:133,1,400,2|0,0:0|1:0,0:0:0:0:
99,56,137526,1,8,0:0:0:0:
60,204,138151,21,0,1:0:0:0:
94,183,138307,1,0,0:0:0:0:
157,211,138463,1,0,0:0:0:0:
206,158,138619,1,0,0:0:0:0:
280,227,138776,1,0,1:0:0:0:
344,135,138932,1,0,0:0:0:0:
421,254,139088,1,0,0:0:0:0:
505,122,139244,1,0,0:0:0:0:
247,23,139401,21,2,1:2:0:0:
344,135,139557,1,2,0:0:0:0:
288,315,139713,1,2,0:0:0:0:
421,254,139869,1,6,0:0:0:0:
418,7,140651,6,0,B|281:-19|264:194|389:265|480:96|564:191|565:293|482:337|426:312|416:265|421:252,1,525.000020027161
341,234,143151,1,0,0:0:0:0:
341,234,143776,2,0,P|301:258|287:285,1,75.0000028610231
184,268,144401,2,0,B|225:283|233:344|198:391|132:389|99:319|31:322|7:375,1,300.000011444092
93,224,146276,2,0,P|100:242|104:262,1,37.5000014305115
26,302,146588,2,0,P|32:273|39:259,1,37.5000014305115
135,331,146901,2,0,B|150:293|241:301|281:363|357:338,1,225.000008583069
383,142,148151,6,0,B|398:158|397:199|387:222|355:257|316:273|316:273|317:251|321:235|321:235|318:220|323:200|323:200|306:179|317:158|317:158|305:184|305:184|271:219|237:238|237:238|234:228|226:220|226:220|212:212|195:209|195:209|199:192|200:181|200:181|196:171|184:157|182:143|182:143|212:154|265:144|307:129|324:108|324:108|305:123|305:123|267:119|246:97|246:97|248:88|248:88|237:78|216:56|216:56|225:47|223:38|223:38|213:20|205:3|205:3|249:-4|326:21|386:75|386:75|427:52|436:39|452:39|472:51|494:59|510:55|510:55|479:67|465:89|464:133|437:162|398:178,1,1360.00002593994
