osu file format v14

[General]
AudioFilename: audio.mp3
AudioLeadIn: 0
PreviewTime: 23518
Countdown: 0
SampleSet: None
StackLeniency: 0.7
Mode: 0
LetterboxInBreaks: 0
WidescreenStoryboard: 1

[Editor]
Bookmarks: 74755
DistanceSpacing: 1
BeatDivisor: 4
GridSize: 4
TimelineZoom: 2.699999

[Metadata]
Title:Kokoroe (TV Size)
TitleUnicode:Kokoroe (TV Size)
Artist:Road of Major
ArtistUnicode:Road of Major
Creator:Tuffiii
Version:crool editt
Source:メジャー
Tags:Major S1
BeatmapID:1855464
BeatmapSetID:832371

[Difficulty]
HPDrainRate:6
CircleSize:4
OverallDifficulty:8.5
ApproachRate:9.4
SliderMultiplier:1.9
SliderTickRate:1

[Events]
//Background and Video events
0,0,"4pewtykFl77Ok4CAydtWzrHZiFm.jpg",0,0
//Break Periods
//Storyboard Layer 0 (Background)
//Storyboard Layer 1 (Fail)
//Storyboard Layer 2 (Pass)
//Storyboard Layer 3 (Foreground)
//Storyboard Sound Samples

[TimingPoints]
-876,315.789473684211,4,2,0,100,1,0
0,-166.666666666667,4,2,1,70,0,0
2124,-142.857142857143,4,2,1,70,0,0
19464,-100,4,2,1,75,0,0
24387,-100,4,2,1,100,0,0
39939,-90.9090909090909,4,2,1,100,0,0
40334,-100,4,2,1,100,0,0
41992,-90.9090909090909,4,2,1,100,0,0
42308,-100,4,2,1,100,0,0
43571,-100,4,3,0,100,0,0
44834,-100,4,2,1,100,0,0
49650,-111.111111111111,4,2,1,100,0,0
51071,-117.647058823529,4,2,1,100,0,0
53917,-142.857142857143,4,2,1,60,0,0
58492,-133.333333333333,4,2,1,60,0,0
59286,-125,4,2,1,70,0,0
60233,-117.647058823529,4,2,1,80,0,0
60939,-111.111111111111,4,2,1,90,0,0
61650,-100,4,2,1,100,0,0
62444,-100,4,2,1,100,0,0
64650,-86.9565217391304,4,2,1,100,0,1
92676,-55.5555555555556,4,2,1,100,0,0

[Colours]
Combo1 : 132,187,255
Combo2 : 228,228,228
Combo3 : 0,64,128
Combo4 : 211,12,41

[HitObjects]
166,253,1018,6,0,P|114:233|60:181,1,113.999996520996,0|0,0:0|0:0,0:0:0:0:
76,62,1650,1,0,0:0:0:0:
187,132,1966,1,0,0:0:0:0:
300,64,2281,2,0,L|434:61,2,132.999995941162,0|0|0,0:0|0:0|0:0,0:0:0:0:
141,137,3545,6,0,L|143:296,1,132.999995941162,0|0,0:0|0:0,0:0:0:0:
256,190,4176,2,0,L|256:47,1,132.999995941162,0|0,0:0|0:0,0:0:0:0:
375,165,4808,2,0,P|383:238|364:306,1,132.999995941162,0|0,0:0|0:0,0:0:0:0:
234,144,5439,1,0,0:0:0:0:
364,59,6071,6,0,L|364:194,2,132.999995941162,0|0|0,0:0|0:0|0:0,0:0:0:0:
217,125,7334,1,0,0:0:0:0:
64,56,7966,6,0,P|26:138|18:192,1,132.999995941162,0|0,0:0|0:0,0:0:0:0:
155,152,8597,2,0,L|220:281,1,132.999995941162,0|0,0:0|0:0,0:0:0:0:
305,366,9229,2,0,P|343:284|351:229,1,132.999995941162,0|0,0:0|0:0,0:0:0:0:
236,171,9860,1,0,0:0:0:0:
328,73,10176,1,0,0:0:0:0:
408,187,10492,2,0,P|393:251|362:310,1,132.999995941162,0|0,0:0|0:0,0:0:0:0:
93,217,11124,5,0,0:0:0:0:
112,89,11439,1,0,0:0:0:0:
219,161,11755,2,0,L|267:291,1,132.999995941162,0|0,0:0|0:0,0:0:0:0:
310,180,12387,2,0,P|337:118|391:51,1,132.999995941162,0|0,0:0|0:0,0:0:0:0:
395,303,13018,1,0,0:0:0:0:
129,205,13650,6,0,L|256:118,2,132.999995941162,0|0|0,0:0|0:0|0:0,0:0:0:0:
164,46,14597,1,0,0:0:0:0:
304,137,14913,2,0,P|335:212|318:291,1,132.999995941162,0|0,0:0|0:0,0:0:0:0:
193,114,15545,1,0,0:0:0:0:
96,206,16176,6,0,L|179:326,1,132.999995941162,0|0,0:0|0:0,0:0:0:0:
205,76,16808,1,0,0:0:0:0:
323,109,17439,2,0,B|369:183|314:183|358:263,1,132.999995941162,0|0,0:0|0:0,0:0:0:0:
98,146,18071,6,0,L|45:277,1,132.999995941162,0|0,0:0|0:0,0:0:0:0:
183,240,18702,2,0,L|236:109,1,132.999995941162,0|0,0:0|0:0,0:0:0:0:
70,291,19334,5,0,1:0:0:0:
374,47,19492,1,0,1:0:0:0:
163,217,19650,6,0,L|211:306,1,95,0|0,1:0|0:0,0:0:0:0:
241,181,19966,2,0,L|289:270,1,95,0|0,1:0|0:0,0:0:0:0:
321,139,20281,2,0,L|369:228,1,95,0|0,1:0|0:0,0:0:0:0:
169,342,20597,5,0,1:0:0:0:
279,24,20755,1,0,1:0:0:0:
321,139,20913,6,0,L|273:50,1,95,0|0,1:0|0:0,0:0:0:0:
243,175,21229,2,0,L|195:85,1,95,0|0,1:0|0:0,0:0:0:0:
163,217,21544,2,0,L|115:127,1,95,0|0,1:0|0:0,0:0:0:0:
249,341,21860,5,0,1:0:0:0:
201,8,22018,1,0,1:0:0:0:
163,217,22176,6,0,L|210:306,1,95,0|0,1:0|0:0,0:0:0:0:
241,180,22492,2,0,L|289:269,1,95,0|0,1:0|0:0,0:0:0:0:
321,139,22807,2,0,L|369:228,1,95,0|0,1:0|3:0,0:0:0:0:
103,225,23124,5,0,3:0:0:0:
93,178,23202,1,0,3:0:0:0:
106,133,23281,1,0,3:0:0:0:
138,98,23360,1,4,3:0:0:0:
182,81,23439,1,4,3:0:0:0:
209,272,23597,1,4,3:0:0:0:
363,131,23755,1,0,1:0:0:0:
165,135,23913,1,4,3:0:0:0:
336,285,24071,1,0,3:0:0:0:
86,152,24387,6,0,P|95:109|140:46,1,95,0|0,1:0|0:0,0:0:0:0:
262,142,24702,2,0,P|292:177|312:229,1,95,8|0,0:0|0:0,0:0:0:0:
171,320,25018,2,0,P|165:273|178:226,1,95,0|0,0:0|0:0,0:0:0:0:
218,79,25334,1,8,0:0:0:0:
327,315,25492,1,0,0:0:0:0:
177,227,25650,2,0,B|115:213|110:136|23:105,1,190,0|8,0:0|0:0,0:0:0:0:
246,101,26124,1,0,0:0:0:0:
374,193,26281,6,0,L|441:294,1,95,0|0,0:0|0:0,0:0:0:0:
266,181,26597,2,0,L|199:80,1,95,8|0,0:0|0:0,0:0:0:0:
276,322,26913,1,0,0:0:0:0:
361,58,27071,1,0,0:0:0:0:
392,262,27229,1,8,0:0:0:0:
223,54,27387,2,0,L|169:153,2,95,0|0|0,0:0|0:0|0:0,0:0:0:0:
304,234,27860,1,8,0:0:0:0:
326,79,28018,2,0,P|406:144|432:250,1,190
268,168,28492,2,0,L|152:98,1,95,8|0,0:0|0:0,0:0:0:0:
260,316,28808,6,0,L|166:256,1,95,0|0,0:0|0:0,0:0:0:0:
84,306,29124,2,0,P|59:264|42:204,1,95,8|0,0:0|0:0,0:0:0:0:
233,39,29439,1,0,0:0:0:0:
161,304,29597,1,0,0:0:0:0:
313,98,29755,6,0,P|344:131|368:184,1,95,8|0,0:0|0:0,0:0:0:0:
123,68,30071,1,0,0:0:0:0:
275,300,30229,1,0,0:0:0:0:
77,161,30387,2,0,P|59:210|44:264,1,95,8|0,0:0|0:0,0:0:0:0:
266,142,30702,6,0,P|239:106|201:73,1,95,0|0,0:0|0:0,0:0:0:0:
131,254,31018,1,8,0:0:0:0:
117,51,31176,1,0,0:0:0:0:
248,230,31334,2,0,L|311:323,1,95,0|0,0:0|0:0,0:0:0:0:
318,147,31650,2,0,L|255:54,1,95,8|0,0:0|0:0,0:0:0:0:
426,137,31966,6,0,L|489:230,1,95,0|0,0:0|0:0,0:0:0:0:
319,147,32281,2,0,L|258:57,1,95,8|0,0:0|0:0,0:0:0:0:
238,263,32597,1,0,0:0:0:0:
82,89,32755,1,0,0:0:0:0:
114,287,32913,1,8,0:0:0:0:
199,64,33071,1,0,0:0:0:0:
291,214,33229,2,0,P|265:294|250:316,1,95,12|0,0:0|0:0,0:0:0:0:
171,173,33545,2,0,L|248:95,1,95,8|0,0:0|0:0,0:0:0:0:
389,206,33860,6,0,L|454:96,2,95,0|0|8,0:0|0:0|0:0,0:0:0:0:
328,31,34334,1,0,0:0:0:0:
251,287,34492,1,0,0:0:0:0:
196,74,34650,2,0,P|155:96|114:143,1,95,0|8,0:0|0:0,0:0:0:0:
155,264,34966,2,0,L|237:195,1,95,0|0,0:0|0:0,0:0:0:0:
326,210,35281,2,0,L|408:141,1,95,0|8,0:0|0:0,0:0:0:0:
359,304,35597,5,0,0:0:0:0:
194,50,35755,1,0,0:0:0:0:
260,328,35913,1,0,0:0:0:0:
304,68,36071,1,8,0:0:0:0:
177,291,36229,2,0,L|69:263,1,95,0|0,0:0|0:0,0:0:0:0:
53,177,36545,2,0,P|84:141|148:108,1,95,0|8,0:0|0:0,0:0:0:0:
136,310,36860,5,0,0:0:0:0:
323,43,37018,1,0,0:0:0:0:
331,213,37176,2,0,L|456:256,1,95,0|8,0:0|0:0,0:0:0:0:
149,152,37492,2,0,L|24:108,1,95,0|0,0:0|0:0,0:0:0:0:
146,306,37808,1,0,0:0:0:0:
138,59,37966,1,8,0:0:0:0:
244,233,38124,1,0,0:0:0:0:
251,42,38281,2,0,P|338:83|400:171,1,190,0|8,0:0|0:0,0:0:0:0:
261,165,38755,1,0,0:0:0:0:
63,225,38913,6,0,L|147:301,1,95,0|0,0:0|0:0,0:0:0:0:
228,297,39229,2,0,L|202:166,1,95,8|0,0:0|0:0,0:0:0:0:
47,100,39545,1,0,0:0:0:0:
320,163,39702,1,0,0:0:0:0:
193,307,39860,1,8,0:0:0:0:
387,233,40018,1,0,0:0:0:0:
231,97,40176,2,0,P|245:51|303:45,1,104.500003189087,0|0,0:0|0:0,0:0:0:0:
324,172,40492,2,0,L|267:266,1,95,8|0,0:0|0:0,0:0:0:0:
173,171,40808,6,0,P|204:140|234:90,1,95,0|0,0:0|0:0,0:0:0:0:
64,195,41124,2,0,P|30:223|-3:270,1,95,8|0,0:0|0:0,0:0:0:0:
67,335,41439,2,0,L|182:318,1,95,0|0,0:0|0:0,0:0:0:0:
184,132,41755,1,8,0:0:0:0:
303,298,41913,1,0,0:0:0:0:
215,74,42071,2,0,P|229:28|285:18,1,104.500003189087,0|0,0:0|0:0,0:0:0:0:
319,231,42387,1,8,0:0:0:0:
172,159,42545,1,0,0:0:0:0:
72,168,42702,6,0,P|76:262|89:274,1,95,0|0,0:0|0:0,0:0:0:0:
191,299,43018,2,0,P|186:205|213:171,1,95,8|0,0:0|0:0,0:0:0:0:
333,22,43334,5,0,0:0:0:0:
260,298,43492,1,4,0:0:0:0:
260,298,43571,1,0,0:0:0:0:
260,298,43650,1,8,0:2:0:0:
180,3,43808,1,0,1:0:0:0:
378,307,43966,1,4,1:0:0:0:
90,71,44124,1,8,0:0:0:0:
401,180,44281,1,4,0:0:0:0:
73,251,44439,1,4,1:0:0:0:
302,89,44597,2,0,P|365:35|402:28,1,95,4|0,1:1|0:0,0:0:0:0:
309,261,44913,6,0,L|222:189,1,95,8|0,0:0|0:0,0:0:0:0:
217,335,45229,1,0,0:0:0:0:
125,113,45387,1,0,0:0:0:0:
324,218,45545,1,8,0:0:0:0:
91,221,45702,2,0,B|112:113|35:162|66:32,1,190,0|0,0:0|0:0,0:0:0:0:
190,233,46176,1,8,0:0:0:0:
271,22,46334,1,0,0:0:0:0:
299,222,46492,6,0,L|255:319,1,95,0|0,0:0|0:0,0:0:0:0:
226,166,46808,2,0,L|276:60,1,95,8|0,0:0|0:0,0:0:0:0:
391,306,47124,6,0,P|271:266|266:261,1,95
419,243,47439,1,0,0:0:0:0:
116,238,47597,1,0,0:0:0:0:
116,238,47676,1,0,0:0:0:0:
116,238,47755,1,0,0:0:0:0:
351,137,47913,1,0,0:0:0:0:
120,265,48071,1,0,0:0:0:0:
284,120,48229,1,0,0:0:0:0:
442,305,48387,6,0,P|364:250|348:251,1,95
491,241,48702,1,0,0:0:0:0:
226,182,48860,1,0,0:0:0:0:
226,182,48939,1,0,0:0:0:0:
226,182,49018,1,0,0:0:0:0:
103,304,49176,1,0,0:0:0:0:
385,299,49334,5,4,1:0:0:0:
74,181,49492,1,4,1:1:0:0:
253,57,49650,2,0,L|354:109,1,85.4999973907472,0|0,0:0|0:0,0:0:0:0:
260,233,49966,2,0,P|218:257|172:262,1,85.4999973907472,8|0,0:0|0:0,0:0:0:0:
277,99,50281,2,0,L|357:28,1,85.4999973907472,0|0,0:0|0:0,0:0:0:0:
304,336,50597,1,10,0:0:0:0:
200,39,50755,1,0,0:0:0:0:
409,191,50913,2,0,P|439:247|457:302,1,85.4999973907472,0|0,0:0|0:0,0:0:0:0:
299,242,51229,5,10,0:0:0:0:
405,44,51387,1,0,0:0:0:0:
208,165,51545,2,0,P|165:196|128:248,1,80.750001540184,0|0,0:0|0:0,0:0:0:0:
240,84,51860,2,0,P|199:49|140:26,1,80.750001540184,2|0,0:0|0:0,0:0:0:0:
149,182,52176,2,0,B|179:258|223:254|244:322,1,161.500003080368,0|0,0:0|0:0,0:0:0:0:
283,150,52650,2,0,B|253:74|209:78|188:10,1,161.500003080368,0|0,0:0|0:0,0:0:0:0:
121,170,53124,2,0,B|235:226|235:226|283:199|283:199|273:286|273:286|321:258|321:258|389:287,1,363.375006930828,0|0,0:0|0:0,0:0:0:0:
375,159,54071,5,0,0:0:0:0:
180,45,54387,1,0,0:0:0:0:
315,161,54702,2,0,B|312:228|237:235|212:333,1,199.499993911743,0|0,0:0|0:0,0:0:0:0:
265,184,55966,6,0,B|185:202|155:133|65:139,1,199.499993911743,0|0,0:0|0:0,0:0:0:0:
204,106,56913,2,0,B|252:105|275:146|354:127,1,132.999995941162,0|0,0:0|0:0,0:0:0:0:
265,284,57545,2,0,B|120:212|206:157|57:99,1,265.999991882324,0|0,0:0|0:0,0:0:0:0:
289,84,58808,6,0,L|396:224,1,142.500005435944,0|0,0:0|0:0,0:0:0:0:
152,241,59439,2,0,L|62:96,1,152,0|4,0:0|0:0,0:0:0:0:
197,166,59913,1,0,0:0:0:0:
296,270,60071,1,2,0:0:0:0:
299,115,60229,1,0,0:0:0:0:
458,185,60387,2,0,L|351:48,1,152,0|0,0:0|0:0,0:0:0:0:
314,234,60860,1,0,0:0:0:0:
127,168,61018,2,0,L|244:322,1,170.999994781494,0|0,0:0|0:0,0:0:0:0:
238,127,61492,1,0,0:0:0:0:
354,253,61650,2,0,L|365:54,1,190,0|0,0:0|0:0,0:0:0:0:
262,293,62124,2,0,L|167:208,1,95,2|0,0:0|0:0,0:0:0:0:
382,56,62439,1,6,0:0:0:0:
271,220,62597,1,8,0:0:0:0:
271,220,62676,1,8,0:0:0:0:
271,220,62755,2,0,P|303:281|401:353,1,190,12|8,0:0|0:0,0:0:0:0:
346,113,63229,2,0,L|262:37,1,95,0|0,0:0|0:0,0:0:0:0:
116,310,63545,5,8,0:0:0:0:
197,52,63702,1,8,0:0:0:0:
239,346,63860,1,0,0:0:0:0:
80,102,64018,1,8,0:0:0:0:
377,253,64176,1,0,0:0:0:0:
82,181,64334,1,8,0:0:0:0:
385,79,64492,1,0,0:0:0:0:
206,317,64808,5,8,0:0:0:0:
166,38,64966,1,0,0:0:0:0:
125,276,65124,5,8,0:0:0:0:
349,139,65281,1,0,0:0:0:0:
99,90,65439,5,8,0:0:0:0:
312,253,65597,1,0,0:0:0:0:
100,171,65755,5,8,0:0:0:0:
322,83,65913,1,0,0:0:0:0:
295,329,66071,5,8,0:0:0:0:
127,35,66229,1,0,0:0:0:0:
365,249,66387,5,8,0:0:0:0:
73,110,66545,1,0,0:0:0:0:
78,298,66702,5,8,0:0:0:0:
240,12,66860,1,0,0:0:0:0:
298,194,67018,6,0,L|436:224,1,109.250002083778,8|0,0:0|0:0,0:0:0:0:
106,177,67334,2,0,L|-32:147,1,109.250002083778,8|0,0:0|0:0,0:0:0:0:
56,316,67650,5,8,0:0:0:0:
230,64,67808,1,0,0:0:0:0:
205,323,67966,5,8,0:0:0:0:
119,47,68124,1,0,0:0:0:0:
296,304,68281,5,8,0:0:0:0:
309,32,68439,2,0,L|199:67,1,109.250002083778,0|8,0:0|0:0,0:0:0:0:
113,215,68755,2,0,L|224:178,1,109.250002083778,0|8,0:0|0:0,0:0:0:0:
392,169,69071,6,0,P|381:227|333:276,1,109.250002083778,0|2,0:0|0:0,0:0:0:0:
269,144,69387,2,0,P|292:92|340:43,1,109.250002083778,0|8,0:0|0:0,0:0:0:0:
377,284,69702,1,0,0:0:0:0:
167,91,69860,1,6,0:0:0:0:
275,332,70018,1,0,0:0:0:0:
97,283,70176,6,0,L|180:177,1,109.250002083778,8|2,0:0|0:0,0:0:0:0:
321,201,70492,2,0,P|298:140|243:90,1,109.250002083778,0|2,0:0|0:0,0:0:0:0:
112,103,70808,2,0,P|135:164|190:214,1,109.250002083778,0|8,0:0|0:0,0:0:0:0:
288,52,71124,5,2,0:0:0:0:
235,281,71281,1,8,0:0:0:0:
375,73,71439,5,2,0:0:0:0:
341,350,71597,1,8,0:0:0:0:
209,124,71755,2,0,L|335:143,1,109.250002083778,2|0,0:0|0:0,0:0:0:0:
130,242,72071,1,8,0:0:0:0:
323,331,72229,6,0,L|297:202,1,109.250002083778,8|8,0:0|0:0,0:0:0:0:
101,319,72545,1,0,0:0:0:0:
244,150,72702,1,8,0:0:0:0:
18,192,72860,1,0,0:0:0:0:
239,80,73018,1,8,0:0:0:0:
213,292,73176,1,0,0:0:0:0:
137,70,73334,1,8,0:0:0:0:
308,244,73492,1,0,0:0:0:0:
278,20,73650,1,8,0:0:0:0:
401,204,73808,1,0,0:0:0:0:
205,84,73966,5,0,0:0:0:0:
162,79,74044,1,0,0:0:0:0:
112,92,74123,1,0,0:0:0:0:
71,121,74202,1,0,0:0:0:0:
47,166,74281,1,0,0:0:0:0:
49,202,74360,1,0,0:0:0:0:
60,226,74439,1,0,0:0:0:0:
73,249,74518,1,0,0:0:0:0:
91,268,74596,1,0,0:0:0:0:
112,285,74675,1,0,0:0:0:0:
135,298,74754,1,0,0:0:0:0:
160,307,74834,2,0,P|193:309|255:291,1,54.6250010418892
140,166,75071,5,0,0:0:0:0:
346,23,75229,1,8,0:0:0:0:
303,333,75387,5,0,0:0:0:0:
97,71,75545,1,8,0:0:0:0:
391,271,75702,5,0,0:0:0:0:
15,182,75860,1,8,0:0:0:0:
361,125,76018,5,0,0:0:0:0:
100,347,76176,1,8,0:0:0:0:
285,6,76334,5,0,0:0:0:0:
234,314,76492,1,8,0:0:0:0:
73,84,76650,5,0,0:0:0:0:
294,231,76808,1,8,0:0:0:0:
201,40,76966,5,0,0:0:0:0:
384,200,77124,1,8,0:0:0:0:
133,168,77281,2,0,L|30:238,1,109.250002083778,0|8,0:0|0:0,0:0:0:0:
311,137,77597,2,0,L|406:61,1,109.250002083778,0|8,0:0|0:0,0:0:0:0:
298,279,77913,2,0,P|225:281|177:250,1,109.250002083778,0|8,0:0|0:0,0:0:0:0:
130,137,78229,2,0,P|203:135|258:162,1,109.250002083778,0|8,0:0|0:0,0:0:0:0:
87,332,78545,5,0,0:0:0:0:
190,88,78702,1,10,0:0:0:0:
181,325,78860,5,0,0:0:0:0:
299,66,79018,1,8,0:0:0:0:
297,303,79176,5,0,0:0:0:0:
416,25,79334,1,8,0:0:0:0:
193,139,79492,5,0,0:0:0:0:
462,250,79650,1,8,0:0:0:0:
354,96,79808,2,0,P|313:53|258:15,1,109.250002083778,8|6,0:0|0:0,0:0:0:0:
187,196,80124,2,0,P|228:239|282:276,1,109.250002083778,0|0,0:0|0:0,0:0:0:0:
232,108,80439,2,0,P|191:65|136:27,1,109.250002083778,2|6,0:0|0:0,0:0:0:0:
65,208,80755,2,0,P|106:251|160:288,1,109.250002083778,0|0,0:0|0:0,0:0:0:0:
79,77,81071,1,0,0:0:0:0:
244,245,81229,1,2,0:0:0:0:
229,40,81387,2,0,P|271:75|311:129,1,109.250002083778,0|2,0:0|0:0,0:0:0:0:
386,213,81702,6,0,P|341:250|276:280,1,109.250002083778,0|0,0:0|0:0,0:0:0:0:
161,245,82018,2,0,P|205:207|270:177,1,109.250002083778,2|0,0:0|0:0,0:0:0:0:
137,69,82334,6,0,L|71:172,1,109.250002083778
63,275,82650,2,0,P|119:287|182:278,1,109.250002083778
288,120,82966,1,0,0:0:0:0:
276,336,83124,1,0,0:0:0:0:
194,79,83281,1,0,0:0:0:0:
81,221,83439,2,0,P|120:259|190:284,1,109.250002083778
311,268,83755,1,0,0:0:0:0:
311,268,83913,2,0,L|229:171,1,109.250002083778
363,100,84229,6,0,P|314:67|247:53,1,109.250002083778
146,122,84545,2,0,P|194:154|261:168,1,109.250002083778
428,121,84860,5,0,0:0:0:0:
224,300,85018,1,0,0:0:0:0:
245,57,85176,2,0,P|198:98|124:246,1,218.500004167557
279,151,85650,6,0,B|387:82|397:142|485:64,1,218.500004167557
337,240,86124,1,0,0:0:0:0:
147,97,86281,1,0,0:0:0:0:
254,302,86439,1,0,0:0:0:0:
71,172,86597,1,0,0:0:0:0:
355,165,86755,1,0,0:0:0:0:
156,271,86913,2,0,P|139:221|165:145,1,109.250002083778
264,144,87229,2,0,L|282:1,1,109.250002083778
77,324,87545,5,0,0:0:0:0:
159,66,87702,2,0,L|262:-3,1,109.250002083778
46,277,88018,1,0,0:0:0:0:
396,160,88176,1,0,0:0:0:0:
90,138,88334,2,0,L|26:50,1,109.250002083778
328,296,88650,5,0,0:0:0:0:
64,260,88808,2,0,L|0:172,1,109.250002083778
134,213,89124,2,0,L|209:315,1,109.250002083778
222,10,89439,1,0,0:0:0:0:
292,317,89597,1,0,0:0:0:0:
173,103,89755,6,0,L|70:66,1,109.250002083778
219,334,90071,1,0,0:0:0:0:
256,55,90229,1,0,0:0:0:0:
135,290,90387,2,0,L|21:227,1,109.250002083778
346,226,90702,2,0,P|358:155|344:113,1,109.250002083778
219,264,91018,2,0,L|131:329,1,109.250002083778
75,62,91334,5,0,0:0:0:0:
217,354,91492,1,0,0:0:0:0:
186,12,91650,1,0,0:0:0:0:
66,347,91808,1,0,0:0:0:0:
363,103,91966,1,0,0:0:0:0:
15,228,92124,1,0,0:0:0:0:
401,249,92281,1,0,0:0:0:0:
148,221,92439,2,0,L|51:147,1,109.250002083778
256,192,92676,12,0,95124,0:0:0:0:
