osu file format v14

[General]
AudioFilename: audio.mp3
AudioLeadIn: 0
PreviewTime: -1
Countdown: 0
SampleSet: Soft
StackLeniency: 0.7
Mode: 0
LetterboxInBreaks: 0
WidescreenStoryboard: 1

[Editor]
DistanceSpacing: 1.4
BeatDivisor: 4
GridSize: 4
TimelineZoom: 1.7

[Metadata]
Title:Kokoroe (TV Size)
TitleUnicode:Kokoroe (TV Size)
Artist:Road of Major
ArtistUnicode:Road of Major
Creator:Tuffiii
Version:Major manga mode
Source:メジャー
Tags:Major S1
BeatmapID:1812545
BeatmapSetID:832371

[Difficulty]
HPDrainRate:6
CircleSize:4.2
OverallDifficulty:8
ApproachRate:9.1
SliderMultiplier:1
SliderTickRate:1

[Events]
//Background and Video events
0,0,"4pewtykFl77Ok4CAydtWzrHZiFm.jpg",0,0
//Break Periods
//Storyboard Layer 0 (Background)
//Storyboard Layer 1 (Fail)
//Storyboard Layer 2 (Pass)
//Storyboard Layer 3 (Foreground)
//Storyboard Sound Samples

[TimingPoints]
-876,315.789473684211,4,2,0,100,1,0
0,-90.9090909090909,4,2,1,70,0,0
19464,-66.6666666666667,4,2,1,100,0,0
23444,-55.5555555555556,4,2,1,100,0,0
24781,-52.6315789473684,4,2,1,100,0,0
43571,-58.8235294117647,4,3,0,100,0,0
44755,-58.8235294117647,4,2,1,100,0,0
48229,-66.6666666666667,4,2,1,100,0,0
51071,-71.4285714285714,4,2,1,100,0,0
53917,-83.3333333333333,4,2,1,60,0,0
58966,-76.9230769230769,4,2,1,60,0,0
59286,-71.4285714285714,4,2,1,70,0,0
60233,-66.6666666666667,4,2,1,80,0,0
60939,-62.5,4,2,1,90,0,0
61729,-58.8235294117647,4,2,1,100,0,0
62444,-55.5555555555556,4,2,1,100,0,0
64492,-55.5555555555556,4,2,1,100,0,1
64650,-50,4,2,1,100,0,1
68996,-47.6190476190476,4,2,1,100,0,1
82492,-55.5555555555556,4,2,1,100,0,1
84781,-52.6315789473684,4,2,1,100,0,1
92676,-55.5555555555556,4,2,1,100,0,0

[Colours]
Combo1 : 132,187,255
Combo2 : 228,228,228
Combo3 : 0,64,128
Combo4 : 211,12,41

[HitObjects]
111,238,1018,6,0,P|64:192|56:131,1,110.000003356934
166,17,1650,2,0,P|202:56|199:109,2,110.000003356934
82,198,2597,2,0,P|75:232|137:295,1,110.000003356934,0|0,0:0|0:0,2:0:0:0:
209,232,3545,5,0,0:0:0:0:
264,140,3860,1,0,0:0:0:0:
189,68,4176,1,0,0:0:0:0:
189,68,4492,2,0,P|113:80|94:119,2,110.000003356934
264,140,5439,1,0,0:0:0:0:
170,125,6071,6,0,P|163:159|225:222,1,110.000003356934,0|0,0:0|0:0,2:0:0:0:
285,245,6702,2,0,P|292:211|229:147,1,110.000003356934,0|0,0:0|0:0,2:0:0:0:
203,217,7334,1,0,0:0:0:0:
132,172,7966,5,0,0:0:0:0:
126,281,8281,1,0,0:0:0:0:
235,300,8597,1,0,0:0:0:0:
235,300,8913,2,0,P|297:290|342:262,1,110.000003356934
277,113,9545,2,0,P|219:134|193:174,2,110.000003356934
264,192,10492,1,0,0:0:0:0:
169,177,11124,6,0,P|153:244|194:284,1,110.000003356934
253,215,11755,2,0,P|262:146|218:110,1,110.000003356934
169,162,12387,1,0,0:0:0:0:
169,162,12702,2,0,P|117:209|130:266,1,110.000003356934
249,248,13650,5,0,0:0:0:0:
363,187,13966,1,0,0:0:0:0:
317,110,14281,1,0,0:0:0:0:
317,110,14597,2,0,P|265:157|278:214,2,110.000003356934
363,187,15545,1,0,0:0:0:0:
297,50,16176,2,0,P|245:97|258:154,1,110.000003356934
352,125,16808,1,0,0:0:0:0:
383,254,17439,1,0,0:0:0:0:
234,132,18071,6,0,P|176:153|150:193,2,110.000003356934
238,231,19018,1,0,0:0:0:0:
218,39,19334,5,0,0:0:0:0:
429,226,19492,1,0,0:0:0:0:
256,192,19650,5,0,0:0:0:0:
256,192,19966,1,0,0:0:0:0:
256,192,20281,1,0,0:0:0:0:
218,39,20597,5,0,0:0:0:0:
117,324,20755,1,0,0:0:0:0:
256,192,20913,5,0,0:0:0:0:
256,192,21229,1,0,0:0:0:0:
256,192,21544,1,0,0:0:0:0:
432,249,21860,5,0,0:0:0:0:
116,300,22018,1,0,0:0:0:0:
256,192,22176,5,0,0:0:0:0:
256,192,22492,1,0,0:0:0:0:
256,192,22808,1,0,0:0:0:0:
256,192,23124,1,0,0:0:0:0:
256,192,23281,1,0,0:0:0:0:
290,178,23359,1,0,0:0:0:0:
318,153,23438,1,0,0:0:0:0:
272,40,23597,5,0,0:0:0:0:
111,122,23755,1,0,0:0:0:0:
229,241,23913,1,0,0:0:0:0:
272,40,24071,6,0,P|230:42|182:74,2,89.9999972534181
375,106,24545,1,0,0:0:0:0:
234,116,24702,1,0,0:0:0:0:
352,195,24860,1,0,0:0:0:0:
161,224,25018,2,0,P|177:176|221:138,1,94.9999974632264
286,256,25334,2,0,P|270:303|225:341,1,94.9999974632264
322,108,25650,2,0,B|251:174|239:61|143:108,1,189.999994926453
164,184,26124,1,0,0:0:0:0:
124,247,26281,6,0,P|76:272|29:267,1,94.9999974632264
69,191,26597,1,0,0:0:0:0:
140,93,26755,1,0,0:0:0:0:
83,43,26913,6,0,P|131:17|178:22,1,94.9999974632264
246,164,27229,2,0,P|198:189|151:184,1,94.9999974632264
89,145,27545,2,0,L|196:95,2,94.9999974632264
250,136,28018,1,0,0:0:0:0:
300,219,28176,2,0,B|206:268|209:158|104:214,1,189.999994926453
163,288,28650,1,0,0:0:0:0:
281,309,28808,6,0,P|301:267|299:213,1,94.9999974632264
231,75,29124,2,0,P|211:117|213:171,1,94.9999974632264
230,249,29439,2,0,B|109:276|167:171|46:195,1,189.999994926453
70,61,30071,6,0,L|166:79,1,94.9999974632264
245,121,30387,1,0,0:0:0:0:
227,19,30545,1,0,0:0:0:0:
309,66,30702,6,0,L|394:119,2,94.9999974632264
299,175,31176,1,0,0:0:0:0:
364,267,31334,2,0,P|306:293|244:281,1,94.9999974632264
205,218,31650,2,0,P|263:192|324:204,1,94.9999974632264
374,206,31966,1,0,0:0:0:0:
343,102,32124,1,0,0:0:0:0:
450,125,32281,1,0,0:0:0:0:
256,144,32439,6,0,L|155:84,2,94.9999974632264
272,236,32913,2,0,P|325:222|380:234,1,94.9999974632264
245,332,33229,2,0,B|124:359|182:254|61:278,1,189.999994926453
0,206,33702,1,0,0:0:0:0:
276,125,33860,6,0,P|256:73|209:39,1,94.9999974632264
156,156,34176,2,0,P|176:208|201:240,1,94.9999974632264
235,122,34492,1,0,0:0:0:0:
356,179,34650,2,0,P|391:138|393:86,1,94.9999974632264
235,122,34966,1,0,0:0:0:0:
228,237,35124,2,0,L|139:181,2,94.9999974632264
284,147,35597,2,0,L|373:203,2,94.9999974632264
373,116,36071,2,0,L|487:99,1,94.9999974632264
219,82,36387,6,0,L|113:102,1,94.9999974632264
40,216,36702,1,0,0:0:0:0:
156,189,36860,1,0,0:0:0:0:
139,308,37018,1,0,0:0:0:0:
283,141,37176,1,0,0:0:0:0:
253,339,37334,1,0,0:0:0:0:
329,245,37492,2,0,L|429:178,2,94.9999974632264
280,152,37966,1,0,0:0:0:0:
149,280,38124,1,0,0:0:0:0:
135,65,38281,1,0,0:0:0:0:
135,65,38439,2,0,B|127:154|76:144|64:249,1,189.999994926453
282,147,38913,6,0,L|359:91,1,94.9999974632264
392,192,39229,1,0,0:0:0:0:
469,119,39387,1,0,0:0:0:0:
339,334,39545,1,0,0:0:0:0:
282,147,39702,1,0,0:0:0:0:
316,241,39860,2,0,B|195:268|253:163|132:187,1,189.999994926453
76,246,40334,6,0,L|164:173,1,94.9999974632264
290,212,40650,1,0,0:0:0:0:
190,261,40808,1,0,0:0:0:0:
244,52,40966,6,0,L|364:28,2,94.9999974632264
159,83,41439,2,0,P|196:127|238:141,1,94.9999974632264
236,277,41755,2,0,P|199:234|157:220,1,94.9999974632264
315,187,42071,1,0,0:0:0:0:
315,187,42229,2,0,L|411:106,1,94.9999974632264
274,102,42545,1,0,0:0:0:0:
147,66,42702,6,0,L|63:139,2,94.9999974632264
159,170,43176,1,0,0:0:0:0:
88,243,43334,2,0,P|180:253|201:233,1,94.9999974632264
167,32,43650,5,0,0:0:0:0:
389,176,43808,1,0,0:0:0:0:
389,176,43887,1,0,0:0:0:0:
389,176,43966,1,0,0:0:0:0:
162,120,44124,5,0,0:0:0:0:
309,314,44281,2,0,L|303:360,2,42.5000008106232
388,25,44597,1,0,0:0:0:0:
178,232,44755,6,0,P|136:217|94:178,1,85.0000016212464
216,133,45071,2,0,P|258:148|300:187,2,85.0000016212464
235,237,45545,1,0,0:0:0:0:
280,315,45702,2,0,B|186:364|189:254|113:293,1,170.000003242493
251,190,46176,1,0,0:0:0:0:
174,93,46334,2,0,L|87:161,2,85.0000016212464
161,24,46808,2,0,B|225:-9|222:100|316:51,1,170.000003242493
174,93,47281,1,0,0:0:0:0:
332,146,47439,2,0,L|255:217,2,85.0000016212464
431,161,47913,2,0,P|424:119|380:83,1,85.0000016212464
292,237,48229,5,0,0:0:0:0:
226,158,48387,1,0,0:0:0:0:
162,96,48545,2,0,L|101:27,1,75.0000028610231
140,214,48860,5,0,0:0:0:0:
226,158,49018,1,0,0:0:0:0:
295,102,49176,2,0,L|370:49,1,75.0000028610231
304,282,49492,5,0,0:0:0:0:
178,53,49650,1,0,0:0:0:0:
178,53,49729,2,0,L|263:82,1,75.0000028610231
267,119,49966,6,0,L|192:175,1,75.0000028610231
174,267,50281,2,0,L|269:235,2,75.0000028610231
297,161,50755,2,0,L|437:227,1,150.000005722046
424,247,51150,2,0,L|309:258,1,104.999996795654
112,195,51545,6,0,L|187:130,1,69.9999978637696
286,100,51860,2,0,L|326:169,1,69.9999978637696
225,278,52176,2,0,L|185:209,1,69.9999978637696
122,88,52492,2,0,B|172:42|206:131|263:63,2,139.999995727539
138,197,53281,2,0,B|191:259|191:259|234:227|234:227|222:285|222:285|284:321,1,244.999992523194
388,240,54071,5,0,0:0:0:0:
377,64,54387,1,0,0:0:0:0:
377,64,54545,2,0,P|266:51|186:87,1,179.999994506836
118,231,55966,5,0,0:0:0:0:
14,252,56281,1,0,0:0:0:0:
28,153,56597,1,0,0:0:0:0:
28,153,56913,2,0,L|122:235,3,119.999996337891
159,110,58808,6,0,P|242:122|300:202,1,179.999994506836
183,216,59439,1,0,0:0:0:0:
183,216,59597,6,0,P|96:203|49:149,1,139.999995727539
192,136,60071,1,0,0:0:0:0:
192,136,60229,6,0,P|279:148|326:203,1,139.999995727539
347,279,60702,6,0,P|260:266|211:205,2,150.000005722046
314,182,61492,1,0,0:0:0:0:
74,168,61650,6,0,P|90:81|156:31,2,160
242,47,62439,1,0,0:0:0:0:
277,184,62597,6,0,P|347:131|364:45,1,179.999994506836
69,44,63071,2,0,P|34:59|-2:99,2,89.9999972534181
95,302,63545,1,0,0:0:0:0:
267,92,63702,1,0,0:0:0:0:
214,298,63860,5,0,0:0:0:0:
174,41,64018,1,0,0:0:0:0:
106,207,64176,5,0,0:0:0:0:
387,27,64334,1,0,0:0:0:0:
274,229,64492,1,0,0:0:0:0:
145,310,64808,6,0,L|68:235,1,100
186,222,65124,5,0,0:0:0:0:
118,41,65281,1,0,0:0:0:0:
274,229,65439,5,0,0:0:0:0:
269,0,65596,1,0,0:0:0:0:
373,222,65755,5,0,0:0:0:0:
430,37,65912,1,0,0:0:0:0:
484,272,66071,2,0,L|372:316,1,100
238,288,66387,5,0,0:0:0:0:
331,122,66545,1,0,0:0:0:0:
155,245,66702,5,0,0:0:0:0:
203,19,66860,1,0,0:0:0:0:
35,234,67018,5,0,0:0:0:0:
2,35,67176,1,0,0:0:0:0:
216,210,67334,2,0,L|129:297,1,100
289,223,67650,2,0,L|376:136,1,100
333,300,67966,5,0,0:0:0:0:
265,128,68124,1,0,0:0:0:0:
206,273,68281,5,0,0:0:0:0:
122,49,68439,1,0,0:0:0:0:
63,251,68597,5,0,0:0:0:0:
246,39,68755,1,0,0:0:0:0:
154,286,68913,5,0,0:0:0:0:
221,161,69071,2,0,B|143:95|102:164|35:70,1,209.999993591309
156,205,69545,2,0,B|221:296|262:227|340:293,1,209.999993591309
221,161,70018,1,0,0:0:0:0:
349,79,70176,1,0,0:0:0:0:
352,200,70334,1,0,0:0:0:0:
219,56,70492,2,0,L|221:182,2,104.999996795654
82,168,70966,1,0,0:0:0:0:
133,296,71124,5,0,0:0:0:0:
172,169,71281,1,0,0:0:0:0:
236,295,71439,5,0,0:0:0:0:
275,168,71596,1,0,0:0:0:0:
340,284,71755,2,0,L|435:213,2,104.999996795654
191,245,72387,5,0,0:0:0:0:
303,145,72545,1,0,0:0:0:0:
320,254,72702,5,0,0:0:0:0:
201,116,72860,1,0,0:0:0:0:
198,300,73018,5,0,0:0:0:0:
326,81,73176,1,0,0:0:0:0:
391,257,73334,5,0,0:0:0:0:
150,90,73492,1,0,0:0:0:0:
286,317,73650,5,0,0:0:0:0:
207,9,73808,1,0,0:0:0:0:
101,113,73966,2,0,L|35:162,1,52.4999983978272
209,134,74124,2,0,L|259:89,1,52.4999983978272
147,240,74281,2,0,L|81:289,1,52.4999983978272
291,221,74439,2,0,L|341:176,1,52.4999983978272
270,319,74597,2,0,L|225:358,2,52.4999983978272
390,262,74913,5,0,0:0:0:0:
461,96,75071,1,0,0:0:0:0:
280,214,75229,5,0,0:0:0:0:
329,7,75387,1,0,0:0:0:0:
173,212,75545,5,0,0:0:0:0:
108,18,75702,1,0,0:0:0:0:
154,303,75860,5,0,0:0:0:0:
0,164,76018,1,0,0:0:0:0:
246,279,76176,5,0,0:0:0:0:
324,26,76334,1,0,0:0:0:0:
256,156,76492,2,0,L|142:129,1,104.999996795654
280,233,76808,2,0,L|382:257,1,104.999996795654
153,268,77124,5,0,0:0:0:0:
47,105,77281,1,0,0:0:0:0:
243,220,77439,2,0,P|270:176|266:124,1,104.999996795654
182,0,77755,2,0,P|154:43|158:95,1,104.999996795654
288,32,78071,1,0,0:0:0:0:
289,207,78229,1,0,0:0:0:0:
393,45,78387,5,0,0:0:0:0:
410,243,78545,1,0,0:0:0:0:
506,27,78702,5,0,0:0:0:0:
289,207,78860,1,0,0:0:0:0:
289,207,79018,2,0,P|206:195|158:158,1,104.999996795654
72,239,79334,5,0,0:0:0:0:
202,71,79492,1,0,0:0:0:0:
183,265,79650,5,0,0:0:0:0:
313,97,79808,1,0,0:0:0:0:
305,291,79966,5,0,0:0:0:0:
259,61,80124,2,0,P|217:62|160:109,1,104.999996795654
144,204,80439,2,0,P|195:199|236:167,1,104.999996795654
266,33,80755,1,0,0:0:0:0:
338,168,80913,1,0,0:0:0:0:
411,36,81071,1,0,0:0:0:0:
219,129,81229,1,0,0:0:0:0:
219,129,81387,2,0,P|165:126|109:144,1,104.999996795654
130,305,81702,6,0,B|197:232|228:311|325:221,1,209.999993591309
382,79,82176,6,0,B|315:152|283:73|187:163,1,209.999993591309
346,216,82650,5,0,0:0:0:0:
308,34,82808,1,0,0:0:0:0:
192,157,82966,1,0,0:0:0:0:
192,157,83124,2,0,L|302:133,2,89.9999972534181
81,40,83597,1,0,0:0:0:0:
43,224,83755,1,0,0:0:0:0:
189,105,83913,1,0,0:0:0:0:
166,269,84071,2,0,L|277:244,1,89.9999972534181
240,333,84387,2,0,B|336:316|327:254|420:247,1,179.999994506836
403,329,84860,5,0,0:0:0:0:
203,114,85018,1,0,0:0:0:0:
172,230,85176,2,0,P|241:231|295:188,1,94.9999974632264
408,140,85492,5,0,0:0:0:0:
378,34,85650,2,0,L|327:125,1,94.9999974632264
295,192,85966,1,0,0:0:0:0:
199,108,86124,1,0,0:0:0:0:
262,282,86281,5,0,0:0:0:0:
77,159,86439,1,0,0:0:0:0:
194,336,86597,1,0,0:0:0:0:
9,213,86755,1,0,0:0:0:0:
210,212,86913,2,0,L|320:212,1,94.9999974632264
256,107,87229,1,0,0:0:0:0:
182,130,87387,5,0,0:0:0:0:
59,73,87545,1,0,0:0:0:0:
63,224,87703,1,4,0:0:0:0:
63,224,87782,1,0,0:0:0:0:
63,224,87861,2,0,P|92:265|146:284,1,94.9999974632264,0|8,0:0|0:0,0:0:0:0:
236,40,88177,5,0,1:0:0:0:
175,182,88335,1,0,1:0:0:0:
347,172,88493,1,8,0:0:0:0:
347,172,88572,1,0,0:0:0:0:
347,172,88651,1,0,0:0:0:0:
190,290,88809,5,4,0:0:0:0:
251,147,88967,1,0,0:0:0:0:
79,158,89125,1,8,0:0:0:0:
79,158,89203,1,0,0:0:0:0:
79,158,89282,1,0,0:0:0:0:
268,260,89440,5,4,0:0:0:0:
345,78,89598,1,0,1:0:0:0:
127,92,89835,1,0,0:0:0:0:
127,92,89914,1,8,0:0:0:0:
127,92,89993,2,0,P|97:165|110:232,1,142.49999619484
191,317,90387,1,8,0:0:0:0:
277,65,90545,1,0,0:0:0:0:
277,65,90624,1,0,0:0:0:0:
277,65,90702,2,0,L|343:167,1,94.9999974632264
335,270,91018,5,0,0:0:0:0:
173,86,91176,1,0,0:0:0:0:
443,147,91334,1,0,0:0:0:0:
108,198,91492,1,0,0:0:0:0:
432,50,91650,5,0,0:0:0:0:
194,253,91808,1,0,0:0:0:0:
305,21,91966,1,0,0:0:0:0:
327,329,92124,1,0,0:0:0:0:
327,329,92281,2,0,L|229:314,1,94.9999974632264
256,192,92597,12,0,95124,0:0:0:0:
