osu file format v14

[General]
AudioFilename: audio.mp3
AudioLeadIn: 0
PreviewTime: 23676
Countdown: 0
SampleSet: Soft
StackLeniency: 0.7
Mode: 0
LetterboxInBreaks: 0
WidescreenStoryboard: 1

[Editor]
DistanceSpacing: 1
BeatDivisor: 4
GridSize: 4
TimelineZoom: 1.5

[Metadata]
Title:Kokoroe (TV Size)
TitleUnicode:Kokoroe (TV Size)
Artist:Road of Major
ArtistUnicode:Road of Major
Creator:Tuffiii
Version:Major Anime Mode
Source:メジャー
Tags:Major S1
BeatmapID:1743848
BeatmapSetID:832371

[Difficulty]
HPDrainRate:6
CircleSize:4.2
OverallDifficulty:9
ApproachRate:9.5
SliderMultiplier:1
SliderTickRate:1

[Events]
//Background and Video events
0,0,"4pewtykFl77Ok4CAydtWzrHZiFm.jpg",0,0
//Break Periods
//Storyboard Layer 0 (Background)
//Storyboard Layer 1 (Fail)
//Storyboard Layer 2 (Pass)
//Storyboard Layer 3 (Foreground)
//Storyboard Sound Samples

[TimingPoints]
-876,315.789473684211,4,2,0,100,1,0
0,-90.9090909090909,4,2,1,70,0,0
18781,-125,4,2,1,90,0,0
19464,-66.6666666666667,4,2,1,100,0,0
23444,-50,4,2,1,100,0,0
23996,-58.8235294117647,4,2,1,100,0,0
25571,-55.5555555555556,4,2,1,100,0,0
26202,-58.8235294117647,4,2,1,100,0,0
43571,-58.8235294117647,4,3,0,100,0,0
44360,-58.8235294117647,4,2,1,100,0,0
53917,-83.3333333333333,4,2,1,60,0,0
59286,-71.4285714285714,4,2,1,70,0,0
60233,-66.6666666666667,4,2,1,80,0,0
61023,-62.5,4,2,1,90,0,0
61812,-58.8235294117647,4,2,1,100,0,0
62444,-55.5555555555556,4,2,1,100,0,0
64492,-55.5555555555556,4,2,1,100,0,1
73571,-55.5555555555556,4,3,1,100,0,1
74913,-55.5555555555556,4,2,1,100,0,1
92676,-55.5555555555556,4,2,1,100,0,0

[HitObjects]
91,325,1018,6,0,P|61:285|68:215,1,110.000003356934,0|0,0:0|0:0,2:0:0:0:
11,150,1650,2,0,P|57:120|119:130,1,110.000003356934
158,234,2281,2,0,P|206:224|253:162,2,110.000003356934
248,93,3545,6,0,P|325:102|349:130,2,110.000003356934
273,171,4492,1,0,0:0:0:0:
280,279,4808,1,0,0:0:0:0:
169,282,5124,1,0,0:0:0:0:
162,174,5440,1,0,0:0:0:0:
184,230,6071,6,0,L|74:230,2,110.000003356934
392,215,7334,1,0,0:0:0:0:
221,206,7965,1,0,0:0:0:0:
246,114,8281,1,0,0:0:0:0:
143,61,8597,2,0,P|108:96|111:169,2,110.000003356934
260,139,9545,1,0,0:0:0:0:
154,200,9861,1,0,0:0:0:0:
117,83,10177,1,0,0:0:0:0:
227,30,10492,1,0,0:0:0:0:
102,236,11124,5,0,0:0:0:0:
108,103,11439,1,0,0:0:0:0:
238,139,11755,2,0,P|220:200|165:219,2,110.000003356934
153,139,12702,1,0,0:0:0:0:
256,48,13018,1,0,0:0:0:0:
178,228,13650,5,0,0:0:0:0:
272,238,13966,1,0,0:0:0:0:
357,167,14281,2,0,P|325:92|291:78,2,110.000003356934
259,162,15229,1,0,0:0:0:0:
256,53,15545,1,0,0:0:0:0:
136,253,16176,1,0,0:0:0:0:
240,290,16492,1,0,0:0:0:0:
333,214,16808,2,0,P|356:173|340:99,1,110.000003356934
191,157,17439,2,0,P|164:103|181:53,1,110.000003356934
270,105,18071,5,0,0:0:0:0:
166,162,18387,1,0,0:0:0:0:
279,246,18702,1,0,0:0:0:0:
279,246,18860,2,0,L|169:313,1,120,0|0,0:0|1:0,0:0:0:0:
58,55,19492,5,0,1:0:0:0:
219,240,19650,1,0,1:0:0:0:
219,240,19966,1,0,1:0:0:0:
219,240,20281,1,0,1:0:0:0:
388,53,20597,1,0,1:0:0:0:
68,256,20755,1,0,1:0:0:0:
339,172,20913,1,0,1:0:0:0:
339,172,21229,5,0,1:0:0:0:
339,172,21545,1,0,1:0:0:0:
52,52,21860,1,0,1:0:0:0:
313,326,22018,1,0,1:0:0:0:
288,72,22176,1,0,1:0:0:0:
288,72,22492,1,0,1:0:0:0:
288,72,22808,1,0,1:0:0:0:
373,198,22966,5,0,3:0:0:0:
361,232,23124,1,0,3:0:0:0:
331,258,23202,1,0,3:0:0:0:
297,272,23281,1,0,3:0:0:0:
257,275,23360,1,4,3:0:0:0:
220,257,23439,1,4,3:0:0:0:
199,225,23519,2,0,L|256:177,2,50,4|4|0,3:0|3:0|3:0,3:0:0:0:
180,144,23755,2,0,P|112:190|113:215,1,100,0|4,1:0|3:0,0:0:0:0:
175,323,24070,5,0,3:0:0:0:
284,186,24228,1,4,1:0:0:0:
241,30,24386,2,0,P|166:67|131:143,1,170.000003242493,0|8,1:0|0:0,0:0:0:0:
273,154,24860,1,0,0:0:0:0:
116,318,25018,1,0,0:0:0:0:
116,318,25176,2,0,P|78:301|45:273,1,85.0000016212464,0|8,0:0|0:0,0:0:0:0:
31,117,25491,1,0,0:0:0:0:
231,166,25650,2,0,B|318:126|321:221|425:203,1,179.999994506836,0|8,0:0|0:0,0:0:0:0:
353,291,26124,1,0,0:0:0:0:
142,102,26281,5,0,0:0:0:0:
274,289,26439,1,0,0:0:0:0:
202,115,26597,2,0,P|214:64|262:42,1,85.0000016212464,8|0,0:0|0:0,0:0:0:0:
336,112,26912,5,0,0:0:0:0:
159,227,27070,1,0,0:0:0:0:
412,178,27228,1,8,0:0:0:0:
203,289,27386,1,0,0:0:0:0:
293,330,27544,6,0,P|334:311|352:277,1,85.0000016212464
302,52,27860,1,8,0:0:0:0:
193,205,28018,5,0,0:0:0:0:
273,313,28176,1,0,0:0:0:0:
273,313,28334,1,0,0:0:0:0:
273,313,28492,2,0,P|356:282|375:259,1,85.0000016212464,8|0,0:0|0:0,0:0:0:0:
248,50,28808,5,0,0:0:0:0:
353,206,28965,1,0,0:0:0:0:
181,109,29123,2,0,P|160:121|103:192,1,85.0000016212464,8|0,0:0|0:0,0:0:0:0:
264,225,29439,2,0,P|217:280|115:322,1,170.000003242493,0|8,0:0|0:0,0:0:0:0:
35,226,29913,6,0,B|87:122,1,85.0000016212464
186,116,30229,1,0,0:0:0:0:
146,278,30387,1,8,0:0:0:0:
317,110,30545,1,0,0:0:0:0:
307,310,30703,5,0,0:0:0:0:
373,150,30861,2,0,P|324:139|272:164,1,85.0000016212464,0|8,0:0|0:0,0:0:0:0:
241,253,31177,1,0,0:0:0:0:
129,135,31335,2,0,P|154:101|193:85,1,85.0000016212464
281,113,31650,5,8,0:0:0:0:
134,263,31808,1,0,0:0:0:0:
221,29,31966,2,0,P|158:35|54:113,1,170.000003242493,0|8,0:0|0:0,0:0:0:0:
176,279,32440,5,0,0:0:0:0:
389,172,32598,1,0,0:0:0:0:
219,142,32755,1,0,0:0:0:0:
406,284,32913,1,8,0:0:0:0:
321,46,33071,2,0,P|289:62|230:121,1,85.0000016212464,0|12,0:0|0:0,0:0:0:0:
192,195,33387,1,0,0:0:0:0:
106,92,33544,1,8,0:0:0:0:
32,150,33702,6,0,L|124:311,1,170.000003242493
168,150,34176,1,8,0:0:0:0:
213,314,34333,1,0,0:0:0:0:
251,181,34492,2,8,B|260:163|277:229|356:219,1,85.0000016212464,0|0,0:0|0:0,0:0:0:0:
406,267,34807,5,8,0:0:0:0:
292,97,34965,1,0,0:0:0:0:
512,187,35123,1,0,0:0:0:0:
270,203,35281,1,0,0:0:0:0:
512,74,35439,1,8,0:0:0:0:
222,276,35597,2,0,P|150:235|115:152,1,170.000003242493
237,184,36070,1,8,0:0:0:0:
237,184,36228,1,0,0:0:0:0:
237,184,36386,5,0,0:0:0:0:
344,234,36544,2,0,P|347:154|319:125,1,85.0000016212464,0|8,0:0|0:0,0:0:0:0:
250,112,36860,1,0,0:0:0:0:
72,114,37018,5,0,0:0:0:0:
178,266,37176,1,0,0:0:0:0:
210,43,37334,1,8,0:0:0:0:
343,117,37492,5,0,0:0:0:0:
45,245,37650,1,0,0:0:0:0:
101,336,37808,2,0,P|168:323|188:294,1,85.0000016212464,0|8,0:0|0:0,0:0:0:0:
82,208,38124,1,0,0:0:0:0:
178,114,38282,1,0,0:0:0:0:
178,114,38440,1,0,0:0:0:0:
178,114,38597,2,0,B|233:109|242:170|256:162,1,85.0000016212464,8|0,0:0|0:0,0:0:0:0:
363,96,38913,5,0,0:0:0:0:
227,212,39071,2,0,L|290:298,1,85.0000016212464,0|8,0:0|0:0,0:0:0:0:
442,59,39387,1,0,0:0:0:0:
276,190,39545,1,0,0:0:0:0:
276,190,39703,1,0,0:0:0:0:
276,190,39860,2,0,B|227:188|221:238|190:224,1,85.0000016212464,8|0,0:0|0:0,0:0:0:0:
0,118,40177,5,0,0:0:0:0:
11,221,40334,2,0,P|65:263|101:261,1,85.0000016212464,0|8,0:0|0:0,0:0:0:0:
381,188,40650,1,0,0:0:0:0:
246,268,40808,1,0,0:0:0:0:
261,100,40966,2,0,B|164:155,1,85.0000016212464,0|8,0:0|0:0,0:0:0:0:
56,206,41282,5,0,0:0:0:0:
213,315,41440,1,0,0:0:0:0:
133,147,41597,1,0,0:0:0:0:
188,190,41755,2,0,L|298:221,1,85.0000016212464,8|0,0:0|0:0,0:0:0:0:
424,146,42070,1,0,0:0:0:0:
378,93,42229,2,0,L|271:72,1,85.0000016212464,0|8,0:0|0:0,0:0:0:0:
211,122,42544,5,0,0:0:0:0:
320,281,42702,1,0,0:0:0:0:
131,248,42860,1,0,0:0:0:0:
131,248,43018,2,0,P|97:195|101:137,1,85.0000016212464,8|0,0:0|0:0,0:0:0:0:
100,102,43334,2,0,P|147:92|193:126,1,85.0000016212464,0|4,0:0|0:0,0:0:0:0:
116,330,43649,5,8,0:2:0:0:
297,161,43807,1,0,1:0:0:0:
297,161,43886,1,0,1:0:0:0:
297,161,43965,1,4,1:0:0:0:
337,282,44123,1,8,0:0:0:0:
80,44,44281,1,4,0:0:0:0:
120,288,44439,6,0,P|214:304|221:299,1,85.0000016212464,4|4,1:0|1:1,0:0:0:0:
119,180,44754,1,0,0:0:0:0:
209,270,44912,5,8,0:0:0:0:
244,85,45070,1,0,0:0:0:0:
339,242,45229,2,0,B|306:170|399:149|324:67,1,170.000003242493,0|8,0:0|0:0,0:0:0:0:
114,142,45702,1,0,0:0:0:0:
114,142,45860,2,0,P|97:224|158:295,1,170.000003242493,0|8,0:0|0:0,0:0:0:0:
254,196,46333,5,0,0:0:0:0:
254,196,46492,2,0,P|290:106|250:32,1,170.000003242493,0|8,0:0|0:0,0:0:0:0:
157,280,46965,1,0,0:0:0:0:
103,116,47123,1,0,0:0:0:0:
182,191,47281,2,0,P|238:216|265:224,1,85.0000016212464,0|8,0:0|0:0,0:0:0:0:
408,233,47597,5,0,1:0:0:0:
406,190,47675,1,0,1:0:0:0:
404,148,47754,1,0,1:0:0:0:
315,141,47913,1,0,1:0:0:0:
313,98,47991,1,0,1:0:0:0:
311,56,48070,1,0,1:0:0:0:
207,99,48230,1,0,1:0:0:0:
205,56,48308,1,0,1:0:0:0:
203,14,48387,1,0,1:0:0:0:
73,109,48545,5,0,1:0:0:0:
75,151,48623,1,0,1:0:0:0:
77,193,48702,1,0,1:0:0:0:
166,200,48861,1,0,1:0:0:0:
168,243,48939,1,0,1:0:0:0:
169,286,49018,1,0,1:0:0:0:
274,242,49177,1,0,1:0:0:0:
275,286,49255,1,0,1:0:0:0:
278,328,49334,1,4,1:0:0:0:
369,327,49492,5,4,1:1:0:0:
444,121,49650,2,0,P|383:62|302:44,1,170.000003242493,0|8,0:0|0:0,0:0:0:0:
288,163,50123,5,0,0:0:0:0:
288,163,50281,2,0,P|250:197|199:210,1,85.0000016212464
154,72,50597,1,10,0:0:0:0:
70,115,50755,2,0,P|100:195|117:207,1,85.0000016212464
228,194,51070,1,0,0:0:0:0:
306,86,51228,2,0,P|387:141|383:288,1,255.000004863739,10|0,0:0|0:0,0:0:0:0:
295,163,51860,1,2,0:0:0:0:
313,262,52018,2,0,B|189:285|160:207|63:254,1,255.000004863739
221,113,52649,1,0,0:0:0:0:
221,113,52808,2,0,P|285:127|366:217,1,170.000003242493,2|0,0:0|0:0,0:0:0:0:
239,251,53281,1,0,0:0:0:0:
239,251,53439,2,0,B|159:253|159:253|187:191|187:191|121:205|121:205|129:148|129:148|74:104,1,340.000006484985,2|0,0:0|0:0,0:0:0:0:
160,48,54387,6,0,P|243:62|267:101,1,119.999996337891
190,117,55018,1,0,0:0:0:0:
263,204,55334,1,0,0:0:0:0:
86,192,55650,1,0,0:0:0:0:
160,48,55966,6,0,P|229:95|234:141,1,119.999996337891
163,230,56598,1,0,0:0:0:0:
175,311,56913,6,0,P|93:289|73:248,1,119.999996337891
316,119,57545,1,0,0:0:0:0:
197,31,57861,2,0,P|140:32|104:94,1,119.999996337891
227,195,58492,1,0,0:0:0:0:
108,336,58808,2,0,P|177:349|237:330,1,119.999996337891
131,110,59440,5,0,0:0:0:0:
89,283,59755,2,0,P|162:283|231:243,1,139.999995727539,4|2,0:0|0:0,0:0:0:0:
131,110,60229,5,0,0:0:0:0:
131,110,60387,2,0,P|221:73|291:90,1,150.000005722046,0|2,0:0|0:0,0:0:0:0:
265,240,60859,1,0,0:0:0:0:
265,240,61018,2,0,P|339:252|429:223,1,160,0|2,0:0|0:0,0:0:0:0:
315,121,61492,1,0,0:0:0:0:
315,121,61650,5,0,0:0:0:0:
179,297,61808,2,0,P|114:242|88:170,1,160,0|2,0:0|0:0,0:0:0:0:
186,66,62282,5,0,0:0:0:0:
116,268,62440,1,6,0:0:0:0:
237,183,62598,1,8,0:0:0:0:
237,183,62677,1,8,0:0:0:0:
237,183,62755,2,0,P|306:163|358:54,1,179.999994506836,12|8,0:0|0:0,0:0:0:0:
82,88,63229,1,0,0:0:0:0:
82,88,63387,2,0,P|103:143|142:136,1,89.9999972534181,0|8,0:0|0:0,0:0:0:0:
293,54,63703,5,8,0:0:0:0:
77,238,63861,1,0,0:0:0:0:
340,121,64019,5,8,0:0:0:0:
163,326,64177,1,0,0:0:0:0:
453,205,64334,1,8,0:0:0:0:
61,348,64808,6,0,B|22:311|22:311|23:263,1,89.9999972534181,8|0,0:0|0:0,0:0:0:0:
3,222,65124,5,8,0:0:0:0:
212,78,65282,1,0,0:0:0:0:
152,338,65440,2,0,L|224:284,1,89.9999972534181,8|0,0:0|0:0,0:0:0:0:
263,71,65755,5,8,0:0:0:0:
339,317,65913,1,0,0:0:0:0:
394,68,66071,5,8,0:0:0:0:
221,303,66229,1,0,0:0:0:0:
118,302,66387,2,0,P|73:271|61:234,1,89.9999972534181,8|0,0:0|0:0,0:0:0:0:
210,44,66703,5,8,0:0:0:0:
345,253,66861,1,0,0:0:0:0:
137,70,67019,5,8,0:0:0:0:
243,330,67177,1,0,0:0:0:0:
292,98,67334,5,8,0:0:0:0:
136,305,67492,1,0,0:0:0:0:
223,54,67650,5,8,0:0:0:0:
62,263,67808,1,0,0:0:0:0:
100,67,67966,5,8,0:0:0:0:
230,342,68124,1,0,0:0:0:0:
230,342,68282,2,0,P|288:297|303:248,1,89.9999972534181,8|0,0:0|0:0,0:0:0:0:
226,71,68598,5,8,0:0:0:0:
83,304,68755,1,0,0:0:0:0:
83,304,68913,6,0,B|167:299|179:228|261:234,1,179.999994506836,8|2,0:0|0:0,0:0:0:0:
371,278,69387,1,0,0:0:0:0:
371,278,69545,6,0,B|304:272|292:343|171:338,1,179.999994506836,8|6,0:0|0:0,0:0:0:0:
109,233,70019,1,0,0:0:0:0:
191,65,70177,5,8,0:0:0:0:
154,296,70334,1,2,0:0:0:0:
374,126,70492,1,0,0:0:0:0:
374,126,70650,2,8,P|417:162|390:275,1,179.999994506836,2|8,0:0|0:0,0:0:0:0:
315,211,71124,5,2,0:0:0:0:
93,283,71282,1,8,0:0:0:0:
267,111,71440,5,2,0:0:0:0:
44,138,71598,1,8,0:0:0:0:
44,138,71755,2,0,P|65:76|120:46,1,89.9999972534181,2|0,0:0|0:0,0:0:0:0:
76,191,72071,2,0,P|92:245|58:304,1,89.9999972534181,8|8,0:0|0:0,0:0:0:0:
151,202,72387,5,8,0:0:0:0:
256,47,72545,1,0,0:0:0:0:
210,266,72703,5,8,0:0:0:0:
352,55,72861,1,0,0:0:0:0:
285,291,73019,5,8,0:0:0:0:
452,45,73177,1,0,0:0:0:0:
418,265,73334,5,8,0:0:0:0:
127,50,73492,1,0,0:0:0:0:
30,144,73650,1,0,0:0:0:0:
48,184,73728,1,0,0:0:0:0:
81,215,73807,1,0,0:0:0:0:
123,230,73886,1,0,0:0:0:0:
167,229,73965,1,0,0:0:0:0:
212,239,74045,1,0,0:0:0:0:
242,257,74123,1,0,0:0:0:0:
286,264,74202,1,0,0:0:0:0:
341,299,74281,2,0,L|406:261,1,44.999998626709
380,209,74439,2,0,L|417:159,1,44.999998626709,4|4,0:2|0:2,0:0:0:0:
357,106,74597,2,0,L|404:45,1,44.999998626709,4|4,0:2|0:2,0:0:0:0:
254,262,74913,5,8,0:0:0:0:
312,36,75071,1,0,0:0:0:0:
144,279,75229,5,8,0:0:0:0:
179,22,75387,1,0,0:0:0:0:
96,217,75545,6,0,P|33:226|-1:204,1,89.9999972534181,8|0,0:0|0:0,0:0:0:0:
71,81,75860,1,8,0:0:0:0:
134,304,76019,1,0,0:0:0:0:
239,40,76177,1,8,0:0:0:0:
262,325,76334,5,0,0:0:0:0:
393,101,76492,1,8,0:0:0:0:
218,265,76650,5,0,0:0:0:0:
365,22,76808,1,8,0:0:0:0:
143,143,76966,2,0,P|145:64|167:33,1,89.9999972534181,0|8,0:0|0:0,0:0:0:0:
259,192,77282,6,0,P|257:271|235:302,1,89.9999972534181,0|8,0:0|0:0,0:0:0:0:
70,320,77598,2,0,P|58:241|74:207,1,89.9999972534181,0|8,0:0|0:0,0:0:0:0:
190,30,77913,5,0,0:0:0:0:
252,309,78071,1,8,0:0:0:0:
292,41,78229,5,0,0:0:0:0:
474,304,78387,2,0,P|442:338|395:346,1,89.9999972534181,8|0,0:0|0:0,0:0:0:0:
381,54,78703,1,10,0:0:0:0:
324,322,78861,5,0,0:0:0:0:
238,71,79019,1,8,0:0:0:0:
232,326,79177,5,0,0:0:0:0:
140,48,79334,1,8,0:0:0:0:
150,326,79492,5,0,0:0:0:0:
59,41,79650,1,8,0:0:0:0:
370,200,79808,1,8,0:0:0:0:
354,294,79966,2,0,P|448:270|465:193,1,179.999994506836,6|0,0:0|0:0,0:0:0:0:
347,107,80440,1,2,0:0:0:0:
225,193,80598,1,6,0:0:0:0:
225,193,80755,2,0,P|167:129|195:48,1,179.999994506836
321,25,81229,1,2,0:0:0:0:
444,76,81387,6,0,P|478:120|461:185,1,89.9999972534181,0|2,0:0|0:0,0:0:0:0:
273,120,81703,1,0,0:0:0:0:
372,292,81861,1,0,0:0:0:0:
288,317,82018,2,0,P|232:339|114:276,1,179.999994506836,2|0,0:0|0:0,0:0:0:0:
246,198,82492,5,0,0:0:0:0:
147,222,82650,2,0,P|90:203|40:79,1,179.999994506836,2|0,0:0|0:0,0:0:0:0:
300,79,83124,1,0,0:0:0:0:
125,178,83282,1,2,0:0:0:0:
335,160,83440,5,0,0:0:0:0:
127,282,83598,1,2,0:0:0:0:
407,212,83755,2,0,P|495:242|500:347,1,179.999994506836,2|2,0:0|0:0,0:0:0:0:
378,330,84229,5,0,0:0:0:0:
210,164,84387,1,0,0:0:0:0:
227,341,84545,1,0,0:0:0:0:
145,281,84703,6,0,P|76:250|70:150,1,179.999994506836,2|0,0:0|0:0,0:0:0:0:
179,85,85177,1,0,0:0:0:0:
127,228,85334,1,0,0:0:0:0:
159,304,85492,2,0,P|218:320|251:294,1,89.9999972534181,2|0,0:0|0:0,0:0:0:0:
428,109,85808,1,0,0:0:0:0:
428,109,85966,2,0,L|368:204,1,89.9999972534181,2|0,0:0|0:0,0:0:0:0:
332,270,86282,5,2,0:0:0:0:
186,133,86440,1,0,0:0:0:0:
269,325,86598,1,2,2:0:0:0:
283,150,86755,1,2,0:0:0:0:
91,192,86913,2,0,P|56:247|70:300,1,89.9999972534181,0|2,0:0|0:0,0:0:0:0:
231,316,87229,1,0,1:0:0:0:
231,316,87308,1,0,1:0:0:0:
231,316,87387,1,0,1:0:0:0:
312,274,87545,5,8,0:0:0:0:
43,100,87703,1,0,0:0:0:0:
43,100,87861,2,0,P|113:76|153:90,1,89.9999972534181,0|4,0:0|0:0,0:0:0:0:
91,253,88177,1,0,0:0:0:0:
255,85,88334,1,8,0:0:0:0:
309,248,88492,5,0,1:0:0:0:
309,248,88571,1,0,1:0:0:0:
309,248,88650,1,0,1:0:0:0:
33,74,88808,1,8,0:0:0:0:
33,74,88966,2,0,P|102:50|154:63,1,89.9999972534181,0|4,0:0|0:0,0:0:0:0:
86,280,89282,1,0,0:0:0:0:
313,20,89440,1,8,0:0:0:0:
313,20,89598,2,0,P|387:86|383:100,1,89.9999972534181,0|4,0:0|0:0,0:0:0:0:
330,92,89913,5,0,1:0:0:0:
330,92,89992,1,0,1:0:0:0:
330,92,90071,1,0,1:0:0:0:
200,338,90229,1,8,0:0:0:0:
205,340,90387,5,0,0:0:0:0:
121,72,90545,1,0,0:0:0:0:
42,319,90703,1,8,0:0:0:0:
271,63,90861,1,0,0:0:0:0:
308,303,91019,6,0,P|363:278|369:246,1,89.9999972534181,0|12,0:0|0:0,0:0:0:0:
112,46,91334,1,8,0:0:0:0:
249,350,91492,5,0,0:0:0:0:
365,62,91650,1,8,0:0:0:0:
81,338,91808,5,0,0:0:0:0:
480,90,91966,1,8,0:0:0:0:
249,350,92124,5,0,0:0:0:0:
253,354,92282,2,0,P|352:336|400:273,1,179.999994506836,0|14,0:0|0:0,0:0:0:0:
256,192,92755,12,4,94650,0:0:0:0:
