osu file format v14

[General]
AudioFilename: audio.mp3
AudioLeadIn: 0
PreviewTime: 2651
Countdown: 0
SampleSet: None
StackLeniency: 0.7
Mode: 0
LetterboxInBreaks: 0
WidescreenStoryboard: 1

[Editor]
Bookmarks: 17486,20138,31160,33895,35220,72265,83370
DistanceSpacing: 1.6
BeatDivisor: 4
GridSize: 16
TimelineZoom: 1.299999

[Metadata]
Title:Kizuna so happy
TitleUnicode:Kizuna so happy
Artist:Rlcemaster3
ArtistUnicode:サブマリン
Creator:ImLianSenpai
Version:Virtual Youtuber
Source:Kizuna Ai
Tags:Instrimental Electronic Japanese Kizuna AI
BeatmapID:1687402
BeatmapSetID:803827

[Difficulty]
HPDrainRate:4
CircleSize:2.5
OverallDifficulty:6
ApproachRate:8
SliderMultiplier:1.4
SliderTickRate:1

[Events]
//Background and Video events
0,0,"kizuna.jpg",0,0
//Break Periods
2,72464,82620
//Storyboard Layer 0 (Background)
//Storyboard Layer 1 (Fail)
//Storyboard Layer 2 (Pass)
//Storyboard Layer 3 (Foreground)
//Storyboard Sound Samples

[TimingPoints]
0,662.983425414365,4,1,0,100,1,0
994,-83.3333333333333,4,1,0,100,0,0
26685,-1000,4,1,0,100,0,0
28508,-83.3333333333333,4,1,0,100,0,0
29337,-1000,4,1,0,100,0,0
31160,-83.3333333333333,4,1,0,100,0,0
36795,-66.6666666666667,4,1,0,50,0,1
59009,-66.6666666666667,4,1,0,50,0,0
84696,-66.6666666666667,4,1,0,50,0,1

[Colours]
Combo1 : 128,0,0
Combo2 : 128,128,255
Combo3 : 43,43,255
Combo4 : 255,0,255
Combo5 : 255,0,128
Combo6 : 128,64,64

[HitObjects]
104,146,994,6,0,P|100:211|115:262,1,83.9999974365235
300,88,1657,2,0,L|365:158,1,83.9999974365235
335,254,2154,1,0,0:0:0:0:
208,278,2320,1,0,0:0:0:0:
181,108,2651,6,0,P|108:182|108:263,1,167.999994873047
193,299,3480,2,0,L|240:320,1,41.9999987182618
305,303,3812,2,0,L|342:273,1,41.9999987182618
373,187,4309,2,0,L|357:112,2,41.9999987182618
212,121,4806,6,0,L|143:137,2,41.9999987182618
296,250,5469,2,0,L|309:302,2,41.9999987182618
281,186,5966,2,0,L|245:158,1,41.9999987182618
248,94,6298,2,0,L|286:76,1,41.9999987182618
114,238,6795,6,0,L|120:288,2,41.9999987182618
186,109,7458,1,0,0:0:0:0:
276,92,7624,2,0,P|353:93|371:136,1,125.999996154785
286,310,8618,5,0,0:0:0:0:
169,268,8950,1,0,0:0:0:0:
159,160,9281,2,0,L|217:144,2,41.9999987182618
323,125,9944,1,0,0:0:0:0:
380,250,10276,1,0,0:0:0:0:
261,311,10607,2,0,L|214:275,2,41.9999987182618
179,133,11270,6,0,L|225:113,1,41.9999987182618
254,193,11602,2,0,L|205:213,1,41.9999987182618
230,285,11933,2,0,L|276:263,3,41.9999987182618
347,184,12762,2,0,L|317:147,2,41.9999987182618
150,197,13425,2,0,L|173:148,2,41.9999987182618
157,99,15248,5,0,0:0:0:0:
124,213,15745,1,0,0:0:0:0:
197,320,16077,2,0,B|284:294|317:256|323:171|285:89|225:66|157:71|125:90,1,377.999988464356
371,53,17900,5,0,0:0:0:0:
292,166,18397,1,0,0:0:0:0:
389,304,18729,2,0,B|366:202|268:100|186:105|96:195,1,377.999988464356
185,120,20552,5,0,0:0:0:0:
366,294,21049,1,0,0:0:0:0:
270,215,21381,2,0,B|114:64|114:64|114:197,1,335.999989746094
256,192,23204,12,0,25524,0:0:0:0:
168,120,25856,6,0,L|102:162,3,41.9999987182618
273,96,26685,2,0,L|279:127,1,31.5
143,257,28508,6,0,L|206:303,3,41.9999987182618
212,97,29337,2,0,L|239:115,1,31.5
121,148,31160,6,0,P|110:202|132:232,1,83.9999974365235
201,259,31657,2,0,P|261:257|292:277,6,83.9999974365235
256,192,33812,12,0,35138,0:0:0:0:
114,128,36795,5,0,0:0:0:0:
159,252,36961,1,0,0:0:0:0:
269,303,37127,2,0,P|330:280|338:243,3,105.000004005432
247,188,38287,1,0,0:0:0:0:
144,139,38453,2,0,P|189:90|259:94,3,105.000004005432
319,283,39613,2,0,L|213:272,3,105.000004005432
141,184,40939,1,0,0:0:0:0:
283,111,41270,1,0,0:0:0:0:
321,225,41602,6,0,L|198:281,1,105.000004005432
184,187,42099,2,0,L|308:135,1,105.000004005432
248,70,42596,2,0,L|291:182,1,105.000004005432
201,197,43093,2,0,L|249:297,1,105.000004005432
319,256,43591,2,0,L|221:308,2,105.000004005432
276,175,44419,5,0,0:0:0:0:
236,100,44585,2,0,L|338:51,2,105.000004005432
189,178,45414,2,0,L|291:232,1,105.000004005432
370,235,45911,1,0,0:0:0:0:
333,98,46243,2,0,L|265:103,1,52.5000020027161
227,108,46574,1,0,0:0:0:0:
149,204,46906,6,0,L|154:266,12,52.5000020027161
299,248,49226,1,0,0:0:0:0:
398,219,49392,2,0,B|361:166|308:113|219:88|141:120|115:199|114:299|114:300|206:300,1,472.500018024445
310,304,51049,5,0,0:0:0:0:
369,254,51215,1,0,0:0:0:0:
385,173,51381,2,0,L|344:64,1,105.000004005432
195,116,51878,1,0,0:0:0:0:
139,175,52044,2,0,B|285:329|285:329|276:202,1,315.000012016297
290,100,53701,6,0,L|226:109,4,52.5000020027161
371,97,54530,2,0,B|417:219|366:295|294:320|121:209,1,420.000016021729
256,192,56353,12,0,58674,0:0:0:0:
134,146,59005,6,0,L|150:232,1,52.5000020027161
241,198,59337,2,0,L|227:120,1,52.5000020027161
325,136,59668,1,0,0:0:0:0:
332,222,59834,2,0,L|341:291,1,52.5000020027161
257,292,60165,2,0,L|245:209,1,52.5000020027161
243,120,60662,1,0,0:0:0:0:
326,108,60828,2,0,L|357:302,1,157.500006008148
366,331,61491,1,0,0:0:0:0:
294,311,61657,6,0,L|232:287,1,52.5000020027161
183,257,61988,2,0,L|146:204,1,52.5000020027161
163,152,62320,2,0,L|211:109,1,52.5000020027161
271,88,62651,2,0,L|313:150,1,52.5000020027161
342,199,62983,1,0,0:0:0:0:
326,273,63149,1,0,0:0:0:0:
257,265,63314,2,0,L|135:127,1,157.500006008148
143,94,63977,1,0,0:0:0:0:
202,264,64309,6,0,L|236:309,6,52.5000020027161
310,84,65635,2,0,L|351:128,6,52.5000020027161
199,272,66961,2,0,L|156:218,6,52.5000020027161
331,273,68287,1,0,0:0:0:0:
364,136,68618,1,0,0:0:0:0:
259,72,68950,1,0,0:0:0:0:
152,152,69281,1,0,0:0:0:0:
352,209,69613,6,0,B|328:269|284:298|215:303|163:273,1,210.000008010865
141,197,70607,2,0,B|188:102|255:84|319:124,1,210.000008010865
321,262,71602,2,0,L|246:268,4,52.5000020027161
186,124,83370,5,0,0:0:0:0:
214,189,83535,2,0,L|232:243,1,52.5000020027161
374,298,84198,2,0,P|289:328|255:325,1,105.000004005432
200,298,84696,1,0,0:0:0:0:
202,224,84861,2,0,L|250:205,4,52.5000020027161
169,158,85690,1,0,0:0:0:0:
191,84,85856,2,0,B|255:95|278:129|274:204,1,157.500006008148
202,249,86519,1,0,0:0:0:0:
281,257,86685,2,0,L|349:255,4,52.5000020027161
229,120,87679,6,0,L|184:154,1,52.5000020027161
132,180,88011,1,0,0:0:0:0:
146,238,88176,2,0,L|171:295,1,52.5000020027161
225,313,88508,1,0,0:0:0:0:
291,295,88674,2,0,L|348:266,1,52.5000020027161
392,231,89005,1,0,0:0:0:0:
376,172,89171,2,0,L|343:113,1,52.5000020027161
294,89,89502,1,0,0:0:0:0:
246,114,89668,2,0,L|153:171,1,105.000004005432
160,303,90497,6,0,L|272:314,1,105.000004005432
288,207,91160,2,0,L|147:182,1,105.000004005432
194,68,91823,2,0,L|308:93,1,105.000004005432
346,249,92486,2,0,L|315:304,2,52.5000020027161
365,170,93149,1,0,0:0:0:0:
365,103,93314,2,0,L|306:57,1,52.5000020027161
275,57,93646,1,0,0:0:0:0:
137,189,93977,5,0,0:0:0:0:
196,304,94309,2,0,L|265:283,7,52.5000020027161
327,175,95801,1,0,0:0:0:0:
287,129,95966,2,0,L|241:87,5,52.5000020027161
143,180,97127,1,0,0:0:0:0:
189,237,97292,2,0,L|228:283,4,52.5000020027161
364,169,98287,5,0,0:0:0:0:
276,74,98618,1,0,0:0:0:0:
168,137,98950,1,0,0:0:0:0:
245,225,99281,1,0,0:0:0:0:
292,122,99613,2,0,L|342:158,7,52.5000020027161
272,249,101104,6,0,L|219:248,5,52.5000020027161
379,145,102265,2,0,L|335:97,6,52.5000020027161
182,277,103591,2,0,L|145:231,8,52.5000020027161
310,275,105414,1,0,0:0:0:0:
361,198,105745,2,0,L|351:123,1,52.5000020027161
