osu file format v14

[General]
AudioFilename: audio.mp3
AudioLeadIn: 0
PreviewTime: -1
Countdown: 0
SampleSet: Soft
StackLeniency: 0.7
Mode: 0
LetterboxInBreaks: 0
WidescreenStoryboard: 0

[Editor]
Bookmarks: 699,3099,7899,12699,17499
DistanceSpacing: 2.3
BeatDivisor: 4
GridSize: 8
TimelineZoom: 2.7

[Metadata]
Title:Extreme Training - Jump + Streams
TitleUnicode:Extreme Training - Jump + Streams
Artist:Rlcemaster3
ArtistUnicode:次は頑張ろう
Creator:DavzN
Version:Not Passable
Source:
Tags:jump jumping train training stream streams
BeatmapID:1992401
BeatmapSetID:954316

[Difficulty]
HPDrainRate:6
CircleSize:3.5
OverallDifficulty:9
ApproachRate:9.8
SliderMultiplier:2.4
SliderTickRate:1

[Events]
//Background and Video events
0,0,"bg.png",0,0
//Break Periods
//Storyboard Layer 0 (Background)
//Storyboard Layer 1 (Fail)
//Storyboard Layer 2 (Pass)
//Storyboard Layer 3 (Foreground)
//Storyboard Layer 4 (Overlay)
//Storyboard Sound Samples

[TimingPoints]
699,300,4,2,1,50,1,0
699,-100,4,2,1,50,0,0
3099,-100,4,2,1,50,0,0
12699,-100,4,2,1,50,0,1
23499,-50,4,2,1,50,0,1
23799,-33.3333333333333,4,2,1,50,0,0
24099,-100,4,2,1,50,0,0

[Colours]
Combo1 : 187,103,229
Combo2 : 255,213,128
Combo3 : 242,121,97
Combo4 : 255,140,179

[HitObjects]
271,245,699,5,0,0:0:0:0:
41,103,849,1,0,0:0:0:0:
41,103,924,1,0,0:0:0:0:
41,103,999,1,0,0:0:0:0:
299,27,1149,1,0,0:0:0:0:
159,259,1299,2,0,L|108:323,2,60
421,186,1599,1,0,0:0:0:0:
191,327,1749,1,0,0:0:0:0:
269,68,1899,5,0,0:0:0:0:
391,307,2049,2,0,L|435:387,2,60
138,206,2349,1,0,0:0:0:0:
392,114,2499,1,0,0:0:0:0:
61,46,2649,1,0,0:0:0:0:
393,276,2799,1,0,0:0:0:0:
0,369,2949,1,0,0:0:0:0:
189,175,3099,6,0,P|240:159|316:178,1,120
511,319,3399,1,0,0:0:0:0:
260,322,3549,2,0,L|183:322,2,60
463,173,3849,1,0,0:0:0:0:
231,70,3999,2,0,P|216:138|236:208,1,120
433,343,4299,6,0,P|447:273|429:205,1,120
256,40,4599,1,0,0:0:0:0:
187,285,4749,1,0,0:0:0:0:
34,83,4899,1,0,0:0:0:0:
34,83,4974,1,0,0:0:0:0:
34,83,5049,1,0,0:0:0:0:
125,319,5199,2,0,P|193:326|253:296,1,120
335,65,5499,5,0,0:0:0:0:
417,304,5649,1,0,0:0:0:0:
169,250,5799,1,0,0:0:0:0:
399,145,5949,1,0,0:0:0:0:
150,340,6099,5,0,0:0:0:0:
227,32,6249,1,0,0:0:0:0:
473,230,6399,1,0,0:0:0:0:
157,217,6549,1,0,0:0:0:0:
424,47,6699,5,0,0:0:0:0:
270,325,6849,1,0,0:0:0:0:
270,325,6924,1,0,0:0:0:0:
270,325,6999,1,0,0:0:0:0:
68,79,7149,1,0,0:0:0:0:
382,55,7299,5,0,0:0:0:0:
391,118,7374,1,0,0:0:0:0:
381,180,7449,1,0,0:0:0:0:
346,232,7524,1,0,0:0:0:0:
294,268,7599,1,0,0:0:0:0:
232,285,7674,1,0,0:0:0:0:
169,285,7749,1,0,0:0:0:0:
109,266,7824,1,0,0:0:0:0:
49,244,7899,6,0,B|57:160|95:82,1,120
376,14,8199,1,0,0:0:0:0:
315,322,8349,1,0,0:0:0:0:
315,322,8424,1,0,0:0:0:0:
315,322,8499,1,0,0:0:0:0:
68,128,8649,1,0,0:0:0:0:
379,139,8799,1,0,0:0:0:0:
116,309,8949,1,0,0:0:0:0:
270,35,9099,6,0,P|341:64|378:128,1,120
179,350,9399,1,0,0:0:0:0:
78,53,9549,1,0,0:0:0:0:
379,139,9699,1,0,0:0:0:0:
379,139,9774,1,0,0:0:0:0:
379,139,9849,1,0,0:0:0:0:
77,219,9999,2,0,P|51:150|74:97,1,120
376,55,10299,5,0,0:0:0:0:
231,333,10449,1,0,0:0:0:0:
0,122,10599,1,0,0:0:0:0:
307,171,10749,1,0,0:0:0:0:
307,171,10824,1,0,0:0:0:0:
307,171,10899,1,0,0:0:0:0:
30,316,11049,1,0,0:0:0:0:
173,37,11199,1,0,0:0:0:0:
315,316,11349,1,0,0:0:0:0:
52,145,11499,6,0,L|-9:108,2,60
357,79,11799,2,0,L|416:56,2,60
162,324,12099,2,0,L|101:363,1,60
305,44,12249,2,0,L|360:1,1,60
472,309,12399,2,0,L|499:368,1,60
181,195,12549,2,0,L|120:210,1,60
471,37,12699,6,0,P|486:85|481:130,1,60
478,166,12849,1,0,0:0:0:0:
462,223,12924,1,0,0:0:0:0:
428,272,12999,1,0,0:0:0:0:
374,299,13074,1,0,0:0:0:0:
314,292,13149,1,0,0:0:0:0:
274,247,13224,1,0,0:0:0:0:
264,187,13299,5,0,0:0:0:0:
271,127,13374,1,0,0:0:0:0:
249,70,13449,1,0,0:0:0:0:
193,47,13524,1,0,0:0:0:0:
133,57,13599,1,0,0:0:0:0:
43,327,13899,5,0,0:0:0:0:
75,276,13974,1,0,0:0:0:0:
126,245,14049,1,0,0:0:0:0:
185,249,14124,1,0,0:0:0:0:
234,282,14199,1,0,0:0:0:0:
291,297,14274,1,0,0:0:0:0:
346,274,14349,1,0,0:0:0:0:
372,219,14424,1,0,0:0:0:0:
379,159,14499,6,0,L|355:94,1,60
116,61,14649,2,0,L|137:135,1,60
226,344,14799,2,0,L|285:298,1,60
353,59,14949,2,0,L|300:104,1,60
44,168,15099,6,0,L|78:233,1,60
120,285,15249,1,0,0:0:0:0:
178,315,15324,1,0,0:0:0:0:
243,307,15399,1,0,0:0:0:0:
283,254,15474,1,0,0:0:0:0:
282,188,15549,1,0,0:0:0:0:
265,124,15624,1,0,0:0:0:0:
291,63,15699,1,0,0:0:0:0:
352,39,15774,1,0,0:0:0:0:
412,64,15849,1,0,0:0:0:0:
443,122,15924,1,0,0:0:0:0:
431,186,15999,1,0,0:0:0:0:
382,230,16074,1,0,0:0:0:0:
316,222,16149,1,0,0:0:0:0:
269,175,16224,1,0,0:0:0:0:
223,119,16299,5,0,0:0:0:0:
152,102,16374,1,0,0:0:0:0:
83,124,16449,1,0,0:0:0:0:
54,190,16524,1,0,0:0:0:0:
70,260,16599,1,0,0:0:0:0:
121,310,16674,1,0,0:0:0:0:
192,309,16749,1,0,0:0:0:0:
247,263,16824,1,0,0:0:0:0:
285,202,16899,1,0,0:0:0:0:
356,194,16974,1,0,0:0:0:0:
408,243,17049,1,0,0:0:0:0:
389,312,17124,1,0,0:0:0:0:
324,343,17199,1,0,0:0:0:0:
263,303,17274,1,0,0:0:0:0:
254,231,17349,1,0,0:0:0:0:
222,166,17424,1,0,0:0:0:0:
167,118,17499,5,0,0:0:0:0:
31,358,17649,1,0,0:0:0:0:
291,265,17799,1,0,0:0:0:0:
60,113,17949,1,0,0:0:0:0:
323,30,18099,1,0,0:0:0:0:
220,286,18249,1,0,0:0:0:0:
458,147,18399,1,0,0:0:0:0:
191,73,18549,1,0,0:0:0:0:
373,279,18699,5,0,0:0:0:0:
260,27,18849,1,0,0:0:0:0:
139,275,18999,1,0,0:0:0:0:
186,3,19149,1,0,0:0:0:0:
407,167,19299,1,0,0:0:0:0:
136,111,19449,1,0,0:0:0:0:
272,351,19599,1,0,0:0:0:0:
295,76,19749,1,0,0:0:0:0:
128,296,19899,5,0,0:0:0:0:
49,31,20049,1,0,0:0:0:0:
324,18,20199,1,0,0:0:0:0:
91,166,20349,1,0,0:0:0:0:
91,166,20424,1,0,0:0:0:0:
91,166,20499,5,0,0:0:0:0:
357,237,20649,1,0,0:0:0:0:
176,28,20799,1,0,0:0:0:0:
252,293,20949,1,0,0:0:0:0:
97,64,21099,1,0,0:0:0:0:
372,43,21249,1,0,0:0:0:0:
188,249,21399,5,0,0:0:0:0:
47,11,21549,1,0,0:0:0:0:
299,123,21699,1,0,0:0:0:0:
46,233,21849,1,0,0:0:0:0:
231,28,21999,1,0,0:0:0:0:
321,288,22149,1,0,0:0:0:0:
74,164,22299,5,0,0:0:0:0:
344,107,22449,1,0,0:0:0:0:
204,344,22599,1,0,0:0:0:0:
133,77,22749,1,0,0:0:0:0:
133,77,22824,1,0,0:0:0:0:
133,77,22899,1,0,0:0:0:0:
372,214,23049,1,0,0:0:0:0:
133,171,23199,6,0,P|130:111|181:98,1,120
133,171,23499,6,0,P|98:72|184:127,1,240
133,171,23799,6,0,P|68:43|180:115,1,360.000013732911
