osu file format v14

[General]
AudioFilename: audio.mp3
AudioLeadIn: 0
PreviewTime: 85971
Countdown: 1
SampleSet: Soft
StackLeniency: 0.7
Mode: 0
LetterboxInBreaks: 0
WidescreenStoryboard: 1

[Editor]
Bookmarks: 2452,7316,8711,9554,12999,19485,25971,38944,51917,58404,69755,71377,85971,87593,113539,120026,132998,139485,145161,145971,152458,167053,168674,194620,201107,214080,227053,251377,252188,252998,265713,266919,273405,299388,324488,326685,331541,332133,332925,333761,336411
DistanceSpacing: 1
BeatDivisor: 8
GridSize: 16
TimelineZoom: 1

[Metadata]
Title:Fancy Funk'in Pumpkin~midnight~
TitleUnicode:Fancy Funk'in Pumpkin~midnight~
Artist:Rizumine
ArtistUnicode:りずみね
Creator:- noya -
Version:fancy
Source:
Tags:Halloween touhou
BeatmapID:3863244
BeatmapSetID:1876967

[Difficulty]
HPDrainRate:5
CircleSize:4.2
OverallDifficulty:7.6
ApproachRate:8.8
SliderMultiplier:1.9
SliderTickRate:2

[Events]
//Background and Video events
0,0,"bg.png",0,0
//Break Periods
2,201306,210207
//Storyboard Layer 0 (Background)
//Storyboard Layer 1 (Fail)
//Storyboard Layer 2 (Pass)
//Storyboard Layer 3 (Foreground)
//Storyboard Layer 4 (Overlay)
//Storyboard Sound Samples

[TimingPoints]
2452,810.810810810811,4,2,0,100,1,0
7316,1395.3488372093,4,2,0,100,1,0
8711,1500,4,2,0,100,1,0
9554,3442.34079173838,4,2,0,100,1,0
12999,405.405405405405,4,2,0,100,1,0
12999,-166.666666666667,4,2,0,100,0,0
19485,-125,4,2,0,100,0,0
25971,-100,4,2,0,100,0,0
38944,-125,4,2,0,100,0,0
51917,-142.857142857143,4,2,0,100,0,0
58404,-125,4,2,0,100,0,0
69755,-200,4,2,0,100,0,0
71377,-111.111111111111,4,2,0,100,0,0
85971,-125,4,2,0,100,0,0
87593,-83.3333333333333,4,2,0,100,0,1
113539,-142.857142857143,4,2,0,100,0,0
120026,-125,4,2,0,100,0,0
132998,-100,4,2,0,100,0,0
139485,-166.666666666667,4,2,0,100,0,0
145971,-100,4,2,0,100,0,0
152458,-125,4,2,0,100,0,0
168674,-100,4,2,0,100,0,0
194620,-166.666666666667,4,2,0,100,0,0
201107,-125,4,2,0,100,0,0
214080,-100,4,2,0,100,0,0
227053,-83.3333333333333,4,2,0,100,0,1
251377,-111.111111111111,4,2,0,100,0,0
252188,-142.857142857143,4,2,0,100,0,0
252998,385.306961212433,4,2,0,100,1,0
252998,-125,4,2,0,100,0,0
265713,402.684563758389,4,2,0,100,1,0
266921,405.405405405405,4,2,0,100,1,0
266921,-125,4,2,0,100,0,0
273407,405.95399188092,4,2,0,100,1,1
299388,405.95399188092,4,2,0,100,1,0
299388,-90.9090909090909,4,2,0,100,0,0
324252,-45.4545454545455,4,2,0,100,0,0
324430,909.090909090909,4,2,0,100,1,0
326677,405.405405405405,4,2,0,100,1,0
331541,588.235294117647,4,2,0,100,1,0
332133,789.473684210526,4,2,0,100,1,0
332925,833.333333333334,4,2,0,100,1,0
333761,882.352941176471,4,2,0,100,1,0

[HitObjects]
300,56,2452,5,0,0:0:0:0:
388,56,2857,1,0,0:0:0:0:
388,144,3262,1,0,0:0:0:0:
300,144,3668,1,0,0:0:0:0:
300,56,4073,1,0,0:0:0:0:
388,56,4479,1,0,0:0:0:0:
212,56,4884,5,0,0:0:0:0:
212,144,5289,1,0,0:0:0:0:
124,144,5695,1,0,0:0:0:0:
124,56,6100,1,0,0:0:0:0:
212,56,6506,1,0,0:0:0:0:
212,144,6911,1,0,0:0:0:0:
124,144,7316,5,0,0:0:0:0:
300,144,7926,1,0,0:0:0:0:
212,240,8711,5,0,0:0:0:0:
212,56,9554,1,0,0:0:0:0:
256,192,9769,12,0,12566,0:0:0:0:
256,192,12999,6,0,P|248:256|280:304,1,113.999996520996
400,336,13607,1,0,0:0:0:0:
400,336,13809,2,0,P|436:282|429:225,1,113.999996520996
344,88,14620,2,0,P|383:37|440:25,1,113.999996520996
489,166,15431,2,0,P|430:192|374:177,1,113.999996520996
256,104,16242,6,0,P|192:96|144:128,1,113.999996520996
80,200,16850,1,0,0:0:0:0:
80,200,17053,2,0,P|53:150|62:95,1,113.999996520996
128,272,17863,2,0,P|98:320|46:340,1,113.999996520996
164,200,18674,2,0,P|220:201|263:236,1,113.999996520996
376,360,19485,6,0,L|306:329,1,76
306,329,19890,2,0,L|375:298,1,76
465,203,20296,2,0,L|464:128,1,76
466,204,20701,2,0,L|406:156,1,76
267,179,21107,2,0,L|306:245,1,76
306,246,21512,2,0,L|232:232,1,76
300,85,21918,2,0,L|370:55,1,76
372,56,22323,2,0,L|304:24,1,76
186,118,22728,6,0,L|112:104,1,76
147,51,23133,2,0,L|186:117,1,76
93,219,23539,2,0,L|23:247,1,76
48,176,23944,2,0,L|21:247,1,76
233,259,24350,5,0,0:0:0:0:
93,218,24553,1,0,0:0:0:0:
132,294,24755,5,0,0:0:0:0:
234,177,24958,1,0,0:0:0:0:
152,156,25161,1,0,0:0:0:0:
224,344,25363,1,0,0:0:0:0:
224,344,25566,2,0,B|264:368|328:368|344:280,1,152
264,264,26174,5,0,0:0:0:0:
328,208,26377,1,0,0:0:0:0:
340,293,26580,1,0,0:0:0:0:
424,320,26782,2,0,P|472:304|496:256,1,95
494,267,27188,1,0,0:0:0:0:
438,173,27390,1,0,0:0:0:0:
328,208,27593,2,0,P|305:162|322:111,1,95
376,56,27998,5,0,0:0:0:0:
480,80,28201,1,0,0:0:0:0:
315,121,28404,1,0,0:0:0:0:
320,16,28607,1,0,0:0:0:0:
400,136,28809,1,0,0:0:0:0:
440,16,29012,1,0,0:0:0:0:
315,121,29215,2,0,P|264:128|224:104,1,95
168,40,29620,5,0,0:0:0:0:
136,120,29823,1,0,0:0:0:0:
136,120,30026,2,0,P|135:168|173:203,1,95
256,240,30431,1,0,0:0:0:0:
315,121,30634,1,0,0:0:0:0:
440,288,30836,1,0,0:0:0:0:
408,184,31039,1,0,0:0:0:0:
256,240,31242,5,0,0:0:0:0:
408,184,31444,1,0,0:0:0:0:
336,344,31647,1,0,0:0:0:0:
256,240,31850,1,0,0:0:0:0:
440,288,32053,1,0,0:0:0:0:
264,360,32255,1,0,0:0:0:0:
264,360,32458,6,0,P|216:368|160:336,1,95
104,288,32863,1,0,0:0:0:0:
40,344,33066,1,0,0:0:0:0:
40,240,33269,2,0,P|72:208|120:208,1,95
224,256,33674,1,0,0:0:0:0:
256,144,33877,1,0,0:0:0:0:
120,119,34080,2,0,P|157:91|165:46,1,95
299,70,34485,2,0,P|262:98|256:144,1,95
392,48,34890,1,0,0:0:0:0:
333,243,35093,1,0,0:0:0:0:
256,144,35296,1,0,0:0:0:0:
448,112,35498,1,0,0:0:0:0:
416,208,35701,6,0,P|376:240|320:240,1,95
232,192,36107,1,0,0:0:0:0:
176,280,36309,1,0,0:0:0:0:
240,360,36512,2,0,P|256:304|248:256,1,95
112,224,36917,2,0,P|96:280|104:328,1,95
192,184,37323,5,0,0:0:0:0:
192,184,37526,1,0,0:0:0:0:
160,368,37728,1,0,0:0:0:0:
112,224,37931,1,0,0:0:0:0:
251,268,38134,1,0,0:0:0:0:
100,315,38336,1,0,0:0:0:0:
240,360,38539,1,0,0:0:0:0:
400,184,38944,6,0,P|376:144|368:104,1,76
400,32,39350,2,0,P|440:56|456:96,1,76
288,144,39755,1,0,0:0:0:0:
288,144,39958,1,0,0:0:0:0:
352,224,40161,5,0,0:0:0:0:
440,256,40363,1,0,0:0:0:0:
256,248,40566,1,0,0:0:0:0:
192,320,40769,1,0,0:0:0:0:
328,344,40971,1,0,0:0:0:0:
328,344,41174,1,0,0:0:0:0:
160,176,41377,5,0,0:0:0:0:
88,224,41580,1,0,0:0:0:0:
16,176,41782,1,0,0:0:0:0:
88,96,41985,1,0,0:0:0:0:
176,264,42188,6,0,P|168:304|136:344,1,76
64,368,42593,2,0,P|53:331|57:294,1,76
232,352,42998,1,0,0:0:0:0:
232,352,43201,1,0,0:0:0:0:
239,196,43404,2,0,P|272:176|320:184,1,76
368,280,43809,5,0,0:0:0:0:
288,248,44012,1,0,0:0:0:0:
392,200,44215,1,0,0:0:0:0:
264,104,44417,2,0,P|272:32|320:8,1,114
360,24,44823,2,0,P|392:32|416:40,1,38
456,48,45026,1,0,0:0:0:0:
368,128,45228,1,0,0:0:0:0:
472,176,45431,6,0,P|488:216|472:256,1,76
368,280,45836,2,0,P|352:240|368:200,1,76
440,320,46242,1,0,0:0:0:0:
440,320,46444,1,0,0:0:0:0:
280,288,46647,5,0,0:0:0:0:
200,336,46850,1,0,0:0:0:0:
288,208,47053,1,0,0:0:0:0:
232,144,47255,1,0,0:0:0:0:
160,232,47458,1,0,0:0:0:0:
160,232,47661,1,0,0:0:0:0:
104,24,47863,5,0,0:0:0:0:
176,80,48066,1,0,0:0:0:0:
112,136,48269,1,0,0:0:0:0:
48,88,48471,1,0,0:0:0:0:
184,8,48674,6,0,P|232:0|272:16,1,76
320,96,49080,2,0,P|280:112|232:104,1,76
176,80,49485,1,0,0:0:0:0:
176,80,49688,1,0,0:0:0:0:
352,16,49890,2,0,P|392:48|400:96,1,76
344,160,50296,1,0,0:0:0:0:
368,264,50498,1,0,0:0:0:0:
432,208,50701,1,0,0:0:0:0:
272,216,50904,6,0,P|272:288|296:344,1,114
328,360,51309,2,0,L|384:368,1,38
416,368,51512,1,0,0:0:0:0:
464,280,51715,1,0,0:0:0:0:
304,256,51917,2,0,P|272:256|224:264,1,66.4999979705811
166,336,52323,2,0,L|160:304,3,33.2499989852906
160,224,52728,1,0,0:0:0:0:
248,344,52931,1,0,0:0:0:0:
80,296,53134,2,0,P|64:248|80:192,1,99.7499969558717
120,160,53539,6,0,P|144:128|136:96,1,66.4999979705811
40,16,53944,2,0,P|33:48|44:79,1,66.4999979705811
140,103,54350,1,0,0:0:0:0:
44,79,54553,1,0,0:0:0:0:
128,16,54755,1,0,0:0:0:0:
160,10,54856,1,0,0:0:0:0:
191,20,54957,1,0,0:0:0:0:
214,43,55059,1,0,0:0:0:0:
224,75,55161,2,0,P|216:128|224:160,1,66.4999979705811
288,208,55566,2,0,L|296:256,3,33.2499989852906
296,128,55971,5,0,0:0:0:0:
200,208,56174,1,0,0:0:0:0:
328,304,56377,1,0,0:0:0:0:
384,192,56580,1,0,0:0:0:0:
384,192,56782,2,0,P|392:144|408:112,1,66.4999979705811
480,72,57188,2,0,P|432:64|400:40,1,66.4999979705811
256,16,57593,5,0,0:0:0:0:
312,128,57796,1,0,0:0:0:0:
216,88,57998,5,0,0:0:0:0:
352,16,58201,1,0,0:0:0:0:
216,88,58404,6,0,P|208:136|224:176,1,76
264,256,58809,2,0,P|296:272|352:264,1,76
416,208,59215,1,0,0:0:0:0:
416,312,59417,1,0,0:0:0:0:
192,344,59620,2,0,P|168:304|176:272,1,76
288,184,60026,5,0,0:0:0:0:
208,152,60229,1,0,0:0:0:0:
296,248,60431,1,0,0:0:0:0:
352,136,60634,1,0,0:0:0:0:
208,216,60836,5,0,0:0:0:0:
376,208,61039,1,0,0:0:0:0:
264,320,61242,1,0,0:0:0:0:
280,136,61444,1,0,0:0:0:0:
280,136,61647,6,0,P|312:112|360:112,1,76
424,152,62053,2,0,P|472:144|504:120,1,76
432,40,62458,2,0,B|392:64|352:40|368:32|328:8|284:30,1,152
216,88,63066,1,0,0:0:0:0:
224,176,63269,1,0,0:0:0:0:
312,192,63471,1,0,0:0:0:0:
346,108,63674,1,0,0:0:0:0:
192,16,63877,2,0,P|152:24|128:64,1,76
64,200,64282,5,0,0:0:0:0:
131,50,64485,1,0,0:0:0:0:
176,176,64688,1,0,0:0:0:0:
64,112,64890,1,0,0:0:0:0:
272,120,65093,1,0,0:0:0:0:
144,264,65296,1,0,0:0:0:0:
144,264,65498,2,0,P|141:306|160:338,2,76
248,208,66107,2,0,P|288:200|336:224,1,76
360,328,66512,5,0,0:0:0:0:
224,296,66715,1,0,0:0:0:0:
320,208,66917,1,0,0:0:0:0:
168,160,67120,1,0,0:0:0:0:
168,160,67323,2,0,P|168:96|184:72,1,76
312,96,67728,2,0,P|264:88|240:64,1,76
80,16,68134,2,0,P|136:8|168:24,1,76
244,70,68539,1,0,0:0:0:0:
72,152,68742,1,0,0:0:0:0:
72,152,68944,5,0,0:0:0:0:
200,128,69147,1,0,0:0:0:0:
128,96,69350,1,0,0:0:0:0:
192,208,69553,1,0,0:0:0:0:
112,256,69755,2,0,P|80:272|56:272,1,47.5
16,208,70161,2,0,P|40:192|77:216,1,71.25
112,256,70566,2,0,P|176:272|224:216,1,142.5
230,109,71377,6,0,P|196:102|150:132,1,85.4999973907472
97,183,71782,1,0,0:0:0:0:
86,83,71985,1,0,0:0:0:0:
203,29,72188,2,0,P|224:70|228:125,1,85.4999973907472
223,206,72593,1,0,0:0:0:0:
322,253,72796,1,0,0:0:0:0:
405,152,72998,6,0,P|398:109|378:72,1,85.4999973907472
318,140,73404,1,0,0:0:0:0:
447,30,73607,1,0,0:0:0:0:
316,30,73809,2,0,P|303:80|323:125,1,85.4999973907472
415,212,74215,1,0,0:0:0:0:
299,334,74417,1,0,0:0:0:0:
298,333,74620,6,0,P|285:292|259:258,1,85.4999973907472
171,186,75026,1,0,0:0:0:0:
248,120,75228,1,0,0:0:0:0:
151,53,75431,1,0,0:0:0:0:
248,120,75634,1,0,0:0:0:0:
121,264,75836,1,0,0:0:0:0:
176,191,76039,1,0,0:0:0:0:
259,258,76242,1,0,0:0:0:0:
206,325,76444,1,0,0:0:0:0:
176,191,76647,1,0,0:0:0:0:
291,306,76850,1,0,0:0:0:0:
137,375,77053,2,0,P|55:353|19:256,1,170.999994781494
17,280,77661,1,0,0:0:0:0:
196,178,77863,5,0,0:0:0:0:
171,269,78066,1,0,0:0:0:0:
30,167,78269,2,0,P|72:140|121:135,1,85.4999973907472
196,178,78674,1,0,0:0:0:0:
99,225,78877,1,0,0:0:0:0:
213,332,79080,2,0,P|262:326|302:296,1,85.4999973907472
380,147,79485,5,0,0:0:0:0:
311,224,79688,1,0,0:0:0:0:
202,82,79890,2,0,P|243:89|277:115,1,85.4999973907472
215,160,80296,1,0,0:0:0:0:
297,45,80498,1,0,0:0:0:0:
136,27,80701,2,0,P|124:97|139:158,1,128.249996086121
179,236,81107,5,0,0:0:0:0:
39,276,81309,1,0,0:0:0:0:
116,379,81512,2,0,P|136:337|129:284,1,85.4999973907472
333,148,81917,1,0,0:0:0:0:
473,108,82119,1,0,0:0:0:0:
396,5,82322,2,0,P|376:47|383:100,1,85.4999973907472
430,211,82728,5,0,0:0:0:0:
312,175,82931,1,0,0:0:0:0:
484,178,83134,1,0,0:0:0:0:
300,244,83336,1,0,0:0:0:0:
469,320,83539,2,0,B|437:317|423:295|410:264|410:264|380:248|370:251,1,128.249996086121
284,356,83944,1,0,0:0:0:0:
370,251,84147,1,0,0:0:0:0:
210,265,84350,5,0,0:0:0:0:
284,356,84553,1,0,0:0:0:0:
307,212,84755,2,0,B|318:175|271:130|271:130|278:86,1,128.249996086121
202,5,85161,1,0,0:0:0:0:
276,96,85364,1,0,0:0:0:0:
179,149,85566,2,0,B|168:186|215:231|215:231|208:275,1,128.249996086121
209,264,85971,1,0,0:0:0:0:
102,329,86174,5,0,0:0:0:0:
102,329,86276,1,0,0:0:0:0:
102,329,86377,1,0,0:0:0:0:
209,264,86580,1,0,0:0:0:0:
102,329,86782,1,0,0:0:0:0:
186,339,86985,1,0,0:0:0:0:
116,248,87188,2,0,P|71:253|41:288,1,76
20,160,87593,6,0,P|78:160|143:138,1,113.999996520996
203,68,87998,1,0,0:0:0:0:
236,164,88201,1,0,0:0:0:0:
131,143,88404,2,0,B|116:107|99:87|99:87|124:32,1,113.999996520996
266,20,88809,1,0,0:0:0:0:
236,164,89012,1,0,0:0:0:0:
426,107,89215,2,0,B|370:47|370:47|350:78,1,113.999996520996
328,171,89620,1,0,0:0:0:0:
395,282,89823,1,0,0:0:0:0:
278,260,90026,2,0,P|239:218|241:150,1,113.999996520996
426,107,90431,2,0,B|444:150|441:183|441:183|419:221,1,113.999996520996
250,303,90836,5,0,0:0:0:0:
423,213,91039,1,0,0:0:0:0:
250,303,91242,1,0,0:0:0:0:
420,323,91444,1,0,0:0:0:0:
328,171,91647,2,0,P|268:155|216:196,1,113.999996520996
196,219,91951,1,0,0:0:0:0:
196,219,92053,1,0,0:0:0:0:
278,293,92255,1,0,0:0:0:0:
173,76,92458,5,0,0:0:0:0:
110,206,92661,1,0,0:0:0:0:
250,303,92863,1,0,0:0:0:0:
110,206,93066,1,0,0:0:0:0:
259,62,93269,1,0,0:0:0:0:
259,62,93471,1,0,0:0:0:0:
211,180,93674,5,0,0:0:0:0:
98,111,93877,1,0,0:0:0:0:
36,249,94080,2,0,B|24:299|38:331|38:331|65:363,1,113.999996520996
195,327,94485,2,0,B|213:252|213:252|195:207,1,113.999996520996
116,272,94890,1,0,0:0:0:0:
286,225,95093,1,0,0:0:0:0:
165,83,95296,2,0,B|141:77|141:77|112:108|123:160,1,113.999996520996
320,143,95701,2,0,B|366:133|397:108|397:108|362:92,1,113.999996520996
165,83,96107,1,0,0:0:0:0:
268,25,96309,1,0,0:0:0:0:
228,188,96512,2,0,P|267:224|324:211,1,113.999996520996
461,317,96917,2,0,P|407:314|377:264,1,113.999996520996
322,212,97323,5,0,0:0:0:0:
344,361,97526,1,0,0:0:0:0:
485,212,97728,1,0,0:0:0:0:
280,297,97931,1,0,0:0:0:0:
461,317,98134,2,0,B|491:280|495:241|495:241|481:198,1,113.999996520996
402,103,98438,1,0,0:0:0:0:
402,103,98539,2,0,P|311:77|261:118,1,113.999996520996
200,208,98944,1,0,0:0:0:0:
284,299,99147,1,0,0:0:0:0:
270,107,99350,1,0,0:0:0:0:
102,273,99553,1,0,0:0:0:0:
270,107,99755,5,0,0:0:0:0:
284,299,99958,1,0,0:0:0:0:
200,208,100161,1,0,0:0:0:0:
335,214,100363,1,0,0:0:0:0:
188,358,100566,6,0,P|120:369|61:330,1,113.999996520996
166,224,100971,1,0,0:0:0:0:
52,145,101174,1,0,0:0:0:0:
52,145,101377,2,0,P|37:213|60:266,1,113.999996520996
166,224,101782,1,0,0:0:0:0:
206,89,101985,1,0,0:0:0:0:
206,89,102188,2,0,P|151:65|100:78,1,113.999996520996
232,199,102593,1,0,0:0:0:0:
283,118,102796,1,0,0:0:0:0:
139,143,102998,2,0,B|131:188|144:230|144:230|179:256,1,113.999996520996
319,308,103404,2,0,B|356:240|352:182|352:182|313:143,1,170.999994781494
283,118,103809,5,0,0:0:0:0:
420,79,104012,1,0,0:0:0:0:
282,216,104215,1,0,0:0:0:0:
332,37,104417,1,0,0:0:0:0:
427,156,104620,1,0,0:0:0:0:
282,216,104823,1,0,0:0:0:0:
282,216,104924,1,0,0:0:0:0:
282,216,105026,1,0,0:0:0:0:
427,156,105228,1,0,0:0:0:0:
257,62,105431,5,0,0:0:0:0:
389,254,105634,1,0,0:0:0:0:
201,166,105836,5,0,0:0:0:0:
353,109,106039,1,0,0:0:0:0:
247,267,106242,1,0,0:0:0:0:
247,267,106444,1,0,0:0:0:0:
335,348,106647,1,0,0:0:0:0:
291,182,106850,1,0,0:0:0:0:
190,330,107053,6,0,P|128:321|92:280,1,113.999996520996
109,140,107458,1,0,0:0:0:0:
34,206,107661,1,0,0:0:0:0:
191,178,107863,2,0,B|212:139|212:139|201:95|170:77,1,113.999996520996
113,210,108269,1,0,0:0:0:0:
51,79,108471,1,0,0:0:0:0:
176,80,108674,2,0,B|221:76|252:36|252:36|292:44,1,113.999996520996
410,46,109080,1,0,0:0:0:0:
300,130,109282,1,0,0:0:0:0:
413,245,109485,2,0,P|439:196|423:140,1,113.999996520996
325,223,109890,2,0,B|311:273|322:315|356:356|356:356|395:363,1,170.999994781494
448,328,110296,5,0,0:0:0:0:
276,375,110498,1,0,0:0:0:0:
234,259,110701,1,0,0:0:0:0:
383,280,110904,1,0,0:0:0:0:
195,338,111107,1,0,0:0:0:0:
250,182,111309,1,0,0:0:0:0:
257,189,111411,1,0,0:0:0:0:
257,189,111512,1,0,0:0:0:0:
163,228,111715,1,0,0:0:0:0:
336,148,111917,6,0,P|359:106|339:20,1,113.999996520996
149,2,112323,2,0,P|137:77|157:124,1,113.999996520996
227,46,112728,1,0,0:0:0:0:
52,54,112931,1,0,0:0:0:0:
187,135,113134,1,0,0:0:0:0:
149,2,113336,1,0,0:0:0:0:
56,147,113539,6,0,P|60:188|70:215,1,66.4999979705811
87,287,113944,2,0,P|53:288|22:278,1,66.4999979705811
138,232,114350,2,0,P|177:286|156:356,1,132.999995941162
138,232,114958,1,0,0:0:0:0:
286,332,115363,1,0,0:0:0:0:
405,152,115565,2,0,P|406:197|419:223,1,66.4999979705811
422,305,115971,2,0,P|357:280|325:219,1,132.999995941162
317,86,116580,1,0,0:0:0:0:
317,86,116782,6,0,P|358:94|405:85,1,66.4999979705811
267,23,117188,2,0,P|222:24|190:47,1,66.4999979705811
149,111,117593,2,0,B|126:159|145:188|198:193|201:226,1,132.999995941162
183,294,118201,1,0,0:0:0:0:
282,210,118404,1,0,0:0:0:0:
199,218,118607,1,0,0:0:0:0:
324,281,118809,1,0,0:0:0:0:
235,145,119012,1,0,0:0:0:0:
262,344,119215,2,0,P|344:358|403:263,1,199.499993911743
123,220,120026,5,0,0:0:0:0:
123,220,120228,2,0,P|127:264|121:304,1,76
36,352,120634,1,0,0:0:0:0:
29,251,120836,1,0,0:0:0:0:
29,251,121039,2,0,L|31:181,1,38
32,162,121242,2,0,P|75:159|109:145,1,76
192,72,121647,1,0,0:0:0:0:
123,220,121850,1,0,0:0:0:0:
54,74,122053,1,0,0:0:0:0:
203,164,122255,5,0,0:0:0:0:
203,164,122357,1,0,0:0:0:0:
203,164,122458,2,0,P|256:174|319:137,1,114
348,98,122863,2,0,L|343:30,1,38
338,20,123066,1,0,0:0:0:0:
454,59,123269,6,0,L|435:191,1,114
346,215,123674,1,0,0:0:0:0:
416,283,123877,1,0,0:0:0:0:
317,317,124080,2,0,P|261:306|214:274,1,114
162,196,124485,1,0,0:0:0:0:
238,111,124688,1,0,0:0:0:0:
272,222,124890,1,0,0:0:0:0:
137,74,125093,1,0,0:0:0:0:
238,111,125296,1,0,0:0:0:0:
79,168,125498,1,0,0:0:0:0:
272,222,125701,2,0,P|333:215|357:157,1,114
292,40,126107,5,0,0:0:0:0:
247,22,126208,1,0,0:0:0:0:
200,18,126309,1,0,0:0:0:0:
156,31,126411,1,0,0:0:0:0:
136,73,126512,2,0,B|137:125|174:150|174:150|154:209,1,152
73,291,127120,1,0,0:0:0:0:
73,291,127323,2,0,P|117:309|167:299,1,76
229,238,127728,1,0,0:0:0:0:
83,180,127931,1,0,0:0:0:0:
185,271,128134,5,0,0:0:0:0:
111,354,128336,1,0,0:0:0:0:
182,180,128539,1,0,0:0:0:0:
254,314,128742,1,0,0:0:0:0:
79,241,128944,2,0,B|44:181|47:125|47:125|79:88,1,152
273,109,129553,1,0,0:0:0:0:
273,109,129755,6,0,P|240:138|189:156,1,76
129,155,130161,1,0,0:0:0:0:
174,66,130363,1,0,0:0:0:0:
174,66,130566,2,0,P|204:39|257:31,1,76
411,157,130971,1,0,0:0:0:0:
342,78,131174,1,0,0:0:0:0:
305,214,131377,1,0,0:0:0:0:
235,127,131580,1,0,0:0:0:0:
411,157,131782,1,0,0:0:0:0:
326,319,131985,1,0,0:0:0:0:
326,319,132188,2,0,B|274:290|245:304|257:320|224:333|182:303,1,152
80,189,132796,1,0,0:0:0:0:
80,189,132998,6,0,P|62:142|73:97,1,95
196,114,133404,2,0,P|207:64|187:21,1,95
66,98,133809,1,0,0:0:0:0:
196,114,134012,1,0,0:0:0:0:
80,189,134215,1,0,0:0:0:0:
190,25,134417,1,0,0:0:0:0:
190,25,134620,6,0,P|232:3|299:21,1,95
388,120,135026,2,0,P|332:124|291:102,1,95
358,32,135431,1,0,0:0:0:0:
297,188,135634,1,0,0:0:0:0:
241,41,135836,1,0,0:0:0:0:
388,120,136039,1,0,0:0:0:0:
388,120,136242,6,0,P|400:165|384:211,1,95
272,272,136647,2,0,P|275:324|304:367,1,95
385,209,137053,1,0,0:0:0:0:
272,272,137255,1,0,0:0:0:0:
363,300,137458,1,0,0:0:0:0:
195,148,137661,1,0,0:0:0:0:
195,148,137863,6,0,P|183:193|159:234,1,95
272,272,138269,2,0,P|295:231|307:185,1,95
279,75,138674,1,0,0:0:0:0:
279,75,138877,2,0,L|221:56,1,47.5
169,33,139080,1,0,0:0:0:0:
245,184,139282,1,0,0:0:0:0:
84,125,139485,5,0,0:0:0:0:
84,125,139688,2,0,L|87:165,1,28.4999991302491
140,255,139890,1,0,0:0:0:0:
73,317,140093,1,0,0:0:0:0:
167,346,140296,2,0,B|203:342|222:301|226:275,1,85.4999973907472
222,233,140701,2,0,L|200:203,1,28.4999991302491
172,172,140904,1,0,0:0:0:0:
244,118,141107,1,0,0:0:0:0:
79,215,141309,5,0,0:0:0:0:
79,215,141411,1,0,0:0:0:0:
79,215,141512,1,0,0:0:0:0:
158,272,141715,1,0,0:0:0:0:
315,195,141917,2,0,P|320:172|312:132,1,56.9999982604981
280,77,142323,2,0,P|312:122|373:144,1,113.999996520996
467,147,142931,5,0,0:0:0:0:
467,147,143032,1,0,0:0:0:0:
467,147,143134,1,0,0:0:0:0:
413,245,143336,1,0,0:0:0:0:
375,68,143539,1,0,0:0:0:0:
452,46,143742,1,0,0:0:0:0:
364,145,143944,1,0,0:0:0:0:
298,27,144147,1,0,0:0:0:0:
222,137,144350,1,0,0:0:0:0:
295,232,144553,1,0,0:0:0:0:
295,232,144654,1,0,0:0:0:0:
295,232,144755,6,0,P|283:277|263:299,1,56.9999982604981
188,352,145161,2,0,P|166:324|164:288,1,56.9999982604981
162,303,145465,1,0,0:0:0:0:
187,259,145566,1,0,0:0:0:0:
177,210,145667,1,0,0:0:0:0:
137,180,145769,1,0,0:0:0:0:
87,184,145870,1,0,0:0:0:0:
53,220,145971,5,0,0:0:0:0:
256,143,146174,1,0,0:0:0:0:
123,262,146377,1,0,0:0:0:0:
125,54,146580,1,0,0:0:0:0:
269,220,146782,1,0,0:0:0:0:
54,145,146985,1,0,0:0:0:0:
257,65,147188,1,0,0:0:0:0:
185,224,147390,2,0,L|165:179,1,47.5
125,54,147593,1,0,0:0:0:0:
376,92,147796,2,0,L|365:140,1,47.5
324,264,147999,1,0,0:0:0:0:
266,30,148201,1,0,0:0:0:0:
245,147,148404,6,0,B|223:90|222:70|222:70|237:37|274:28,1,142.5
326,98,148809,1,0,0:0:0:0:
236,238,149012,1,0,0:0:0:0:
334,190,149215,5,0,0:0:0:0:
236,114,149417,1,0,0:0:0:0:
300,286,149620,5,0,0:0:0:0:
399,203,149823,1,0,0:0:0:0:
193,188,150026,5,0,0:0:0:0:
259,348,150228,1,0,0:0:0:0:
399,203,150431,5,0,0:0:0:0:
149,260,150634,1,0,0:0:0:0:
283,79,150836,5,0,0:0:0:0:
403,274,151242,1,0,0:0:0:0:
211,367,151647,2,0,B|185:351|166:370|131:371|131:371|94:351|94:351|74:335|50:334|60:292,1,190
93,64,152458,6,0,L|176:46,1,76
261,73,152863,2,0,L|342:93,1,76
424,191,153269,2,0,L|326:225,1,76
273,257,153674,2,0,L|196:234,1,76
326,28,154080,2,0,L|356:110,1,76
427,185,154485,2,0,L|399:272,1,76
329,344,154890,1,0,0:0:0:0:
273,257,155093,1,0,0:0:0:0:
403,257,155295,1,0,0:0:0:0:
227,357,155498,1,0,0:0:0:0:
227,357,155701,6,0,P|186:352|160:324,1,76
132,211,156107,2,0,P|160:171|159:140,1,76
56,156,156512,1,0,0:0:0:0:
119,46,156715,1,0,0:0:0:0:
230,102,156917,1,0,0:0:0:0:
119,46,157120,1,0,0:0:0:0:
132,211,157323,2,0,P|151:257|185:285,1,76
277,302,157728,2,0,P|301:273|314:237,1,76
433,134,158134,2,0,P|393:91|297:109,1,152
236,177,158640,1,0,0:0:0:0:
236,177,158742,1,0,0:0:0:0:
306,100,158944,5,0,0:0:0:0:
380,181,159147,1,0,0:0:0:0:
290,258,159350,1,0,0:0:0:0:
265,98,159553,1,0,0:0:0:0:
430,263,159755,1,0,0:0:0:0:
237,346,159958,1,0,0:0:0:0:
367,105,160161,1,0,0:0:0:0:
157,259,160363,1,0,0:0:0:0:
340,337,160566,5,0,0:0:0:0:
282,110,160769,1,0,0:0:0:0:
423,194,160971,1,0,0:0:0:0:
190,175,161174,1,0,0:0:0:0:
460,92,161377,1,0,0:0:0:0:
320,206,161580,1,0,0:0:0:0:
281,24,161782,2,0,P|270:82|304:128,1,114
363,173,162188,5,0,0:0:0:0:
297,220,162390,1,0,0:0:0:0:
225,204,162593,1,0,0:0:0:0:
165,154,162796,1,0,0:0:0:0:
392,214,162998,5,0,0:0:0:0:
248,273,163201,1,0,0:0:0:0:
329,277,163403,1,0,0:0:0:0:
173,231,163606,1,0,0:0:0:0:
422,241,163809,5,0,0:0:0:0:
366,321,164012,1,0,0:0:0:0:
279,332,164214,1,0,0:0:0:0:
190,300,164417,1,0,0:0:0:0:
452,260,164620,5,0,0:0:0:0:
316,384,164824,1,0,0:0:0:0:
408,355,165026,1,0,0:0:0:0:
216,367,165228,1,0,0:0:0:0:
216,367,165431,2,0,P|196:316|194:270,1,76
271,214,165836,5,0,0:0:0:0:
101,189,166039,1,0,0:0:0:0:
193,156,166242,1,0,0:0:0:0:
94,282,166444,1,0,0:0:0:0:
66,103,166647,1,0,0:0:0:0:
173,231,166850,1,0,0:0:0:0:
50,364,167053,1,0,0:0:0:0:
261,306,167255,5,0,0:0:0:0:
261,306,167357,1,0,0:0:0:0:
261,306,167458,1,0,0:0:0:0:
46,257,167661,1,0,0:0:0:0:
168,213,167863,5,0,0:0:0:0:
144,320,168066,1,0,0:0:0:0:
73,62,168269,2,0,B|88:91|73:115|73:115|58:138|72:171,1,114
168,213,168674,5,0,0:0:0:0:
276,146,168877,1,0,0:0:0:0:
276,146,169080,2,0,B|296:84|296:84|255:39,1,95
375,119,169485,1,0,0:0:0:0:
199,15,169688,1,0,0:0:0:0:
200,207,169890,2,0,B|178:150|178:150|190:118,1,95
375,119,170296,5,0,0:0:0:0:
278,140,170498,1,0,0:0:0:0:
410,91,170701,1,0,0:0:0:0:
349,223,170904,1,0,0:0:0:0:
320,36,171107,1,0,0:0:0:0:
445,163,171309,1,0,0:0:0:0:
305,300,171512,2,0,B|257:261|209:275,1,95
88,150,171917,2,0,B|145:171|157:220,1,95
141,383,172323,2,0,B|116:327|141:283,1,95
398,159,172728,1,0,0:0:0:0:
318,284,172931,5,0,0:0:0:0:
318,284,173032,1,0,0:0:0:0:
318,284,173134,2,0,P|321:348|349:399,1,95
417,246,173539,1,0,0:0:0:0:
304,162,173742,1,0,0:0:0:0:
318,284,173944,1,0,0:0:0:0:
411,152,174147,1,0,0:0:0:0:
298,43,174350,2,0,B|258:38|258:38|230:62|218:99,1,95
174,273,174755,5,0,0:0:0:0:
101,167,174958,1,0,0:0:0:0:
245,157,175161,2,0,P|269:218|262:247,1,95
69,328,175566,2,0,P|56:276|66:233,1,95
261,310,175971,1,0,0:0:0:0:
189,219,176174,1,0,0:0:0:0:
362,232,176377,2,0,P|391:194|397:148,1,95
245,54,176782,2,0,P|302:57|353:95,1,95
472,214,177188,1,0,0:0:0:0:
323,166,177390,1,0,0:0:0:0:
378,295,177593,1,0,0:0:0:0:
477,117,177796,1,0,0:0:0:0:
477,117,177998,6,0,P|429:84|364:110,1,95
134,242,178404,1,0,0:0:0:0:
224,291,178607,1,0,0:0:0:0:
156,165,178809,1,0,0:0:0:0:
55,233,179012,1,0,0:0:0:0:
235,212,179215,1,0,0:0:0:0:
87,25,179417,1,0,0:0:0:0:
62,60,179519,1,0,0:0:0:0:
81,96,179620,1,0,0:0:0:0:
227,147,179823,1,0,0:0:0:0:
227,147,180026,6,0,P|285:127|321:106,1,95
352,198,180431,2,0,P|368:242|367:290,1,95
240,68,180836,5,0,0:0:0:0:
384,134,181039,1,0,0:0:0:0:
273,230,181242,1,0,0:0:0:0:
417,296,181444,1,0,0:0:0:0:
263,366,181647,2,0,P|218:328|200:280,1,95
217,98,182053,1,0,0:0:0:0:
217,98,182255,1,0,0:0:0:0:
367,229,182458,2,0,P|411:242|464:222,1,95
454,42,182863,1,0,0:0:0:0:
454,42,183066,1,0,0:0:0:0:
311,100,183269,6,0,P|291:139|299:197,1,95
365,284,183674,1,0,0:0:0:0:
396,188,183877,1,0,0:0:0:0:
282,286,184080,1,0,0:0:0:0:
442,323,184282,1,0,0:0:0:0:
297,188,184485,2,0,P|225:184|152:214,1,142.5
97,265,184890,5,0,0:0:0:0:
36,113,185093,1,0,0:0:0:0:
124,164,185296,1,0,0:0:0:0:
17,205,185498,1,0,0:0:0:0:
243,110,185701,1,0,0:0:0:0:
148,69,185904,1,0,0:0:0:0:
148,69,186005,1,0,0:0:0:0:
148,69,186107,1,0,0:0:0:0:
136,156,186309,1,0,0:0:0:0:
71,41,186512,5,0,0:0:0:0:
219,82,186715,1,0,0:0:0:0:
150,309,186917,5,0,0:0:0:0:
69,173,187120,1,0,0:0:0:0:
305,167,187323,1,0,0:0:0:0:
389,97,187526,1,0,0:0:0:0:
301,265,187728,1,0,0:0:0:0:
385,335,187931,1,0,0:0:0:0:
463,224,188134,6,0,P|404:211|349:236,1,95
217,351,188539,1,0,0:0:0:0:
217,351,188742,1,0,0:0:0:0:
265,111,188944,2,0,P|203:134|145:120,1,95
76,55,189350,1,0,0:0:0:0:
76,55,189553,1,0,0:0:0:0:
25,277,189755,2,0,P|75:233|121:235,1,95
213,258,190161,1,0,0:0:0:0:
119,168,190363,1,0,0:0:0:0:
212,151,190566,1,0,0:0:0:0:
98,309,190769,1,0,0:0:0:0:
277,272,190971,2,0,P|308:202|262:131,1,142.5
211,67,191377,5,0,0:0:0:0:
216,212,191580,1,0,0:0:0:0:
358,31,191782,1,0,0:0:0:0:
161,137,191985,1,0,0:0:0:0:
385,251,192188,1,0,0:0:0:0:
273,118,192390,2,0,L|291:187,1,47.5
340,324,192593,1,0,0:0:0:0:
139,290,192796,1,0,0:0:0:0:
139,290,192998,2,0,L|271:262,1,95
313,224,193404,2,0,L|219:181,1,95
113,143,193809,5,0,0:0:0:0:
90,311,194012,1,0,0:0:0:0:
178,206,194215,1,0,0:0:0:0:
31,224,194417,1,0,0:0:0:0:
31,224,194620,6,0,L|59:285,1,56.9999982604981
154,258,195026,2,0,L|178:206,1,56.9999982604981
278,222,195431,2,0,L|306:283,1,56.9999982604981
401,256,195837,2,0,L|424:203,1,56.9999982604981
476,114,196242,6,0,L|452:61,1,56.9999982604981
353,44,196648,2,0,L|329:95,1,56.9999982604981
229,111,197053,2,0,L|205:58,1,56.9999982604981
106,42,197458,2,0,L|82:93,1,56.9999982604981
121,180,197863,6,0,L|177:177,1,56.9999982604981
291,253,198269,2,0,L|218:247,1,56.9999982604981
153,260,198674,2,0,L|165:315,1,56.9999982604981
234,248,199080,2,0,L|248:173,1,56.9999982604981
303,138,199485,5,0,0:0:0:0:
303,138,199688,1,0,0:0:0:0:
177,177,199890,1,0,0:0:0:0:
380,257,200093,1,0,0:0:0:0:
379,256,200296,2,0,B|413:191|372:172|372:172|377:139|396:116|396:116|366:102|354:82|362:57|360:63,1,227.999993041992
256,192,210836,12,0,213674,0:0:0:0:
222,315,214080,5,0,0:0:0:0:
177,301,214181,1,0,0:0:0:0:
135,315,214282,1,0,0:0:0:0:
165,279,214383,1,0,0:0:0:0:
172,233,214484,1,0,0:0:0:0:
142,197,214586,1,0,0:0:0:0:
143,151,214687,1,0,0:0:0:0:
176,118,214789,1,0,0:0:0:0:
222,115,214890,5,0,0:0:0:0:
243,143,214991,1,0,0:0:0:0:
275,157,215092,1,0,0:0:0:0:
310,154,215194,1,0,0:0:0:0:
339,134,215295,1,0,0:0:0:0:
354,102,215396,1,0,0:0:0:0:
352,67,215498,1,0,0:0:0:0:
305,63,215600,1,0,0:0:0:0:
267,35,215701,5,0,0:0:0:0:
242,9,215803,1,0,0:0:0:0:
246,40,215904,1,0,0:0:0:0:
236,69,216005,1,0,0:0:0:0:
213,90,216107,1,0,0:0:0:0:
166,85,216208,1,0,0:0:0:0:
124,105,216309,1,0,0:0:0:0:
84,131,216411,1,0,0:0:0:0:
38,127,216512,6,0,L|24:81,1,47.5
105,53,216715,2,0,L|90:8,1,47.5
167,131,216917,6,0,L|154:182,1,47.5
89,242,217120,2,0,L|110:294,1,47.5
182,349,217323,5,0,0:0:0:0:
217,320,217424,1,0,0:0:0:0:
261,334,217526,1,0,0:0:0:0:
305,346,217627,1,0,0:0:0:0:
346,324,217728,1,0,0:0:0:0:
374,286,217830,1,0,0:0:0:0:
374,239,217931,1,0,0:0:0:0:
350,199,218032,1,0,0:0:0:0:
307,173,218134,2,0,L|238:144,1,47.5
357,115,218336,2,0,L|361:61,1,47.5
416,169,218539,2,0,L|478:187,1,47.5
364,240,218742,2,0,L|301:260,1,47.5
216,217,218944,5,0,0:0:0:0:
187,195,219045,1,0,0:0:0:0:
169,165,219146,1,0,0:0:0:0:
164,130,219248,1,0,0:0:0:0:
171,95,219349,1,0,0:0:0:0:
191,66,219450,1,0,0:0:0:0:
220,46,219552,1,0,0:0:0:0:
255,38,219653,1,0,0:0:0:0:
290,43,219756,5,0,0:0:0:0:
307,86,219857,1,0,0:0:0:0:
345,114,219958,1,0,0:0:0:0:
391,118,220060,1,0,0:0:0:0:
433,97,220161,1,0,0:0:0:0:
395,75,220262,1,0,0:0:0:0:
353,69,220363,1,0,0:0:0:0:
311,78,220465,1,0,0:0:0:0:
275,102,220566,5,0,0:0:0:0:
250,137,220667,1,0,0:0:0:0:
239,179,220769,1,0,0:0:0:0:
244,221,220870,1,0,0:0:0:0:
264,259,220971,1,0,0:0:0:0:
285,312,221072,1,0,0:0:0:0:
260,364,221173,1,0,0:0:0:0:
204,380,221275,1,0,0:0:0:0:
155,349,221377,5,0,0:0:0:0:
149,291,221478,1,0,0:0:0:0:
103,257,221579,1,0,0:0:0:0:
47,268,221681,1,0,0:0:0:0:
17,317,221782,1,0,0:0:0:0:
74,319,221883,1,0,0:0:0:0:
119,281,221984,1,0,0:0:0:0:
126,223,222086,1,0,0:0:0:0:
92,176,222188,6,0,B|64:169|64:169|-2:172,1,95
47,119,222593,2,0,B|75:126|75:126|141:123,1,95
257,47,222998,2,0,B|228:54|228:54|162:51,1,95
211,104,223403,2,0,B|239:96|239:96|305:99,1,95
433,183,223809,6,0,P|450:112|423:76,1,95
382,43,224113,1,0,0:0:0:0:
382,43,224215,2,0,P|365:114|392:150,1,95
291,312,224620,2,0,P|321:272|325:222,1,95
388,262,224924,1,0,0:0:0:0:
388,262,225026,2,0,P|395:311|427:349,1,95
471,274,225431,5,0,0:0:0:0:
330,363,225634,1,0,0:0:0:0:
326,228,225836,5,0,0:0:0:0:
471,274,226039,1,0,0:0:0:0:
330,363,226242,1,0,0:0:0:0:
284,372,226343,1,0,0:0:0:0:
241,353,226444,1,0,0:0:0:0:
216,313,226546,1,0,0:0:0:0:
218,267,226647,1,0,0:0:0:0:
224,220,226748,1,0,0:0:0:0:
207,177,226849,1,0,0:0:0:0:
208,134,226951,1,0,0:0:0:0:
221,88,227052,5,0,0:0:0:0:
320,152,227255,1,0,0:0:0:0:
320,152,227357,2,0,P|341:83|311:22,1,113.999996520996
271,14,227661,1,0,0:0:0:0:
124,87,227863,6,0,B|104:160|161:172|161:172|147:246,1,170.999994781494
131,315,228269,1,0,0:0:0:0:
218,79,228471,1,0,0:0:0:0:
279,245,228674,2,0,B|331:276|331:276|372:241|422:251|422:251|427:265,1,170.999994781494
454,320,229080,1,0,0:0:0:0:
393,141,229282,1,0,0:0:0:0:
448,146,229383,1,0,0:0:0:0:
488,108,229484,1,0,0:0:0:0:
321,85,229688,1,0,0:0:0:0:
488,108,229890,1,0,0:0:0:0:
383,202,230093,1,0,0:0:0:0:
370,23,230296,6,0,B|309:-20|237:24|245:108,1,170.999994781494
272,154,230701,1,0,0:0:0:0:
129,265,230904,1,0,0:0:0:0:
144,212,231005,1,0,0:0:0:0:
110,169,231107,2,0,P|138:104|172:80,1,113.999996520996
237,281,231512,2,0,P|209:350|171:373,1,113.999996520996
11,348,231917,2,0,B|60:353|111:283|111:283|195:303,1,170.999994781494
237,281,232323,1,0,0:0:0:0:
177,370,232526,1,0,0:0:0:0:
304,203,232728,2,0,B|272:188|247:186|247:186|223:208|181:193|181:193|127:220,1,170.999994781494
58,256,233134,5,0,0:0:0:0:
175,128,233336,1,0,0:0:0:0:
237,281,233539,2,0,P|288:315|352:308,1,113.999996520996
401,279,233843,1,0,0:0:0:0:
401,279,233944,2,0,L|430:366,2,56.9999982604981
467,126,234350,2,0,P|408:144|352:143,1,113.999996520996
293,91,234654,1,0,0:0:0:0:
293,91,234755,2,0,L|303:16,2,56.9999982604981
384,81,235161,5,0,0:0:0:0:
286,187,235363,1,0,0:0:0:0:
385,32,235566,5,0,0:0:0:0:
393,220,235769,1,0,0:0:0:0:
293,91,235971,5,0,0:0:0:0:
460,132,236174,1,0,0:0:0:0:
266,232,236377,1,0,0:0:0:0:
386,44,236580,1,0,0:0:0:0:
183,31,236782,2,0,P|205:90|213:144,1,113.999996520996
164,261,237086,5,0,0:0:0:0:
164,261,237188,2,0,P|128:207|120:144,1,113.999996520996
12,182,237593,2,0,P|69:155|124:161,1,113.999996520996
164,261,237897,5,0,0:0:0:0:
164,261,237998,2,0,P|231:268|275:240,1,113.999996520996
452,334,238404,2,0,P|390:278|344:282,1,113.999996520996
302,317,238809,1,0,0:0:0:0:
256,193,239012,1,0,0:0:0:0:
386,113,239215,2,0,P|359:163|367:226,1,113.999996520996
458,213,239620,1,0,0:0:0:0:
272,321,239823,1,0,0:0:0:0:
289,34,240026,6,0,P|299:95|244:203,1,170.999994781494
173,237,240431,1,0,0:0:0:0:
59,221,240634,1,0,0:0:0:0:
234,355,240836,2,0,P|323:347|380:279,1,170.999994781494
391,203,241242,1,0,0:0:0:0:
282,164,241444,2,0,P|292:220|276:274,1,113.999996520996
190,209,241850,2,0,P|176:158|189:100,1,113.999996520996
282,164,242255,1,0,0:0:0:0:
98,35,242458,2,0,P|148:9|206:22,1,113.999996520996
273,72,242863,1,0,0:0:0:0:
104,209,243066,1,0,0:0:0:0:
104,209,243167,1,0,0:0:0:0:
104,209,243269,6,0,P|133:269|131:329,1,113.999996520996
52,354,243674,1,0,0:0:0:0:
185,186,243877,1,0,0:0:0:0:
41,264,244080,1,0,0:0:0:0:
250,362,244282,2,0,P|202:308|217:258,1,113.999996520996
313,204,244688,1,0,0:0:0:0:
313,204,244789,1,0,0:0:0:0:
313,204,244890,6,0,P|324:254|369:294,1,113.999996520996
386,349,245194,2,0,P|313:320|259:334,1,113.999996520996
265,270,245498,1,0,0:0:0:0:
442,306,245701,2,0,P|472:225|453:124,1,170.999994781494
286,158,246107,2,0,P|350:201|422:212,1,113.999996520996
229,19,246512,6,0,L|221:185,1,113.999996520996
360,36,246917,1,0,0:0:0:0:
229,19,247120,1,0,0:0:0:0:
358,149,247323,2,0,L|362:5,1,113.999996520996
223,132,247728,1,0,0:0:0:0:
163,279,247931,2,0,P|207:290|280:276,1,113.999996520996
119,195,248336,2,0,P|64:210|20:245,1,113.999996520996
224,223,248742,1,0,0:0:0:0:
91,37,248944,2,0,B|126:77|126:77|115:242,1,170.999994781494
93,276,249350,5,0,0:0:0:0:
205,356,249553,2,0,L|216:292,1,56.9999982604981
240,166,249755,1,0,0:0:0:0:
118,194,249958,1,0,0:0:0:0:
288,328,250161,1,0,0:0:0:0:
288,328,250262,1,0,0:0:0:0:
288,328,250363,1,0,0:0:0:0:
287,327,250465,6,0,P|304:257|339:227,1,113.999996520996
404,227,250769,2,0,P|404:176|383:146,1,56.9999982604981
334,166,250971,2,0,P|313:146|300:102,1,56.9999982604981
369,82,251174,1,0,0:0:0:0:
330,170,251377,1,0,0:0:0:0:
471,87,251580,1,0,0:0:0:0:
384,301,251782,5,0,0:0:0:0:
384,301,251884,2,0,P|336:324|289:313,1,85.4999973907472
246,267,252188,5,0,0:0:0:0:
251,205,252289,1,0,0:0:0:0:
238,148,252390,1,0,0:0:0:0:
244,93,252492,5,0,0:0:0:0:
196,75,252593,1,0,0:0:0:0:
138,68,252694,1,0,0:0:0:0:
84,85,252796,5,0,0:0:0:0:
90,131,252897,1,0,0:0:0:0:
93,186,252998,1,0,0:0:0:0:
169,371,253383,1,0,0:0:0:0:
165,155,253768,5,0,0:0:0:0:
79,302,253961,1,0,0:0:0:0:
246,267,254153,1,0,0:0:0:0:
47,158,254539,5,0,0:0:0:0:
298,47,254924,1,0,0:0:0:0:
351,223,255117,1,0,0:0:0:0:
214,188,255309,1,0,0:0:0:0:
411,98,255695,5,0,0:0:0:0:
212,91,256080,2,0,L|122:113,1,76
74,213,256465,2,0,L|152:231,1,76
241,250,256851,1,0,0:0:0:0:
188,338,257043,1,0,0:0:0:0:
333,283,257236,1,0,0:0:0:0:
379,362,257429,1,0,0:0:0:0:
458,154,257621,5,0,0:0:0:0:
432,265,258006,1,0,0:0:0:0:
347,189,258392,5,0,0:0:0:0:
458,154,258584,1,0,0:0:0:0:
353,46,258777,1,0,0:0:0:0:
347,189,259162,5,0,0:0:0:0:
460,71,259548,1,0,0:0:0:0:
353,46,259740,1,0,0:0:0:0:
250,192,259933,1,0,0:0:0:0:
181,118,260318,1,0,0:0:0:0:
286,35,260704,5,0,0:0:0:0:
185,263,261089,2,0,B|105:266|57:218|57:218|58:183|124:163,1,228
204,186,261860,1,0,0:0:0:0:
143,342,262052,1,0,0:0:0:0:
54,209,262245,1,0,0:0:0:0:
192,37,262630,5,0,0:0:0:0:
119,164,263015,1,0,0:0:0:0:
78,57,263208,1,0,0:0:0:0:
210,122,263401,1,0,0:0:0:0:
311,54,263786,5,0,0:0:0:0:
273,227,264171,1,0,0:0:0:0:
358,315,264364,1,0,0:0:0:0:
403,184,264557,1,0,0:0:0:0:
223,258,264942,5,0,0:0:0:0:
331,183,265327,1,0,0:0:0:0:
396,316,265520,1,0,0:0:0:0:
270,368,265713,1,0,0:0:0:0:
246,370,265813,1,0,0:0:0:0:
223,366,265914,1,0,0:0:0:0:
201,356,266015,1,0,0:0:0:0:
183,341,266115,1,0,0:0:0:0:
131,210,266317,5,0,0:0:0:0:
169,183,266417,1,0,0:0:0:0:
216,178,266518,1,0,0:0:0:0:
260,195,266619,1,0,0:0:0:0:
291,231,266719,2,0,L|335:278,1,47.5
397,233,266921,5,0,0:0:0:0:
390,321,267123,1,0,0:0:0:0:
402,149,267326,2,0,P|359:141|323:119,1,76
280,61,267731,1,0,0:0:0:0:
375,50,267934,1,0,0:0:0:0:
196,70,268137,2,0,P|194:116|171:175,1,76
188,245,268542,5,0,0:0:0:0:
265,184,268745,1,0,0:0:0:0:
101,191,268948,1,0,0:0:0:0:
158,326,269150,1,0,0:0:0:0:
178,116,269353,1,0,0:0:0:0:
62,98,269556,1,0,0:0:0:0:
189,192,269758,1,0,0:0:0:0:
239,18,269961,1,0,0:0:0:0:
128,53,270164,5,0,0:0:0:0:
270,102,270366,1,0,0:0:0:0:
213,214,270569,5,0,0:0:0:0:
184,11,270772,1,0,0:0:0:0:
355,145,270975,5,0,0:0:0:0:
226,307,271177,1,0,0:0:0:0:
270,102,271380,5,0,0:0:0:0:
345,279,271583,1,0,0:0:0:0:
134,320,271785,1,0,0:0:0:0:
289,201,271988,5,0,0:0:0:0:
289,201,272089,1,0,0:0:0:0:
289,201,272191,2,0,P|326:212|380:198,1,76
458,258,272596,1,0,0:0:0:0:
452,170,272799,1,0,0:0:0:0:
469,359,273002,2,0,P|397:328|350:329,1,114
222,361,273407,6,0,P|262:309|272:272,1,95
224,147,273812,1,0,0:0:0:0:
335,208,274015,1,0,0:0:0:0:
157,232,274218,2,0,P|135:272|137:330,1,95
224,147,274624,1,0,0:0:0:0:
335,208,274827,1,0,0:0:0:0:
107,152,275030,2,0,B|99:86|121:47|169:37,1,142.5
209,39,275436,1,0,0:0:0:0:
46,77,275639,1,0,0:0:0:0:
224,147,275842,2,0,P|270:156|321:140,1,95
416,32,276248,2,0,B|392:75|437:116|437:116|425:130|417:179,1,142.5
402,201,276654,5,0,0:0:0:0:
440,290,276857,1,0,0:0:0:0:
309,174,277060,1,0,0:0:0:0:
467,180,277263,1,0,0:0:0:0:
279,292,277466,1,0,0:0:0:0:
336,93,277669,1,0,0:0:0:0:
336,93,277771,1,0,0:0:0:0:
335,92,277872,6,0,P|393:84|435:113,1,95
238,186,278278,1,0,0:0:0:0:
362,238,278481,1,0,0:0:0:0:
229,86,278684,1,0,0:0:0:0:
154,263,278887,1,0,0:0:0:0:
309,174,279090,1,0,0:0:0:0:
168,100,279293,1,0,0:0:0:0:
309,174,279496,1,0,0:0:0:0:
66,220,279699,1,0,0:0:0:0:
193,347,279902,6,0,B|224:316|226:281|226:281|211:250,1,95
66,220,280308,2,0,B|35:251|33:286|33:286|48:317,1,95
252,205,280714,1,0,0:0:0:0:
139,281,280917,1,0,0:0:0:0:
419,342,281120,2,0,P|372:337|334:309,1,95
412,167,281526,2,0,P|463:158|513:124,1,95
324,91,281932,1,0,0:0:0:0:
412,167,282135,1,0,0:0:0:0:
243,198,282337,2,0,P|235:247|261:291,1,95
324,91,282743,2,0,B|313:30|263:5|263:5|222:19,1,142.5
187,60,283149,5,0,0:0:0:0:
249,134,283352,1,0,0:0:0:0:
105,82,283555,1,0,0:0:0:0:
357,18,283758,1,0,0:0:0:0:
161,184,283961,1,0,0:0:0:0:
321,248,284164,1,0,0:0:0:0:
321,248,284266,1,0,0:0:0:0:
321,248,284367,6,0,P|289:287|237:299,1,95
277,156,284773,2,0,P|326:149|384:181,1,95
211,220,285179,2,0,P|185:176|186:116,1,95
372,56,285585,1,0,0:0:0:0:
348,320,285788,1,0,0:0:0:0:
277,42,285991,1,0,0:0:0:0:
252,359,286194,1,0,0:0:0:0:
64,269,286397,6,0,P|58:217|80:177,1,95
220,125,286803,1,0,0:0:0:0:
151,328,287006,1,0,0:0:0:0:
38,102,287209,2,0,P|81:85|126:100,1,95
243,281,287615,1,0,0:0:0:0:
76,180,287818,1,0,0:0:0:0:
297,69,288021,2,0,P|274:110|277:157,1,95
374,163,288427,1,0,0:0:0:0:
192,303,288630,1,0,0:0:0:0:
365,254,288833,2,0,B|401:244|440:252|440:252|459:285,1,95
308,356,289239,2,0,B|281:323|281:323|262:266|278:203,1,142.5
303,154,289645,5,0,0:0:0:0:
205,192,289848,1,0,0:0:0:0:
347,249,290051,1,0,0:0:0:0:
228,81,290254,1,0,0:0:0:0:
200,278,290457,1,0,0:0:0:0:
383,142,290660,1,0,0:0:0:0:
383,142,290761,1,0,0:0:0:0:
383,142,290863,6,0,P|410:71|387:19,1,95
266,27,291268,1,0,0:0:0:0:
383,142,291471,1,0,0:0:0:0:
167,177,291674,1,0,0:0:0:0:
266,27,291877,1,0,0:0:0:0:
289,229,292080,1,0,0:0:0:0:
146,68,292283,1,0,0:0:0:0:
367,59,292486,1,0,0:0:0:0:
100,211,292689,1,0,0:0:0:0:
235,86,292892,6,0,P|191:66|138:70,1,95
100,211,293298,2,0,B|145:249|205:250|205:250|237:211,1,142.5
232,165,293704,1,0,0:0:0:0:
125,329,293907,1,0,0:0:0:0:
309,144,294110,2,0,B|291:195|297:231|297:231|317:259|317:259|313:289,1,142.5
278,355,294516,2,0,P|338:353|395:328,1,95
444,203,294922,1,0,0:0:0:0:
384,281,295125,1,0,0:0:0:0:
190,187,295328,2,0,P|245:216|294:206,1,95
440,111,295734,2,0,B|407:70|356:53|356:53|319:66,1,142.5
247,118,296140,5,0,0:0:0:0:
300,231,296343,1,0,0:0:0:0:
138,179,296546,1,0,0:0:0:0:
349,146,296749,1,0,0:0:0:0:
210,271,296952,1,0,0:0:0:0:
155,72,297155,1,0,0:0:0:0:
155,72,297256,1,0,0:0:0:0:
155,72,297358,6,0,P|199:31|241:35,1,95
90,231,297764,2,0,P|67:191|83:133,1,95
300,231,298170,2,0,P|302:277|261:321,1,95
177,291,298576,5,0,0:0:0:0:
381,235,298779,1,0,0:0:0:0:
194,177,298982,1,0,0:0:0:0:
329,340,299185,1,0,0:0:0:0:
125,372,299388,6,0,B|59:290|115:162|115:162|241:125|274:263,1,418.000012756348
272,346,300402,1,0,0:0:0:0:
372,262,300605,1,0,0:0:0:0:
372,262,300808,6,0,L|394:178,1,52.2500015945435
406,95,301011,2,0,P|424:166|449:224,1,104.500003189087
479,237,301417,2,0,P|438:264|393:331,1,104.500003189087
374,361,301722,1,0,0:0:0:0:
374,361,301823,6,0,P|308:316|294:280,1,104.500003189087
301,224,302128,2,0,P|330:166|319:116,1,104.500003189087
272,71,302432,1,0,0:0:0:0:
91,213,302635,6,0,B|147:214|200:160|200:160|236:163,1,156.750004783631
149,16,303041,2,0,B|108:54|108:54|93:103|146:171,1,156.750004783631
216,297,303447,1,0,0:0:0:0:
238,111,303650,1,0,0:0:0:0:
24,242,303853,1,0,0:0:0:0:
216,297,304056,2,0,B|286:327|320:264|320:264|314:216|283:189,1,209.000006378174
216,297,304665,5,0,0:0:0:0:
366,362,304868,1,0,0:0:0:0:
251,242,305071,1,0,0:0:0:0:
426,228,305274,2,0,L|475:231,3,34.8333343963623
370,121,305680,1,0,0:0:0:0:
370,121,305883,6,0,P|425:96|484:121,2,104.500003189087
254,72,306492,1,0,0:0:0:0:
254,72,306695,2,0,P|286:20|332:-6,2,104.500003189087
174,148,307304,1,0,0:0:0:0:
174,148,307507,2,0,P|167:199|146:247,2,104.500003189087
134,51,308116,1,0,0:0:0:0:
133,50,308318,2,0,P|82:50|43:17,1,104.500003189087
198,81,308724,1,0,0:0:0:0:
58,144,308927,1,0,0:0:0:0:
70,245,309130,6,0,B|51:190|51:190|59:142,1,104.500003189087
222,315,309536,1,0,0:0:0:0:
70,245,309739,1,0,0:0:0:0:
235,173,309942,1,0,0:0:0:0:
320,255,310145,1,0,0:0:0:0:
222,315,310348,1,0,0:0:0:0:
235,173,310551,1,0,0:0:0:0:
359,358,310754,5,0,0:0:0:0:
410,273,310957,1,0,0:0:0:0:
209,252,311160,1,0,0:0:0:0:
341,170,311363,1,0,0:0:0:0:
359,358,311566,1,0,0:0:0:0:
434,186,311769,1,0,0:0:0:0:
235,173,311972,1,0,0:0:0:0:
410,273,312175,1,0,0:0:0:0:
458,70,312378,2,0,B|388:47|388:47|379:26|295:55|275:120,1,209.000006378174
130,34,312987,5,0,0:0:0:0:
130,34,313088,1,0,0:0:0:0:
130,34,313190,2,0,P|182:44|240:30,1,104.500003189087
307,8,313494,1,0,0:0:0:0:
307,8,313596,2,0,P|325:66|306:124,1,104.500003189087
249,162,314002,2,0,P|253:263|374:322,1,209.000006378174
442,240,314611,6,0,L|379:228,1,52.2500015945435
288,212,314814,1,0,0:0:0:0:
333,321,315017,1,0,0:0:0:0:
94,343,315220,2,0,P|171:290|230:325,1,156.750004783631
262,357,315626,2,0,P|315:331|369:337,1,104.500003189087
420,350,315930,2,0,B|448:280|448:280|428:224,1,104.500003189087
358,199,316235,2,0,L|352:264,1,52.2500015945435
282,234,316439,5,0,0:0:0:0:
438,252,316641,1,0,0:0:0:0:
298,126,316844,1,0,0:0:0:0:
438,139,317046,1,0,0:0:0:0:
193,185,317249,2,0,B|142:159|129:100|129:100|166:56,1,156.750004783631
228,29,317655,1,0,0:0:0:0:
54,23,317858,2,0,L|45:89,1,52.2500015945435
29,202,318061,5,0,0:0:0:0:
201,118,318264,1,0,0:0:0:0:
46,74,318467,5,0,0:0:0:0:
201,118,318670,1,0,0:0:0:0:
29,202,318873,1,0,0:0:0:0:
164,328,319076,5,0,0:0:0:0:
164,328,319279,2,0,P|207:341|245:350,1,52.2500015945435
291,325,319482,1,0,0:0:0:0:
291,325,319584,2,0,P|303:244|315:220,1,104.500003189087
373,141,319888,2,0,P|416:162|439:206,1,52.2500015945435
436,257,320091,2,0,P|397:251|364:230,1,52.2500015945435
282,148,320294,1,0,0:0:0:0:
396,336,320497,5,0,0:0:0:0:
420,71,320700,1,0,0:0:0:0:
420,71,320903,2,0,P|385:58|350:63,1,52.2500015945435
272,48,321106,1,0,0:0:0:0:
272,48,321208,2,0,P|289:94|279:154,1,104.500003189087
227,217,321512,1,0,0:0:0:0:
168,110,321715,1,0,0:0:0:0:
101,228,321918,1,0,0:0:0:0:
208,325,322121,5,0,0:0:0:0:
83,155,322324,1,0,0:0:0:0:
103,329,322527,2,0,L|142:279,1,52.2500015945435
239,129,322730,2,0,L|181:151,1,52.2500015945435
27,259,322933,6,0,L|98:245,1,52.2500015945435
271,235,323136,2,0,L|205:224,1,52.2500015945435
52,163,323339,2,0,L|102:117,1,52.2500015945435
174,16,323542,2,0,L|201:92,1,52.2500015945435
239,129,323745,5,0,0:0:0:0:
269,39,323948,1,0,0:0:0:0:
54,33,324151,1,0,0:0:0:0:
54,33,324252,6,0,B|75:61|75:61|81:76|79:105|79:105|98:143,1,104.500003189087
105,212,324430,2,0,P|135:218|163:211,1,47.5
337,101,324770,1,0,0:0:0:0:
191,65,324998,1,0,0:0:0:0:
212,328,326677,5,0,0:0:0:0:
124,328,327082,1,0,0:0:0:0:
124,240,327487,1,0,0:0:0:0:
212,240,327893,1,0,0:0:0:0:
212,328,328298,1,0,0:0:0:0:
124,328,328704,1,0,0:0:0:0:
300,328,329109,5,0,0:0:0:0:
300,240,329514,1,0,0:0:0:0:
388,240,329920,1,0,0:0:0:0:
388,328,330325,1,0,0:0:0:0:
300,328,330731,1,0,0:0:0:0:
300,240,331136,1,0,0:0:0:0:
388,240,331541,5,0,0:0:0:0:
212,240,332133,1,0,0:0:0:0:
300,144,332922,5,0,0:0:0:0:
300,328,333758,5,0,0:0:0:0:
256,192,333981,12,0,336408,0:0:0:0:
