osu file format v14

[General]
AudioFilename: audio.mp3
AudioLeadIn: 0
PreviewTime: 35843
Countdown: 0
SampleSet: Soft
StackLeniency: 0.7
Mode: 3
LetterboxInBreaks: 0
SpecialStyle: 0
WidescreenStoryboard: 0

[Editor]
DistanceSpacing: 1.5
BeatDivisor: 8
GridSize: 8
TimelineZoom: 2

[Metadata]
Title:Night of Telolets
TitleUnicode:Night of Telolets
Artist:Rizqy Ramadhan
ArtistUnicode:Rizqy Ramadhan
Creator:Valentrixe
Version:Telolet [Hard]
Source:東方Project
Tags:om klakson bus pariwisata jepara ZUN flowering nights
BeatmapID:1161123
BeatmapSetID:548258

[Difficulty]
HPDrainRate:8
CircleSize:4
OverallDifficulty:8
ApproachRate:5
SliderMultiplier:1.4
SliderTickRate:1

[Events]
//Background and Video events
0,0,"BG.jpg",0,0
//Break Periods
//Storyboard Layer 0 (Background)
//Storyboard Layer 1 (Fail)
//Storyboard Layer 2 (Pass)
//Storyboard Layer 3 (Foreground)
//Storyboard Sound Samples

[TimingPoints]
6426,500,4,2,1,15,1,0
6426,-66.6666666666667,4,2,1,15,0,0
11051,468.75,4,2,1,15,1,0
11051,-71.4285714285714,4,2,1,15,0,0
14510,333.333333333333,4,2,1,15,1,0
35843,-100,4,2,1,15,0,1
43843,-100,4,2,1,15,0,0
46509,-100,4,2,1,15,0,1
57176,-100,4,2,1,15,0,0

[HitObjects]
64,192,6426,128,0,7676:0:0:0:0:
320,192,7676,1,0,0:0:0:0:
64,192,8051,128,0,8926:0:0:0:0:
320,192,9301,128,0,10426:0:0:0:0:
192,192,11051,1,0,0:0:0:0:
448,192,11578,1,0,0:0:0:0:
64,192,12047,1,0,0:0:0:0:
320,192,12515,1,0,0:0:0:0:
192,192,12808,1,0,0:0:0:0:
448,192,13043,1,0,0:0:0:0:
448,192,13277,1,0,0:0:0:0:
64,192,13511,1,0,0:0:0:0:
192,192,14039,1,0,0:0:0:0:
64,192,14510,1,0,0:0:0:0:
320,192,14510,1,0,0:0:0:0:
448,192,14510,1,0,0:0:0:0:
192,192,14676,1,0,0:0:0:0:
320,192,14843,1,0,0:0:0:0:
64,192,14926,1,0,0:0:0:0:
448,192,15093,1,0,0:0:0:0:
64,192,15260,1,0,0:0:0:0:
192,192,15343,1,0,0:0:0:0:
448,192,15426,1,0,0:0:0:0:
320,192,15509,1,0,0:0:0:0:
192,192,15593,1,0,0:0:0:0:
64,192,15676,1,0,0:0:0:0:
320,192,15759,1,0,0:0:0:0:
448,192,15926,1,0,0:0:0:0:
192,192,16009,1,0,0:0:0:0:
320,192,16176,1,0,0:0:0:0:
64,192,16259,1,0,0:0:0:0:
192,192,16426,1,0,0:0:0:0:
320,192,16593,1,0,0:0:0:0:
64,192,16759,1,0,0:0:0:0:
448,192,16843,1,0,0:0:0:0:
320,192,17009,1,0,0:0:0:0:
448,192,17176,1,0,0:0:0:0:
64,192,17176,1,0,0:0:0:0:
192,192,17176,1,0,0:0:0:0:
320,192,17343,1,0,0:0:0:0:
448,192,17509,1,0,0:0:0:0:
64,192,17593,1,0,0:0:0:0:
192,192,17759,1,0,0:0:0:0:
448,192,17926,1,0,0:0:0:0:
64,192,18093,1,0,0:0:0:0:
192,192,18176,1,0,0:0:0:0:
448,192,18259,1,0,0:0:0:0:
320,192,18343,1,0,0:0:0:0:
192,192,18426,1,0,0:0:0:0:
64,192,18593,1,0,0:0:0:0:
448,192,18676,1,0,0:0:0:0:
320,192,18843,1,0,0:0:0:0:
64,192,18926,1,0,0:0:0:0:
192,192,19093,1,0,0:0:0:0:
320,192,19259,1,0,0:0:0:0:
448,192,19426,1,0,0:0:0:0:
64,192,19509,1,0,0:0:0:0:
320,192,19676,1,0,0:0:0:0:
192,192,19843,1,0,0:0:0:0:
64,192,19843,1,0,0:0:0:0:
448,192,19843,1,0,0:0:0:0:
320,192,20009,1,0,0:0:0:0:
64,192,20176,1,0,0:0:0:0:
448,192,20259,1,0,0:0:0:0:
192,192,20426,1,0,0:0:0:0:
64,192,20593,1,0,0:0:0:0:
448,192,20759,1,0,0:0:0:0:
320,192,20843,1,0,0:0:0:0:
64,192,20926,1,0,0:0:0:0:
192,192,21009,1,0,0:0:0:0:
320,192,21093,1,0,0:0:0:0:
448,192,21176,1,0,0:0:0:0:
64,192,21176,1,0,0:0:0:0:
192,192,21259,1,0,0:0:0:0:
320,192,21343,1,0,0:0:0:0:
192,192,21509,1,0,0:0:0:0:
64,192,21593,1,0,0:0:0:0:
448,192,21759,1,0,0:0:0:0:
192,192,21926,1,0,0:0:0:0:
320,192,22093,1,0,0:0:0:0:
64,192,22176,1,0,0:0:0:0:
448,192,22343,1,0,0:0:0:0:
320,192,22509,1,0,0:0:0:0:
64,192,22509,1,0,0:0:0:0:
192,192,22509,1,0,0:0:0:0:
448,192,22676,1,0,0:0:0:0:
320,192,22843,1,0,0:0:0:0:
64,192,22926,1,0,0:0:0:0:
192,192,23093,1,0,0:0:0:0:
320,192,23176,1,0,0:0:0:0:
448,192,23176,1,0,0:0:0:0:
64,192,23259,1,0,0:0:0:0:
192,192,23426,1,0,0:0:0:0:
448,192,23509,1,0,0:0:0:0:
320,192,23593,1,0,0:0:0:0:
192,192,23676,1,0,0:0:0:0:
64,192,23759,1,0,0:0:0:0:
320,192,23843,1,0,0:0:0:0:
448,192,23843,1,0,0:0:0:0:
192,192,23926,1,0,0:0:0:0:
320,192,24009,1,0,0:0:0:0:
64,192,24176,1,0,0:0:0:0:
192,192,24176,1,0,0:0:0:0:
320,192,24259,1,0,0:0:0:0:
448,192,24426,1,0,0:0:0:0:
320,192,24509,1,0,0:0:0:0:
64,192,24509,1,0,0:0:0:0:
192,192,24593,1,0,0:0:0:0:
64,192,24676,1,0,0:0:0:0:
320,192,24676,1,0,0:0:0:0:
192,192,24759,1,0,0:0:0:0:
448,192,24759,1,0,0:0:0:0:
320,192,24843,1,0,0:0:0:0:
64,192,24843,1,0,0:0:0:0:
448,192,24926,1,0,0:0:0:0:
192,192,25009,1,0,0:0:0:0:
64,192,25009,1,0,0:0:0:0:
320,192,25093,1,0,0:0:0:0:
448,192,25093,1,0,0:0:0:0:
192,192,25176,1,4,0:0:0:0:
64,192,25176,1,0,0:0:0:0:
448,192,25343,1,0,0:0:0:0:
320,192,25509,1,0,0:0:0:0:
64,192,25509,1,0,0:0:0:0:
192,192,25593,1,0,0:0:0:0:
320,192,25759,1,0,0:0:0:0:
448,192,25843,1,0,0:0:0:0:
64,192,25843,1,0,0:0:0:0:
192,192,25926,1,0,0:0:0:0:
320,192,26093,1,0,0:0:0:0:
448,192,26176,1,0,0:0:0:0:
64,192,26176,1,0,0:0:0:0:
192,192,26259,1,0,0:0:0:0:
320,192,26343,1,0,0:0:0:0:
448,192,26426,1,0,0:0:0:0:
192,192,26509,1,0,0:0:0:0:
64,192,26509,1,0,0:0:0:0:
448,192,26593,1,0,0:0:0:0:
320,192,26676,1,0,0:0:0:0:
192,192,26843,1,0,0:0:0:0:
448,192,26843,1,0,0:0:0:0:
64,192,26926,1,0,0:0:0:0:
320,192,27093,1,0,0:0:0:0:
192,192,27176,1,0,0:0:0:0:
64,192,27176,1,0,0:0:0:0:
448,192,27259,1,0,0:0:0:0:
320,192,27343,1,0,0:0:0:0:
192,192,27343,1,0,0:0:0:0:
64,192,27426,1,0,0:0:0:0:
448,192,27426,1,0,0:0:0:0:
320,192,27509,1,0,0:0:0:0:
192,192,27509,1,0,0:0:0:0:
320,192,27676,1,0,0:0:0:0:
448,192,27676,1,0,0:0:0:0:
64,192,27843,1,0,0:0:0:0:
448,192,27843,1,0,0:0:0:0:
192,192,27843,1,0,0:0:0:0:
320,192,28009,1,0,0:0:0:0:
64,192,28176,1,0,0:0:0:0:
192,192,28176,1,0,0:0:0:0:
448,192,28259,1,0,0:0:0:0:
320,192,28426,1,0,0:0:0:0:
64,192,28509,1,0,0:0:0:0:
448,192,28509,1,0,0:0:0:0:
192,192,28593,1,0,0:0:0:0:
320,192,28759,1,0,0:0:0:0:
448,192,28843,1,0,0:0:0:0:
192,192,28843,1,0,0:0:0:0:
64,192,28926,1,0,0:0:0:0:
448,192,29009,1,0,0:0:0:0:
320,192,29093,1,0,0:0:0:0:
192,192,29176,1,0,0:0:0:0:
64,192,29176,1,0,0:0:0:0:
448,192,29259,1,0,0:0:0:0:
320,192,29343,1,0,0:0:0:0:
192,192,29509,1,0,0:0:0:0:
448,192,29509,1,0,0:0:0:0:
64,192,29593,1,0,0:0:0:0:
320,192,29676,1,0,0:0:0:0:
448,192,29676,1,0,0:0:0:0:
64,192,29759,1,0,0:0:0:0:
192,192,29843,1,0,0:0:0:0:
320,192,29843,1,0,0:0:0:0:
448,192,29926,1,0,0:0:0:0:
192,192,30009,1,0,0:0:0:0:
64,192,30009,1,0,0:0:0:0:
320,192,30093,1,0,0:0:0:0:
448,192,30093,1,0,0:0:0:0:
192,192,30176,1,0,0:0:0:0:
64,192,30176,1,0,0:0:0:0:
64,192,30343,1,0,0:0:0:0:
448,192,30343,1,0,0:0:0:0:
320,192,30509,1,0,0:0:0:0:
448,192,30509,1,0,0:0:0:0:
192,192,30509,1,0,0:0:0:0:
64,192,30676,1,0,0:0:0:0:
320,192,30843,1,0,0:0:0:0:
448,192,30843,1,0,0:0:0:0:
64,192,30926,1,0,0:0:0:0:
192,192,31093,1,0,0:0:0:0:
64,192,31176,1,0,0:0:0:0:
448,192,31176,1,0,0:0:0:0:
320,192,31259,1,0,0:0:0:0:
192,192,31343,1,0,0:0:0:0:
64,192,31343,1,0,0:0:0:0:
448,192,31426,1,0,0:0:0:0:
192,192,31509,1,0,0:0:0:0:
320,192,31509,1,0,0:0:0:0:
64,192,31593,1,0,0:0:0:0:
320,192,31676,1,0,0:0:0:0:
192,192,31759,1,0,0:0:0:0:
64,192,31843,1,0,0:0:0:0:
448,192,31843,1,0,0:0:0:0:
192,192,31926,1,0,0:0:0:0:
320,192,32009,1,0,0:0:0:0:
64,192,32176,1,0,0:0:0:0:
192,192,32176,1,0,0:0:0:0:
448,192,32259,1,0,0:0:0:0:
192,192,32426,1,0,0:0:0:0:
64,192,32509,1,0,0:0:0:0:
448,192,32509,1,0,0:0:0:0:
320,192,32593,1,0,0:0:0:0:
192,192,32676,1,0,0:0:0:0:
64,192,32676,1,0,0:0:0:0:
448,192,32759,1,0,0:0:0:0:
320,192,32843,1,0,0:0:0:0:
192,192,32843,1,0,0:0:0:0:
320,192,33009,1,0,0:0:0:0:
192,192,33176,1,0,0:0:0:0:
448,192,33176,1,0,0:0:0:0:
64,192,33176,1,0,0:0:0:0:
320,192,33343,1,0,0:0:0:0:
448,192,33343,1,0,0:0:0:0:
64,192,33509,1,0,0:0:0:0:
192,192,33509,1,0,0:0:0:0:
448,192,33593,1,0,0:0:0:0:
192,192,33759,1,0,0:0:0:0:
320,192,33843,1,0,0:0:0:0:
448,192,33843,1,0,0:0:0:0:
64,192,33926,1,0,0:0:0:0:
192,192,34009,1,0,0:0:0:0:
320,192,34009,1,0,0:0:0:0:
448,192,34093,1,0,0:0:0:0:
192,192,34176,1,0,0:0:0:0:
64,192,34176,1,0,0:0:0:0:
320,192,34259,1,0,0:0:0:0:
448,192,34343,1,0,0:0:0:0:
192,192,34426,1,0,0:0:0:0:
448,192,34509,1,0,0:0:0:0:
64,192,34509,1,0,0:0:0:0:
320,192,34593,1,0,0:0:0:0:
192,192,34676,1,0,0:0:0:0:
64,192,34676,1,0,0:0:0:0:
320,192,34843,1,0,0:0:0:0:
448,192,34843,1,0,0:0:0:0:
64,192,34926,1,0,0:0:0:0:
192,192,35009,1,0,0:0:0:0:
448,192,35009,1,0,0:0:0:0:
320,192,35093,1,0,0:0:0:0:
192,192,35176,1,0,0:0:0:0:
64,192,35176,1,0,0:0:0:0:
320,192,35259,1,0,0:0:0:0:
192,192,35426,1,0,0:0:0:0:
64,192,35426,1,0,0:0:0:0:
320,192,35509,1,0,0:0:0:0:
448,192,35509,1,0,0:0:0:0:
192,192,35593,1,0,0:0:0:0:
320,192,35676,1,0,0:0:0:0:
192,192,35759,1,0,0:0:0:0:
448,192,35843,1,2,0:0:0:0:
320,192,35843,1,4,0:0:0:0:
64,192,35843,1,0,0:0:0:0:
192,192,36009,1,0,0:0:0:0:
320,192,36176,1,0,0:0:0:0:
448,192,36176,1,0,0:0:0:0:
64,192,36259,1,0,0:0:0:0:
192,192,36343,1,0,0:0:0:0:
320,192,36509,1,0,0:0:0:0:
64,192,36509,1,0,0:0:0:0:
448,192,36676,1,0,0:0:0:0:
192,192,36843,1,0,0:0:0:0:
64,192,36843,1,0,0:0:0:0:
448,192,36926,1,0,0:0:0:0:
320,192,37009,1,0,0:0:0:0:
192,192,37093,1,0,0:0:0:0:
448,192,37176,1,0,0:0:0:0:
64,192,37176,1,0,0:0:0:0:
320,192,37343,1,0,0:0:0:0:
192,192,37509,1,0,0:0:0:0:
64,192,37509,1,0,0:0:0:0:
320,192,37593,1,0,0:0:0:0:
448,192,37676,1,0,0:0:0:0:
192,192,37759,1,0,0:0:0:0:
64,192,37843,1,0,0:0:0:0:
448,192,37843,128,0,38009:0:0:0:0:
320,192,38009,128,0,38176:0:0:0:0:
64,192,38176,1,0,0:0:0:0:
448,192,38176,128,0,38343:0:0:0:0:
320,192,38343,128,0,38509:0:0:0:0:
192,192,38509,1,0,0:0:0:0:
64,192,38509,1,0,0:0:0:0:
320,192,38676,1,0,0:0:0:0:
448,192,38843,1,0,0:0:0:0:
192,192,38843,1,0,0:0:0:0:
64,192,38926,1,0,0:0:0:0:
320,192,39009,1,0,0:0:0:0:
192,192,39176,1,0,0:0:0:0:
64,192,39176,1,0,0:0:0:0:
320,192,39343,1,0,0:0:0:0:
448,192,39509,1,0,0:0:0:0:
64,192,39509,1,0,0:0:0:0:
192,192,39593,1,0,0:0:0:0:
320,192,39676,1,0,0:0:0:0:
64,192,39759,1,0,0:0:0:0:
192,192,39843,1,0,0:0:0:0:
448,192,39843,1,0,0:0:0:0:
320,192,40009,1,0,0:0:0:0:
192,192,40176,1,0,0:0:0:0:
64,192,40176,1,0,0:0:0:0:
448,192,40259,1,0,0:0:0:0:
320,192,40343,1,0,0:0:0:0:
192,192,40426,1,0,0:0:0:0:
64,192,40509,1,0,0:0:0:0:
448,192,40509,128,0,40676:0:0:0:0:
320,192,40676,128,0,40843:0:0:0:0:
64,192,40843,128,0,41009:0:0:0:0:
448,192,40843,1,0,0:0:0:0:
192,192,41009,128,0,41176:0:0:0:0:
320,192,41009,1,0,0:0:0:0:
320,192,41176,1,4,0:0:0:0:
448,192,41176,1,2,0:0:0:0:
64,192,41176,1,0,0:0:0:0:
192,192,41343,1,0,0:0:0:0:
320,192,41509,1,0,0:0:0:0:
448,192,41509,1,0,0:0:0:0:
64,192,41593,1,0,0:0:0:0:
192,192,41676,1,0,0:0:0:0:
320,192,41843,1,0,0:0:0:0:
64,192,41843,1,0,0:0:0:0:
448,192,42009,1,0,0:0:0:0:
192,192,42176,1,0,0:0:0:0:
64,192,42176,1,0,0:0:0:0:
448,192,42259,1,0,0:0:0:0:
320,192,42343,1,0,0:0:0:0:
192,192,42426,1,0,0:0:0:0:
64,192,42509,1,0,0:0:0:0:
448,192,42509,1,0,0:0:0:0:
320,192,42676,1,0,0:0:0:0:
192,192,42843,1,0,0:0:0:0:
64,192,42843,1,0,0:0:0:0:
448,192,42926,1,0,0:0:0:0:
320,192,43009,1,0,0:0:0:0:
64,192,43093,1,0,0:0:0:0:
192,192,43176,1,0,0:0:0:0:
448,192,43176,128,0,43343:0:0:0:0:
64,192,43343,128,0,43509:0:0:0:0:
320,192,43509,1,0,0:0:0:0:
192,192,43509,128,0,43676:0:0:0:0:
448,192,43676,1,0,0:0:0:0:
320,192,43676,128,0,43843:0:0:0:0:
192,192,43843,1,0,0:0:0:0:
64,192,43843,1,0,0:0:0:0:
448,192,43843,128,0,44176:0:0:0:0:
64,192,44093,1,0,0:0:0:0:
192,192,44176,1,0,0:0:0:0:
320,192,44176,1,0,0:0:0:0:
192,192,44343,1,0,0:0:0:0:
320,192,44509,1,0,0:0:0:0:
448,192,44509,1,0,0:0:0:0:
64,192,44509,128,0,44843:0:0:0:0:
448,192,44759,1,0,0:0:0:0:
320,192,44843,1,0,0:0:0:0:
192,192,44843,1,0,0:0:0:0:
320,192,45009,1,0,0:0:0:0:
192,192,45176,1,0,0:0:0:0:
448,192,45176,1,0,0:0:0:0:
64,192,45176,1,0,0:0:0:0:
320,192,45426,1,0,0:0:0:0:
448,192,45509,1,0,0:0:0:0:
192,192,45509,1,0,0:0:0:0:
64,192,45509,1,0,0:0:0:0:
448,192,45676,1,0,0:0:0:0:
192,192,45843,1,0,0:0:0:0:
64,192,45843,128,0,46343:0:0:0:0:
448,192,46009,1,0,0:0:0:0:
320,192,46009,1,0,0:0:0:0:
320,192,46176,1,0,0:0:0:0:
192,192,46176,1,0,0:0:0:0:
192,192,46343,1,0,0:0:0:0:
448,192,46343,1,0,0:0:0:0:
320,192,46509,1,4,0:0:0:0:
64,192,46509,1,2,0:0:0:0:
448,192,46509,1,0,0:0:0:0:
192,192,46676,1,0,0:0:0:0:
320,192,46843,1,0,0:0:0:0:
64,192,46843,1,0,0:0:0:0:
448,192,46926,1,0,0:0:0:0:
320,192,47009,1,0,0:0:0:0:
192,192,47176,1,0,0:0:0:0:
64,192,47176,1,0,0:0:0:0:
448,192,47343,1,0,0:0:0:0:
320,192,47509,1,0,0:0:0:0:
64,192,47509,1,0,0:0:0:0:
448,192,47593,1,0,0:0:0:0:
192,192,47676,1,0,0:0:0:0:
320,192,47759,1,0,0:0:0:0:
448,192,47843,1,0,0:0:0:0:
64,192,47843,1,0,0:0:0:0:
192,192,48009,1,0,0:0:0:0:
320,192,48176,1,0,0:0:0:0:
448,192,48176,1,0,0:0:0:0:
64,192,48259,1,0,0:0:0:0:
192,192,48343,1,0,0:0:0:0:
320,192,48426,1,0,0:0:0:0:
64,192,48509,1,0,0:0:0:0:
448,192,48509,128,0,48676:0:0:0:0:
192,192,48676,128,0,48843:0:0:0:0:
320,192,48843,128,0,49009:0:0:0:0:
448,192,48843,1,0,0:0:0:0:
192,192,49009,128,0,49176:0:0:0:0:
64,192,49176,1,0,0:0:0:0:
448,192,49176,1,0,0:0:0:0:
320,192,49343,1,0,0:0:0:0:
192,192,49509,1,0,0:0:0:0:
64,192,49509,1,0,0:0:0:0:
448,192,49593,1,0,0:0:0:0:
320,192,49676,1,0,0:0:0:0:
192,192,49843,1,0,0:0:0:0:
448,192,49843,1,0,0:0:0:0:
64,192,50009,1,0,0:0:0:0:
320,192,50176,1,0,0:0:0:0:
448,192,50176,1,0,0:0:0:0:
192,192,50259,1,0,0:0:0:0:
320,192,50343,1,0,0:0:0:0:
192,192,50426,1,0,0:0:0:0:
448,192,50509,1,0,0:0:0:0:
64,192,50509,1,0,0:0:0:0:
320,192,50676,1,0,0:0:0:0:
448,192,50843,1,0,0:0:0:0:
192,192,50843,1,0,0:0:0:0:
64,192,50926,1,0,0:0:0:0:
192,192,51009,1,0,0:0:0:0:
320,192,51093,1,0,0:0:0:0:
448,192,51176,1,0,0:0:0:0:
64,192,51176,128,0,51343:0:0:0:0:
320,192,51343,128,0,51509:0:0:0:0:
192,192,51509,128,0,51676:0:0:0:0:
448,192,51509,1,0,0:0:0:0:
320,192,51676,128,0,51843:0:0:0:0:
64,192,51676,1,0,0:0:0:0:
64,192,51843,1,0,0:0:0:0:
192,192,51843,1,0,0:0:0:0:
448,192,51843,1,0,0:0:0:0:
320,192,52009,1,0,0:0:0:0:
192,192,52176,1,0,0:0:0:0:
448,192,52176,1,0,0:0:0:0:
64,192,52259,1,0,0:0:0:0:
192,192,52343,1,0,0:0:0:0:
320,192,52509,1,0,0:0:0:0:
448,192,52509,1,0,0:0:0:0:
192,192,52676,1,0,0:0:0:0:
64,192,52843,1,0,0:0:0:0:
448,192,52843,1,0,0:0:0:0:
320,192,52926,1,0,0:0:0:0:
192,192,53009,1,0,0:0:0:0:
320,192,53093,1,0,0:0:0:0:
448,192,53176,1,0,0:0:0:0:
64,192,53176,1,0,0:0:0:0:
192,192,53343,1,0,0:0:0:0:
320,192,53509,1,0,0:0:0:0:
448,192,53509,1,0,0:0:0:0:
64,192,53593,1,0,0:0:0:0:
192,192,53676,1,0,0:0:0:0:
320,192,53759,1,0,0:0:0:0:
448,192,53843,1,0,0:0:0:0:
64,192,53843,128,0,54009:0:0:0:0:
192,192,54009,128,0,54176:0:0:0:0:
320,192,54176,128,0,54343:0:0:0:0:
448,192,54176,1,0,0:0:0:0:
192,192,54343,128,0,54509:0:0:0:0:
64,192,54509,1,0,0:0:0:0:
448,192,54509,1,0,0:0:0:0:
320,192,54509,128,0,54676:0:0:0:0:
192,192,54759,1,0,0:0:0:0:
64,192,54843,1,0,0:0:0:0:
448,192,54843,1,0,0:0:0:0:
320,192,55009,1,0,0:0:0:0:
192,192,55176,128,0,55426:0:0:0:0:
64,192,55176,1,0,0:0:0:0:
448,192,55176,1,0,0:0:0:0:
320,192,55426,1,0,0:0:0:0:
64,192,55509,1,0,0:0:0:0:
448,192,55509,128,0,55676:0:0:0:0:
192,192,55676,128,0,55843:0:0:0:0:
64,192,55843,128,0,57176:0:0:0:0:
448,192,55843,1,0,0:0:0:0:
320,192,56176,5,0,0:0:0:0:
192,192,56176,1,0,0:0:0:0:
320,192,56509,1,0,0:0:0:0:
448,192,56509,1,0,0:0:0:0:
448,192,56759,1,0,0:0:0:0:
320,192,56843,1,0,0:0:0:0:
192,192,56843,1,0,0:0:0:0:
320,192,57009,1,0,0:0:0:0:
448,192,57009,1,0,0:0:0:0:
448,192,57176,5,0,0:0:0:0:
320,192,57176,1,0,0:0:0:0:
192,192,57176,1,0,0:0:0:0:
