osu file format v14

[General]
AudioFilename: audio.mp3
AudioLeadIn: 0
PreviewTime: 57778
Countdown: 0
SampleSet: Normal
StackLeniency: 0.7
Mode: 0
LetterboxInBreaks: 0
WidescreenStoryboard: 0

[Editor]
DistanceSpacing: 1.5
BeatDivisor: 4
GridSize: 4
TimelineZoom: 3.799999

[Metadata]
Title:Baby's Tears
TitleUnicode:Baby's Tears
Artist:Riyu Kosaka
ArtistUnicode:小坂りゆ
Creator:Aeril
Version:Insane
Source:スカイガールズ
Tags:OVA LOVE+HATE HΛL Mayuko Maruyama DDR SuperNOVA2 opening sky girls
BeatmapID:1035767
BeatmapSetID:485723

[Difficulty]
HPDrainRate:6.5
CircleSize:3.5
OverallDifficulty:7.5
ApproachRate:8
SliderMultiplier:1.6
SliderTickRate:1

[Events]
//Background and Video events
0,0,"dfjftyjt.png",0,0
Video,2314,"Sky Girls - Opening.avi"
//Break Periods
//Storyboard Layer 0 (Background)
//Storyboard Layer 1 (Fail)
//Storyboard Layer 2 (Pass)
//Storyboard Layer 3 (Foreground)
Sprite,Foreground,Centre,"dfjftyjt.png",320,240 M,0,2808,,320,240 F,0,2808,,0
//Storyboard Sound Samples

[TimingPoints]
4220,352.941176470588,4,2,1,30,1,0
4220,-125,4,2,1,30,0,0
11278,-125,4,2,1,40,0,0
21161,-166.666666666667,4,2,1,40,0,0
21867,-100,4,2,1,40,0,0
22572,-111.111111111111,4,2,1,40,0,0
33867,-100,4,2,1,50,0,0
55043,-100,4,1,1,50,0,0
57161,-100,4,2,1,20,0,0
57514,-100,4,2,1,40,0,0
57867,-83.3333333333333,4,2,2,60,0,1
77631,-83.3333333333333,4,2,2,50,0,1
80455,-125,4,2,1,40,0,0
90337,363.636363636364,4,2,1,40,1,0
90337,-125,4,2,1,40,0,0
90700,375,4,2,1,40,1,0
90700,-142.857142857143,4,2,1,40,0,0
91075,428.571428571429,4,2,1,40,1,0
91075,-166.666666666667,4,2,1,40,0,0
91503,480,4,2,1,40,1,0
91503,-200,4,2,1,40,0,0
91983,480,4,2,1,40,1,0
96783,-200,4,2,1,5,0,0

[Colours]
Combo1 : 0,223,223
Combo2 : 81,168,255
Combo3 : 11,73,219
Combo4 : 98,255,255

[HitObjects]
438,147,4220,6,0,B|370:124|367:169|293:134,1,128,2|0,0:0|0:0,0:0:0:0:
249,87,4749,2,0,P|229:136|322:226,1,192,0|0,0:0|0:0,0:0:0:0:
328,62,5631,1,2,0:0:0:0:
404,227,6514,1,0,0:0:0:0:
369,302,6690,2,0,L|287:314,1,64,0|0,0:0|0:0,0:0:0:0:
216,255,7043,6,0,B|168:254|168:254|142:269|142:269|78:268,1,128,2|0,0:0|0:0,0:0:0:0:
24,317,7572,2,0,P|9:266|102:185,1,192,0|0,0:0|0:0,0:0:0:0:
98,349,8455,1,2,0:0:0:0:
256,192,8543,12,0,10925,0:0:0:0:
385,336,11278,5,4,0:0:0:0:
330,284,11631,1,0,0:0:0:0:
358,212,11984,1,0,0:0:0:0:
434,218,12337,1,0,0:0:0:0:
449,293,12690,1,2,0:0:0:0:
449,293,13749,1,0,0:0:0:0:
434,218,13925,1,0,0:0:0:0:
232,210,14102,6,0,B|293:191|298:235|362:210,1,128,4|0,0:0|0:0,0:0:0:0:
449,138,14631,2,0,B|388:157|383:113|319:138,1,128,0|0,0:0|0:0,0:0:0:0:
258,292,15161,1,0,0:0:0:0:
258,292,15514,6,0,L|187:298,2,64,2|0|0,0:0|0:0|0:0,0:0:0:0:
321,347,16043,1,0,0:0:0:0:
118,327,16219,2,0,P|114:286|131:248,1,64,4|0,0:0|0:0,0:0:0:0:
188,218,16572,2,0,P|192:177|175:139,1,64,0|0,0:0|0:0,0:0:0:0:
122,71,16925,6,0,L|271:78,1,128,4|2,0:0|0:0,0:0:0:0:
316,127,17455,1,2,0:0:0:0:
316,127,17631,2,0,P|333:93|329:52,1,64,0|0,0:0|0:0,0:0:0:0:
185,155,17984,2,0,P|168:189|172:230,1,64,0|0,0:0|0:0,0:0:0:0:
280,208,18337,6,0,B|326:214|326:214|353:253|414:245,1,128,2|0,0:0|0:0,0:0:0:0:
393,162,18867,1,0,0:0:0:0:
279,294,19043,2,0,P|222:294|213:366,1,128,2|0,0:0|0:0,0:0:0:0:
94,279,19749,6,0,L|81:136,1,128,4|0,0:0|0:0,0:0:0:0:
138,90,20278,1,0,0:0:0:0:
16,100,20455,1,2,0:0:0:0:
190,159,20808,2,0,P|218:125|220:79,1,64,0|0,0:0|0:0,0:0:0:0:
286,44,21161,6,0,B|322:90|303:139|303:139|314:120|355:108,1,143.999995605469,2|0,0:0|0:0,0:0:0:0:
469,214,21867,2,0,B|413:232|363:195|363:195|337:240,1,160,0|0,0:0|0:0,0:0:0:0:
396,301,22396,1,0,0:0:0:0:
434,134,22572,6,0,P|432:83|366:21,1,143.999995605469,6|0,0:1|0:0,0:0:0:0:
278,50,23102,1,0,0:0:0:0:
187,25,23278,2,0,L|103:35,1,71.9999978027344,2|0,0:0|0:0,0:0:0:0:
64,112,23631,2,0,L|148:122,1,71.9999978027344,0|0,0:0|0:0,0:0:0:0:
183,201,23984,5,0,0:0:0:0:
347,306,24690,1,2,0:0:0:0:
400,228,24867,2,0,P|391:182|372:159,1,71.9999978027344,0|0,0:0|0:0,0:0:0:0:
310,224,25219,1,0,0:0:0:0:
478,268,25396,6,0,B|505:193|463:194|487:109,1,143.999995605469,0|0,0:0|0:0,0:0:0:0:
411,65,25925,1,0,0:0:0:0:
325,104,26102,2,0,P|278:108|247:101,1,71.9999978027344,2|0,0:0|0:0,0:0:0:0:
154,185,26455,2,0,P|189:179|225:184,1,71.9999978027344,0|0,0:0|0:0,0:0:0:0:
181,51,26808,5,0,0:0:0:0:
76,243,27514,1,2,0:0:0:0:
152,297,27690,2,0,P|159:353|148:381,1,71.9999978027344,0|0,0:0|0:0,0:0:0:0:
67,335,28043,1,0,0:0:0:0:
158,208,28219,6,0,B|204:208|235:250|235:250|300:216,1,143.999995605469,0|0,0:0|0:0,0:0:0:0:
250,145,28749,1,0,0:0:0:0:
367,221,28925,2,0,P|402:270|374:358,1,143.999995605469,2|0,0:0|0:0,0:0:0:0:
317,293,29455,1,0,0:0:0:0:
379,196,29631,6,0,B|386:92,1,71.9999978027344,0|0,3:0|0:0,0:0:0:0:
261,51,29984,2,0,B|265:122,1,71.9999978027344,0|0,0:0|0:0,0:0:0:0:
363,36,30337,2,0,P|409:36|449:60,2,71.9999978027344,2|0|0,3:2|0:0|0:0,0:0:0:0:
280,147,30867,1,0,0:0:0:0:
172,73,31043,6,0,L|94:68,1,71.9999978027344,0|0,3:0|0:0,0:0:0:0:
146,162,31396,1,0,3:0:0:0:
78,50,31572,1,0,0:0:0:0:
0,143,31749,2,0,P|43:150|87:134,1,71.9999978027344,2|0,3:2|0:0,0:0:0:0:
90,253,32102,2,0,P|133:246|177:262,1,71.9999978027344,0|0,3:0|0:0,0:0:0:0:
258,352,32455,6,0,L|257:302,3,35.9999989013672,0|0|0|0,3:0|1:0|1:0|1:0,0:0:0:0:
265,288,32808,1,0,1:0:0:0:
269,259,32896,1,0,1:0:0:0:
267,230,32984,1,0,1:0:0:0:
256,203,33072,1,0,1:0:0:0:
238,179,33161,1,14,1:1:0:0:
359,61,33867,6,0,L|349:158,1,80,4|0,3:1|0:0,0:0:0:0:
367,264,34219,1,0,1:0:0:0:
492,205,34396,1,0,0:0:0:0:
492,205,34572,2,0,P|437:190|390:207,1,80,0|0,3:0|0:0,0:0:0:0:
367,264,34925,2,0,P|327:267|290:253,1,80,0|0,1:0|0:0,0:0:0:0:
162,145,35278,6,0,B|267:167|267:167|240:153|223:98,1,160,0|0,3:0|1:0,0:0:0:0:
178,57,35808,1,0,0:0:0:0:
137,163,35984,2,0,L|81:169,1,40,2|0,3:2|0:0,0:0:0:0:
166,249,36161,2,0,L|205:253,1,40,0|0,0:0|0:0,0:0:0:0:
135,332,36337,2,0,P|97:306|79:262,1,80,0|0,1:0|0:0,0:0:0:0:
137,163,36690,6,0,B|210:140|216:193|299:161,1,160,0|0,3:0|1:0,0:0:0:0:
369,55,37219,2,0,L|375:149,1,80,0|0,0:0|3:0,0:0:0:0:
366,222,37572,1,0,0:0:0:0:
459,188,37749,2,0,L|453:282,1,80,0|0,1:0|0:0,0:0:0:0:
317,356,38102,6,0,P|311:297|246:348,1,160,0|0,3:0|1:0,0:0:0:0:
168,374,38631,1,0,0:0:0:0:
195,239,38808,2,0,B|220:209|266:203|266:203|300:172|286:112,1,160,2|0,3:1|1:0,0:0:0:0:
206,91,39337,2,0,L|199:149,1,40,2|2,0:0|0:0,0:0:0:0:
100,200,39514,6,0,B|92:144|92:144|108:107|108:107|95:32,1,160,2|0,3:2|1:0,0:0:0:0:
10,88,40043,1,0,0:0:0:0:
100,200,40219,2,0,P|134:208|195:193,1,80,0|0,3:0|0:0,0:0:0:0:
275,154,40572,2,0,P|309:146|370:161,1,80,0|0,1:0|0:0,0:0:0:0:
246,77,40925,6,0,L|255:236,1,160,0|0,3:0|1:0,0:0:0:0:
371,311,41455,2,0,L|382:224,1,80,0|0,0:0|3:0,0:0:0:0:
355,124,41808,1,0,0:0:0:0:
459,154,41984,1,0,1:0:0:0:
381,231,42161,1,2,0:0:0:0:
361,233,42249,1,2,0:0:0:0:
341,235,42337,6,0,B|286:261|233:236|233:236|175:267,1,160,2|0,3:2|1:0,0:0:0:0:
102,230,42867,1,0,0:0:0:0:
207,145,43043,2,0,P|252:143|293:162,1,80,0|0,3:0|0:0,0:0:0:0:
233,236,43396,1,0,1:0:0:0:
191,113,43572,1,0,0:0:0:0:
357,16,43749,6,0,L|342:118,1,80,0|0,3:0|0:0,0:0:0:0:
179,33,44102,2,0,L|194:135,1,80,0|0,1:0|0:0,0:0:0:0:
325,249,44455,2,0,B|319:203|341:171|341:171|358:135|343:88,1,160,0|2,3:0|1:2,0:0:0:0:
230,118,44984,2,0,L|222:189,1,40,2|0,0:0|0:0,0:0:0:0:
213,268,45161,6,0,B|170:268|144:235|144:235|121:274|65:279,1,160,4|0,3:1|1:0,0:0:0:0:
63,181,45690,1,0,0:0:0:0:
232,97,45867,2,0,L|223:176,1,80,0|0,3:0|0:0,0:0:0:0:
155,351,46219,1,0,1:0:0:0:
155,351,46396,1,0,0:0:0:0:
223,176,46572,6,0,B|300:167|300:223|398:197,1,160,0|0,3:0|1:0,0:0:0:0:
354,108,47102,1,0,0:0:0:0:
243,271,47278,2,0,L|251:350,1,80,2|0,3:1|0:0,0:0:0:0:
352,303,47631,2,0,L|360:223,1,80,0|0,1:0|0:0,0:0:0:0:
242,58,47984,6,0,B|223:176|223:176|203:134,1,160,0|0,3:0|1:0,0:0:0:0:
68,66,48514,2,0,P|107:62|147:66,1,80,0|0,0:0|3:0,0:0:0:0:
205,139,48867,1,0,0:0:0:0:
375,123,49043,2,0,P|335:119|295:123,1,80,0|0,1:0|0:0,0:0:0:0:
144,205,49396,6,0,B|71:196|71:252|-26:216,1,160,0|0,3:0|1:0,0:0:0:0:
25,93,49925,2,0,L|29:133,1,40,0|0,0:0|0:0,0:0:0:0:
134,299,50102,1,2,3:1:0:0:
165,188,50278,1,0,0:0:0:0:
38,321,50455,2,0,P|59:364|90:384,1,80,0|0,1:0|0:0,0:0:0:0:
289,281,50808,6,0,B|233:280|233:280|192:299|192:299|119:298,1,160,0|0,3:0|1:0,0:0:0:0:
0,225,51337,2,0,P|52:214|87:230,1,80,0|0,0:0|3:0,0:0:0:0:
38,321,51690,1,0,0:0:0:0:
165,188,51867,2,0,L|167:93,1,80,0|0,1:0|0:0,0:0:0:0:
18,0,52219,6,0,L|21:159,1,160,0|0,3:0|1:0,0:0:0:0:
84,233,52749,1,0,0:0:0:0:
245,110,52925,2,0,P|198:102|157:111,1,80,0|0,3:0|0:0,0:0:0:0:
38,25,53278,2,0,P|77:30|116:22,1,80,0|0,1:0|0:0,0:0:0:0:
287,27,53631,6,0,B|326:45|337:85|337:85|369:55|420:63,1,160,4|0,3:1|1:2,0:0:0:0:
409,158,54161,1,0,0:0:0:0:
403,314,54337,2,0,B|380:237|433:237|407:152,1,160,2|0,3:1|1:2,0:0:0:0:
496,281,54867,1,0,0:0:0:0:
313,192,55043,5,4,3:1:0:0:
293,195,55131,1,0,0:0:0:0:
273,198,55219,1,0,0:0:0:0:
253,201,55308,1,0,0:0:0:0:
233,204,55396,2,0,L|163:187,3,40,0|0|0|0,0:0|0:0|0:0|0:0,0:0:0:0:
174,189,55749,6,0,B|133:181|133:181|82:198,1,80,0|0,3:0|0:0,0:0:0:0:
7,155,56014,2,0,B|-1:196|-1:196|16:247,1,80,0|0,3:0|0:0,0:0:0:0:
87,286,56278,1,0,3:0:0:0:
87,100,56455,1,2,1:2:0:0:
256,192,56543,12,0,57514,3:0:0:0:
324,52,57690,5,0,1:0:0:0:
327,71,57778,1,0,1:0:0:0:
331,94,57867,2,0,B|338:145|338:145|312:208,1,95.9999970703126,6|0,3:1|0:0,0:0:0:0:
415,301,58219,2,0,P|426:255|406:194,1,95.9999970703126,8|0,1:0|0:0,0:0:0:0:
252,246,58572,2,0,P|240:292|251:338,1,95.9999970703126,0|0,3:0|0:0,0:0:0:0:
288,369,58837,1,0,0:0:0:0:
288,369,58925,1,8,1:0:0:0:
437,332,59102,1,0,0:0:0:0:
225,224,59278,6,0,L|110:232,1,95.9999970703126,2|0,3:1|0:0,0:0:0:0:
25,357,59631,2,0,L|140:365,1,95.9999970703126,8|0,1:0|0:0,0:0:0:0:
85,149,59984,2,0,P|40:195|38:259,1,95.9999970703126,2|0,3:1|0:0,0:0:0:0:
47,270,60249,1,0,0:0:0:0:
47,270,60337,1,8,1:0:0:0:
179,142,60514,1,0,0:0:0:0:
35,64,60690,6,0,B|82:50|82:50|147:66,1,95.9999970703126,2|0,3:1|0:0,0:0:0:0:
256,86,60955,1,0,0:0:0:0:
256,86,61043,2,0,P|275:135|254:201,1,95.9999970703126,8|0,1:0|0:0,0:0:0:0:
205,323,61396,2,0,P|186:274|207:208,1,95.9999970703126,0|0,3:0|0:0,0:0:0:0:
342,236,61661,1,0,0:0:0:0:
342,236,61749,2,0,B|387:247|387:247|434:233,1,95.9999970703126,8|0,1:0|0:0,0:0:0:0:
477,63,62102,6,0,B|394:51|394:118|292:96,1,191.999994140625,2|8,3:1|1:0,0:0:0:0:
323,5,62631,1,0,0:0:0:0:
457,157,62808,2,0,P|466:206|434:275,1,95.9999970703126,2|0,3:1|0:0,0:0:0:0:
318,291,63161,2,0,P|305:245|314:198,1,95.9999970703126,8|0,1:0|0:0,0:0:0:0:
498,345,63514,6,0,L|392:338,1,95.9999970703126,2|0,3:1|0:0,0:0:0:0:
370,374,63778,1,0,0:0:0:0:
370,374,63867,1,8,1:0:0:0:
313,198,64043,1,0,0:0:0:0:
222,297,64219,2,0,L|328:290,1,95.9999970703126,0|0,3:0|0:0,0:0:0:0:
366,124,64572,2,0,P|308:104|258:120,1,95.9999970703126,8|0,1:0|0:0,0:0:0:0:
454,163,64925,6,0,L|445:68,1,95.9999970703126,2|0,3:1|0:0,0:0:0:0:
474,29,65190,1,0,0:0:0:0:
474,29,65278,1,8,1:0:0:0:
466,255,65455,1,0,0:0:0:0:
366,124,65631,2,0,L|356:28,1,95.9999970703126,2|0,3:1|0:0,0:0:0:0:
259,28,65984,1,8,1:0:0:0:
265,124,66161,1,0,0:0:0:0:
55,40,66337,6,0,P|101:34|158:51,1,95.9999970703126,2|0,3:1|0:0,0:0:0:0:
184,78,66602,1,0,0:0:0:0:
184,78,66690,1,8,1:0:0:0:
183,269,66867,1,0,0:0:0:0:
97,130,67043,2,0,P|84:184|102:255,1,95.9999970703126,0|0,3:0|0:0,0:0:0:0:
273,217,67396,2,0,P|277:170|265:124,1,95.9999970703126,8|0,1:0|0:0,0:0:0:0:
96,322,67749,5,2,3:1:0:0:
184,178,67925,2,0,L|182:131,2,47.9999985351563,8|0|0,1:0|1:0|1:0,0:0:0:0:
88,223,68278,5,0,3:0:0:0:
302,305,68455,2,0,L|304:356,2,47.9999985351563,10|0|0,1:0|1:0|1:0,0:0:0:0:
430,164,68808,5,8,1:0:0:0:
384,149,68896,1,0,1:0:0:0:
336,152,68984,1,8,1:0:0:0:
293,173,69072,1,0,1:0:0:0:
273,217,69161,6,0,L|276:337,1,95.9999970703126,2|0,3:1|0:0,0:0:0:0:
471,362,69514,2,0,L|473:266,1,95.9999970703126,8|0,1:0|0:0,0:0:0:0:
359,77,69867,2,0,L|362:197,1,95.9999970703126,0|0,3:0|0:0,0:0:0:0:
389,211,70131,1,0,0:0:0:0:
389,211,70219,1,8,1:0:0:0:
435,19,70396,1,0,0:0:0:0:
275,127,70572,6,0,P|202:130|166:115,1,95.9999970703126,2|0,3:1|0:0,0:0:0:0:
43,37,70925,2,0,P|116:34|152:49,1,95.9999970703126,8|0,1:0|0:0,0:0:0:0:
61,258,71278,2,0,L|56:145,1,95.9999970703126,2|0,3:1|0:0,0:0:0:0:
181,122,71543,1,0,0:0:0:0:
181,122,71631,2,0,L|176:235,1,95.9999970703126,8|0,1:0|0:0,0:0:0:0:
32,348,71984,6,0,P|83:350|134:317,1,95.9999970703126,2|0,3:1|0:0,0:0:0:0:
222,310,72249,1,0,0:0:0:0:
222,310,72337,2,0,B|264:326|264:326|290:379,1,95.9999970703126,8|0,1:0|0:0,0:0:0:0:
362,209,72690,2,0,P|311:207|260:240,1,95.9999970703126,0|0,3:0|0:0,0:0:0:0:
387,298,72955,1,0,0:0:0:0:
387,298,73043,2,0,B|429:282|429:282|455:229,1,95.9999970703126,8|0,1:0|0:0,0:0:0:0:
283,109,73396,6,0,B|195:98|195:165|83:136,1,191.999994140625,2|8,3:1|1:0,0:0:0:0:
137,48,73925,1,0,0:0:0:0:
257,204,74102,2,0,P|260:259|237:311,1,95.9999970703126,2|0,3:1|0:0,0:0:0:0:
108,363,74455,2,0,P|93:317|97:270,1,95.9999970703126,8|0,1:0|0:0,0:0:0:0:
258,325,74808,6,0,L|378:339,1,95.9999970703126,2|0,3:1|0:0,0:0:0:0:
400,343,75072,1,0,0:0:0:0:
400,343,75161,1,8,1:0:0:0:
394,157,75337,1,0,0:0:0:0:
335,242,75514,2,0,L|455:256,1,95.9999970703126,0|0,3:0|0:0,0:0:0:0:
401,67,75867,2,0,P|340:80|307:121,1,95.9999970703126,8|0,1:0|0:0,0:0:0:0:
211,281,76219,6,0,B|202:215|202:215|224:170|224:170|211:84,1,191.999994140625,2|8,3:1|1:0,0:0:0:0:
130,146,76749,1,0,0:0:0:0:
263,365,76925,2,0,B|308:344|310:290|310:290|347:322|402:310,1,191.999994140625,2|8,3:1|1:0,0:0:0:0:
380,215,77455,1,0,0:0:0:0:
211,281,77631,5,14,3:1:0:0:
130,146,77808,1,0,3:1:0:0:
287,143,77984,1,0,3:1:0:0:
133,332,78161,5,12,3:1:0:0:
209,194,78338,1,0,3:1:0:0:
290,329,78514,1,0,3:1:0:0:
208,95,78690,5,14,3:1:0:0:
212,380,78867,1,0,3:1:0:0:
28,171,79043,1,14,3:1:0:0:
22,136,79131,1,0,1:0:0:0:
30,104,79219,1,0,1:0:0:0:
48,74,79308,1,0,1:0:0:0:
74,55,79396,2,0,L|125:52,3,47.9999985351563,0|0|0|0,3:0|1:0|3:0|1:0,0:0:0:0:
207,3,79749,6,0,B|221:53|221:53|199:119,1,95.9999970703126,8|0,3:1|1:0,0:0:0:0:
123,145,80014,2,0,B|109:95|109:95|122:53,1,95.9999970703126,8|0,3:1|1:0,0:0:0:0:
207,183,80278,1,8,3:1:0:0:
308,69,80455,6,0,B|372:59|372:104|453:81,1,128,2|0,0:0|0:0,0:0:0:0:
477,171,80984,1,0,0:0:0:0:
477,171,81161,2,0,L|476:256,1,64,2|0,0:0|0:0,0:0:0:0:
382,204,81514,2,0,L|392:292,1,64,0|0,0:0|0:0,0:0:0:0:
268,297,81867,6,0,P|222:295|192:283,1,64,2|0,0:0|0:0,0:0:0:0:
129,231,82219,2,0,P|83:233|53:245,1,64,0|0,0:0|0:0,0:0:0:0:
57,142,82572,2,0,P|87:133|119:134,1,64,0|0,0:0|0:0,0:0:0:0:
209,168,82925,2,0,P|239:176|271:175,1,64,0|0,0:0|0:0,0:0:0:0:
310,51,83278,6,0,B|267:52|248:72|248:72|222:44|182:40,1,128,2|0,0:0|0:0,0:0:0:0:
99,52,83808,1,0,0:0:0:0:
99,52,83984,2,0,L|25:47,1,64,2|0,0:0|0:0,0:0:0:0:
57,142,84337,2,0,L|129:133,1,64,0|0,0:0|0:0,0:0:0:0:
194,263,84690,5,2,0:0:0:0:
104,299,84867,2,0,P|54:288|30:262,2,64,0|0|0,0:0|0:0|0:0,0:0:0:0:
194,263,85396,2,0,P|225:265|253:281,1,64,0|0,0:0|0:0,0:0:0:0:
254,377,85749,2,0,P|285:374|313:358,1,64,0|0,0:0|0:0,0:0:0:0:
474,269,86102,6,0,B|410:253|410:289|346:269,1,128,2|0,0:0|0:0,0:0:0:0:
383,180,86631,1,0,0:0:0:0:
383,180,86808,2,0,L|376:110,1,64,0|0,0:0|0:0,0:0:0:0:
289,75,87161,2,0,L|282:145,1,64,0|0,0:0|0:0,0:0:0:0:
142,222,87514,6,0,B|178:221|199:199|199:199|223:229|263:232,1,128,2|0,0:0|0:0,0:0:0:0:
282,138,88043,1,0,0:0:0:0:
191,39,88219,2,0,L|196:127,1,64,0|0,0:0|0:0,0:0:0:0:
142,222,88572,1,0,0:0:0:0:
102,134,88749,1,0,0:0:0:0:
75,291,88925,6,0,P|144:320|209:288,1,128,2|0,0:0|0:0,0:0:0:0:
253,230,89455,1,0,0:0:0:0:
253,230,89631,2,0,L|326:240,1,64,0|0,0:0|0:0,0:0:0:0:
364,322,89984,2,0,L|300:330,1,64,0|0,0:0|0:0,0:0:0:0:
411,238,90337,6,0,P|400:192|378:168,1,64,2|0,0:0|0:0,0:0:0:0:
300,140,90700,6,0,P|311:94|331:70,1,55.9999982910157,0|0,0:0|0:0,0:0:0:0:
406,38,91075,6,0,P|418:79|415:106,1,47.9999985351563,2|0,0:0|0:0,0:0:0:0:
390,179,91503,6,0,P|383:217|386:235,1,40,0|0,0:0|0:0,0:0:0:0:
256,192,91983,12,0,96783,0:0:0:0:
