osu file format v14

[General]
AudioFilename: audio.mp3
AudioLeadIn: 0
PreviewTime: 57778
Countdown: 0
SampleSet: Soft
StackLeniency: 0.7
Mode: 0
LetterboxInBreaks: 0
WidescreenStoryboard: 0

[Editor]
DistanceSpacing: 1.2
BeatDivisor: 4
GridSize: 4
TimelineZoom: 3.799999

[Metadata]
Title:Baby's Tears
TitleUnicode:Baby's Tears
Artist:Riyu Kosaka
ArtistUnicode:小坂りゆ
Creator:Aeril
Version:Hard
Source:スカイガールズ
Tags:OVA LOVE+HATE HΛL Mayuko Maruyama DDR SuperNOVA2 opening sky girls
BeatmapID:1124592
BeatmapSetID:485723

[Difficulty]
HPDrainRate:6
CircleSize:4
OverallDifficulty:6
ApproachRate:7
SliderMultiplier:1.4
SliderTickRate:1

[Events]
//Background and Video events
0,0,"dfjftyjt.png",0,0
Video,2314,"Sky Girls - Opening.avi"
//Break Periods
//Storyboard Layer 0 (Background)
//Storyboard Layer 1 (Fail)
//Storyboard Layer 2 (Pass)
//Storyboard Layer 3 (Foreground)
Sprite,Foreground,Centre,"dfjftyjt.png",320,240 M,0,2808,,320,240 F,0,2808,,0
//Storyboard Sound Samples

[TimingPoints]
4220,352.941176470588,4,2,1,30,1,0
4220,-125,4,2,1,30,0,0
11278,-125,4,2,1,40,0,0
22572,-142.857142857143,4,2,1,40,0,0
33867,-125,4,2,1,50,0,0
55043,-125,4,1,1,50,0,0
57161,-125,4,2,1,20,0,0
57514,-125,4,2,1,40,0,0
57690,-100,4,2,1,40,0,0
57867,-100,4,2,2,60,0,1
77631,-100,4,2,2,50,0,1
80455,-125,4,2,1,40,0,0
90337,363.636363636364,4,2,1,40,1,0
90337,-125,4,2,1,40,0,0
90700,375,4,2,1,40,1,0
91075,428.571428571429,4,2,1,40,1,0
91075,-166.666666666667,4,2,1,40,0,0
91503,480,4,2,1,40,1,0
91983,480,4,2,1,40,1,0
96783,-200,4,2,1,5,0,0

[Colours]
Combo1 : 0,223,223
Combo2 : 81,168,255
Combo3 : 11,73,219
Combo4 : 98,255,255

[HitObjects]
116,167,4220,6,0,P|111:101|196:68,2,168,2|0|0,0:0|0:0|0:0,0:0:0:0:
236,142,5631,2,0,B|277:125|286:78|286:78|317:110|380:103,1,168,2|0,0:0|0:0,0:0:0:0:
450,17,6514,1,0,0:0:0:0:
483,68,6690,2,0,L|480:142,1,56,0|0,0:0|0:0,0:0:0:0:
440,171,7043,6,0,B|468:249|407:249|436:350,2,168,2|0|0,0:0|0:0|0:0,0:0:0:0:
319,200,8455,1,2,0:0:0:0:
256,192,8543,12,0,10925,0:0:0:0:
456,254,11278,5,4,0:0:0:0:
345,198,11631,2,0,B|329:148|329:148|344:86,2,112,0|0|0,0:0|0:0|0:0,0:0:0:0:
423,102,12690,2,0,P|390:24|269:60,1,224,2|0,0:0|0:0,0:0:0:0:
177,128,13749,2,0,L|103:123,1,56,0|0,0:0|0:0,0:0:0:0:
72,85,14102,6,0,B|96:172|41:172|76:257,2,168,4|0|0,0:0|0:0|0:0,0:0:0:0:
186,38,15514,2,0,P|186:84|191:99,1,56,2|0,0:0|0:0,0:0:0:0:
228,140,15867,2,0,P|228:186|223:201,1,56,0|0,0:0|0:0,0:0:0:0:
192,247,16219,1,4,0:0:0:0:
322,208,16572,1,0,0:0:0:0:
445,266,16925,6,0,L|458:131,2,112,4|2|0,0:0|0:0|0:0,0:0:0:0:
379,370,17984,1,0,0:0:0:0:
262,329,18337,2,0,B|154:300|153:367|35:322,1,224,2|2,0:0|0:0,0:0:0:0:
33,77,19749,6,0,P|100:95|104:235,1,224,4|2,0:0|0:0,0:0:0:0:
212,161,20808,2,0,L|287:170,1,56,0|0,0:0|0:0,0:0:0:0:
329,169,21161,2,0,B|373:165|400:127|400:127|396:193|427:230|489:241,1,224,2|0,0:0|0:0,0:0:0:0:
437,355,22219,1,0,0:0:0:0:
437,355,22396,1,0,0:0:0:0:
437,355,22572,6,0,P|393:326|339:335,1,97.9999970092774,6|0,0:1|0:0,0:0:0:0:
300,350,23102,2,0,B|253:364|253:333|191:349,1,97.9999970092774,0|0,0:0|0:0,0:0:0:0:
152,364,23631,1,0,0:0:0:0:
109,264,23984,1,0,0:0:0:0:
189,63,24690,1,2,0:0:0:0:
166,112,24867,2,0,L|101:118,2,48.9999985046387,0|0|0,0:0|0:0|0:0,0:0:0:0:
155,185,25396,6,0,P|197:181|236:134,1,97.9999970092774,0|0,0:0|0:0,0:0:0:0:
257,93,25925,2,0,P|302:77|346:94,1,97.9999970092774,0|0,0:0|0:0,0:0:0:0:
379,138,26455,1,0,0:0:0:0:
481,103,26808,1,0,0:0:0:0:
471,320,27514,1,2,0:0:0:0:
430,284,27690,2,0,L|426:228,2,48.9999985046387,0|0|0,0:0|0:0|0:0,0:0:0:0:
373,331,28219,6,0,P|326:335|271:297,1,97.9999970092774,0|0,0:0|0:0,0:0:0:0:
259,262,28749,1,0,0:0:0:0:
259,262,28925,2,0,L|246:365,1,97.9999970092774,2|0,0:0|0:0,0:0:0:0:
195,339,29455,1,0,0:0:0:0:
195,339,29631,6,0,P|156:331|128:337,1,48.9999985046387,0|0,3:0|0:0,0:0:0:0:
95,348,29984,2,0,P|61:351|26:338,1,48.9999985046387,0|0,0:0|0:0,0:0:0:0:
13,305,30337,2,0,P|7:256|39:198,1,97.9999970092774,2|0,3:2|0:0,0:0:0:0:
72,180,30867,1,0,0:0:0:0:
72,180,31043,6,0,L|129:183,1,48.9999985046387,0|0,3:0|0:0,0:0:0:0:
163,157,31396,2,0,L|220:154,1,48.9999985046387,0|0,3:0|0:0,0:0:0:0:
253,128,31749,2,0,L|310:131,1,48.9999985046387,2|0,3:2|0:0,0:0:0:0:
344,106,32102,2,0,L|401:103,1,48.9999985046387,0|0,3:0|0:0,0:0:0:0:
431,72,32455,2,0,L|436:27,7,24.4999992523194,0|0|0|0|0|0|0|0,3:0|1:0|1:0|1:0|1:0|1:0|1:0|1:0,0:0:0:0:
438,20,33161,5,14,1:1:0:0:
431,72,33867,6,0,L|440:193,1,112,4|0,3:1|1:0,0:0:0:0:
406,255,34396,1,0,0:0:0:0:
406,255,34572,2,0,P|366:262|339:257,1,56,0|0,3:0|0:0,0:0:0:0:
284,218,34925,2,0,P|244:211|217:216,1,56,0|0,1:0|0:0,0:0:0:0:
168,262,35278,6,0,P|152:228|180:151,1,112,0|0,3:0|1:0,0:0:0:0:
247,139,35808,1,0,0:0:0:0:
247,139,35984,2,0,L|305:134,1,56,2|0,3:2|0:0,0:0:0:0:
320,57,36337,2,0,L|264:52,1,56,0|0,1:0|0:0,0:0:0:0:
189,77,36690,6,0,B|135:74|135:107|62:84,1,112,0|0,3:0|1:0,0:0:0:0:
2,71,37219,1,0,0:0:0:0:
2,71,37396,2,0,L|13:146,1,56,0|0,3:0|0:0,0:0:0:0:
77,166,37749,2,0,P|87:207|72:267,1,84,0|0,1:0|0:0,0:0:0:0:
56,278,38102,6,0,B|112:268|112:268|184:301,1,112,0|0,3:0|1:0,0:0:0:0:
220,343,38631,1,0,0:0:0:0:
221,241,38808,2,0,P|239:280|205:358,1,112,2|0,3:1|1:0,0:0:0:0:
146,370,39337,1,2,0:0:0:0:
146,370,39514,6,0,L|16:355,1,112,2|0,3:2|1:0,0:0:0:0:
13,281,40043,1,0,0:0:0:0:
13,281,40219,2,0,P|2:238|10:207,1,56,0|0,3:0|0:0,0:0:0:0:
57,170,40572,2,0,P|68:127|60:96,1,56,0|0,1:0|0:0,0:0:0:0:
50,39,40925,6,0,B|81:32|108:47|108:47|123:24|162:11,1,112,0|0,3:0|1:0,0:0:0:0:
218,53,41455,1,0,0:0:0:0:
218,53,41631,2,0,L|223:114,1,56,0|0,3:0|0:0,0:0:0:0:
175,171,41984,2,0,L|180:232,1,56,0|2,1:0|0:0,0:0:0:0:
261,292,42337,6,0,L|251:173,1,112,2|0,3:2|1:0,0:0:0:0:
222,108,42867,1,0,0:0:0:0:
222,108,43043,2,0,P|267:105|322:145,1,112,0|0,3:0|1:0,0:0:0:0:
336,218,43572,1,0,0:0:0:0:
336,218,43749,6,0,L|344:288,1,56,0|0,3:0|0:0,0:0:0:0:
398,329,44102,2,0,L|391:384,1,56,0|0,1:0|0:0,0:0:0:0:
418,252,44455,1,0,3:0:0:0:
273,313,44808,1,2,1:2:0:0:
273,313,44984,1,2,0:0:0:0:
273,313,45161,6,0,P|211:304|155:333,1,112,4|0,3:1|1:0,0:0:0:0:
107,373,45690,1,0,0:0:0:0:
107,373,45867,2,0,P|73:374|40:361,1,56,0|0,3:0|0:0,0:0:0:0:
13,299,46219,2,0,P|0:269|1:232,1,56,0|0,1:0|0:0,0:0:0:0:
56,192,46572,6,0,B|112:206|112:206|180:166,1,112,0|0,3:0|1:0,0:0:0:0:
194,108,47102,1,0,0:0:0:0:
233,203,47278,2,0,P|235:158|174:102,1,112,2|0,3:1|1:0,0:0:0:0:
53,37,47984,6,0,B|109:59|109:28|173:38,1,112,0|0,3:0|1:0,0:0:0:0:
241,48,48514,1,0,0:0:0:0:
241,48,48690,2,0,L|302:55,1,56,0|0,3:0|0:0,0:0:0:0:
366,18,49043,2,0,P|354:73|372:122,1,84,0|0,1:0|0:0,0:0:0:0:
371,136,49396,6,0,P|381:186|347:239,1,112,0|0,3:0|1:0,0:0:0:0:
286,278,49925,1,0,0:0:0:0:
397,299,50102,2,0,L|286:278,1,112,2|0,3:1|1:0,0:0:0:0:
135,321,50808,6,0,P|125:286|163:198,1,112,0|0,3:0|1:0,0:0:0:0:
214,177,51337,1,0,0:0:0:0:
214,177,51514,2,0,P|217:143|206:102,1,56,0|0,3:0|0:0,0:0:0:0:
149,76,51867,2,0,P|146:42|157:1,1,56,0|0,1:0|0:0,0:0:0:0:
223,46,52219,6,0,L|345:43,1,112,0|0,3:0|1:0,0:0:0:0:
399,88,52749,1,0,0:0:0:0:
399,88,52925,2,0,P|408:127|398:161,1,56,0|0,3:0|0:0,0:0:0:0:
359,205,53278,2,0,P|350:244|360:278,1,56,0|0,1:0|0:0,0:0:0:0:
392,327,53631,6,0,B|346:296|346:296|277:311,1,112,4|0,3:1|1:2,0:0:0:0:
226,353,54161,1,0,0:0:0:0:
238,251,54337,2,0,P|212:304|237:365,1,112,2|0,3:1|1:2,0:0:0:0:
170,295,54867,1,0,0:0:0:0:
281,183,55043,5,4,3:1:0:0:
256,192,55131,12,2,56455,1:2:0:0:
343,118,56808,5,2,1:2:0:0:
420,173,56984,1,0,1:0:0:0:
430,198,57072,1,0,1:0:0:0:
441,223,57161,2,0,L|465:216,8,14,0|0|0|0|0|0|0|0|0,1:0|1:0|1:0|1:0|1:0|1:0|1:0|1:0|3:0,0:0:0:0:
420,315,57690,1,0,1:0:0:0:
405,305,57778,1,0,1:0:0:0:
391,298,57867,6,0,P|340:292|300:311,1,70,6|0,3:1|0:0,0:0:0:0:
241,316,58219,2,0,P|206:320|164:311,1,70,8|0,1:0|0:0,0:0:0:0:
112,253,58572,2,0,L|109:176,1,70,0|0,3:0|0:0,0:0:0:0:
132,147,58837,1,0,0:0:0:0:
132,147,58925,1,8,1:0:0:0:
160,67,59102,1,0,0:0:0:0:
216,130,59278,6,0,P|253:137|304:124,1,70,2|0,3:1|0:0,0:0:0:0:
359,94,59631,2,0,P|392:85|447:100,1,70,8|0,1:0|0:0,0:0:0:0:
397,168,59984,2,0,L|396:249,1,70,2|0,3:1|0:0,0:0:0:0:
424,269,60249,1,0,0:0:0:0:
424,269,60337,1,8,1:0:0:0:
358,322,60514,1,0,0:0:0:0:
277,302,60690,6,0,P|269:261|277:225,1,70,2|0,3:1|0:0,0:0:0:0:
319,162,61043,2,0,P|327:121|319:85,1,70,8|0,1:0|0:0,0:0:0:0:
258,38,61396,2,0,P|222:30|167:42,1,70,0|0,3:0|0:0,0:0:0:0:
118,78,61749,2,0,P|82:86|27:74,1,70,8|0,1:0|0:0,0:0:0:0:
13,189,62102,6,0,B|69:195|69:195|102:178|102:178|163:184,1,140,2|8,3:1|1:0,0:0:0:0:
221,141,62631,1,0,0:0:0:0:
221,141,62808,2,0,L|226:222,1,70,2|0,3:1|0:0,0:0:0:0:
266,284,63161,2,0,L|261:365,1,70,8|0,1:0|0:0,0:0:0:0:
342,328,63514,6,0,P|382:323|428:341,1,70,2|0,3:1|0:0,0:0:0:0:
441,358,63778,1,0,0:0:0:0:
441,358,63867,1,8,1:0:0:0:
475,281,64043,2,0,B|491:232|491:232|451:190|471:127,1,140,0|0,0:0|0:0,0:0:0:0:
486,68,64572,2,0,P|441:67|408:88,1,70,8|0,1:0|0:0,0:0:0:0:
376,150,64925,6,0,P|341:115|369:11,1,140,2|8,3:1|1:0,0:0:0:0:
265,45,65455,1,0,0:0:0:0:
265,45,65631,2,0,B|196:18|196:74|120:42,1,140,2|8,3:1|1:0,0:0:0:0:
49,15,66161,1,0,0:0:0:0:
59,98,66337,6,0,L|61:185,1,70,2|0,3:1|0:0,0:0:0:0:
37,202,66602,1,0,0:0:0:0:
37,202,66690,1,8,1:0:0:0:
116,231,66867,2,0,P|167:219|248:287,1,140,0|0,0:0|0:0,0:0:0:0:
280,335,67396,2,0,P|312:308|321:249,1,70,8|0,1:0|0:0,0:0:0:0:
296,202,67749,5,2,3:1:0:0:
268,122,67925,2,0,L|233:114,2,35,8|0|0,1:0|1:0|1:0,0:0:0:0:
350,137,68278,1,0,3:0:0:0:
322,57,68455,1,10,1:0:0:0:
322,57,68543,1,0,1:0:0:0:
322,57,68631,1,0,1:0:0:0:
405,72,68808,2,0,L|493:90,1,70,8|8,1:0|1:0,0:0:0:0:
350,137,69161,6,0,P|333:202|342:229,1,70,2|0,3:1|0:0,0:0:0:0:
403,248,69514,2,0,P|410:285|402:324,1,70,8|0,1:0|0:0,0:0:0:0:
324,341,69867,2,0,L|249:344,1,70,0|0,3:0|0:0,0:0:0:0:
216,326,70131,1,0,0:0:0:0:
216,326,70219,1,8,1:0:0:0:
145,279,70396,1,0,0:0:0:0:
219,240,70572,6,0,P|231:192|198:121,1,105,2|0,3:1|0:0,0:0:0:0:
190,105,70925,2,0,P|166:64|167:18,1,70,8|0,1:0|0:0,0:0:0:0:
247,44,71278,2,0,B|289:59|289:59|369:38,1,105,2|0,3:1|0:0,0:0:0:0:
384,64,71631,2,0,P|389:116|365:155,1,70,8|0,1:0|0:0,0:0:0:0:
316,183,71984,6,0,P|311:235|335:274,1,70,2|0,3:1|0:0,0:0:0:0:
380,306,72337,2,0,P|388:348|371:395,1,70,8|0,1:0|0:0,0:0:0:0:
303,344,72690,2,0,P|263:337|226:350,1,70,0|0,3:0|0:0,0:0:0:0:
156,374,73043,2,0,P|115:381|72:366,1,70,8|0,1:0|0:0,0:0:0:0:
121,267,73396,6,0,B|122:220|122:220|135:189|135:189|133:125,1,140,2|8,3:1|1:0,0:0:0:0:
105,50,73925,1,0,0:0:0:0:
105,50,74102,2,0,L|174:55,1,70,2|0,3:1|0:0,0:0:0:0:
236,111,74455,2,0,L|305:106,1,70,8|0,1:0|0:0,0:0:0:0:
364,45,74808,6,0,P|416:45|446:63,1,70,2|0,3:1|0:0,0:0:0:0:
496,106,75161,1,8,1:0:0:0:
417,134,75337,2,0,B|416:173|416:173|456:217|427:288,1,140,0|0,0:0|0:0,0:0:0:0:
494,326,75867,2,0,P|457:350|415:345,1,70,8|0,1:0|0:0,0:0:0:0:
359,309,76219,6,0,P|312:254|228:257,1,140,2|8,3:1|0:1,0:0:0:0:
168,277,76749,1,0,0:0:0:0:
107,219,76925,2,0,P|100:179|117:134,1,70,2|0,3:1|0:0,0:0:0:0:
132,117,77190,1,0,0:0:0:0:
132,117,77278,1,8,1:0:0:0:
104,37,77455,1,0,0:0:0:0:
208,81,77631,6,0,L|284:79,1,70,14|0,3:1|3:1,0:0:0:0:
328,146,77984,1,0,3:1:0:0:
284,217,78161,2,0,L|208:219,1,70,12|0,3:1|3:1,0:0:0:0:
170,290,78514,1,0,3:1:0:0:
228,349,78690,2,0,L|297:347,1,70,14|0,3:1|3:1,0:0:0:0:
347,279,79043,6,0,L|395:284,3,35,14|0|0|0,3:1|1:0|1:0|1:0,0:0:0:0:
419,302,79396,2,0,L|467:297,3,35,0|0|0|0,3:0|1:0|3:0|1:0,0:0:0:0:
484,269,79749,2,0,P|498:212|473:162,2,105,8|8|8,3:1|3:1|3:1,0:0:0:0:
381,282,80455,6,0,P|352:234|363:172,1,112,2|0,0:0|0:0,0:0:0:0:
417,128,80984,1,0,0:0:0:0:
417,128,81161,2,0,P|422:93|407:52,1,56,2|0,0:0|0:0,0:0:0:0:
342,97,81514,2,0,P|303:99|276:88,1,56,0|0,0:0|0:0,0:0:0:0:
223,47,81867,6,0,L|143:57,1,56,2|0,0:0|0:0,0:0:0:0:
130,122,82219,2,0,L|210:132,1,56,0|0,0:0|0:0,0:0:0:0:
224,198,82572,2,0,L|144:208,1,56,0|0,0:0|0:0,0:0:0:0:
132,274,82925,2,0,L|212:284,1,56,0|0,0:0|0:0,0:0:0:0:
251,346,83278,6,0,B|310:369|310:330|369:354,1,112,2|0,0:0|0:0,0:0:0:0:
434,322,83808,1,0,0:0:0:0:
434,322,83984,2,0,P|441:290|433:253,1,56,2|0,0:0|0:0,0:0:0:0:
472,196,84337,2,0,P|446:188|412:190,1,56,0|0,0:0|0:0,0:0:0:0:
345,157,84690,6,0,L|341:92,1,56,2|0,0:0|0:0,0:0:0:0:
264,117,85043,2,0,L|260:52,1,56,0|0,0:0|0:0,0:0:0:0:
182,49,85396,2,0,L|178:114,1,56,0|0,0:0|0:0,0:0:0:0:
101,89,85749,2,0,L|97:154,1,56,0|0,0:0|0:0,0:0:0:0:
30,186,86102,6,0,P|17:245|56:297,1,112,2|0,0:0|0:0,0:0:0:0:
98,232,86631,1,0,0:0:0:0:
98,232,86808,2,0,L|156:241,1,56,0|0,0:0|0:0,0:0:0:0:
212,188,87161,2,0,P|230:220|227:260,1,56,0|0,0:0|0:0,0:0:0:0:
191,309,87514,6,0,B|253:332|253:297|326:321,1,112,2|0,0:0|0:0,0:0:0:0:
347,377,88043,1,0,0:0:0:0:
423,361,88219,1,0,0:0:0:0:
488,317,88396,2,0,P|500:350|496:380,2,56,0|0|0,0:0|0:0|0:0,0:0:0:0:
419,277,88925,6,0,B|402:225|402:225|416:161,1,112,2|0,0:0|0:0,0:0:0:0:
464,107,89455,1,0,0:0:0:0:
464,107,89631,2,0,P|456:76|432:54,1,56,0|0,0:0|0:0,0:0:0:0:
364,37,89984,2,0,P|335:46|309:80,1,56,0|0,0:0|0:0,0:0:0:0:
323,140,90337,6,0,P|270:161|206:132,1,112,2|0,0:0|0:0,0:0:0:0:
127,100,91075,6,0,P|171:55|197:49,1,83.9999974365235,2|0,0:0|0:0,0:0:0:0:
256,192,91983,12,0,96783,0:0:0:0:
