osu file format v14

[General]
AudioFilename: audio.mp3
AudioLeadIn: 0
PreviewTime: 57778
Countdown: 0
SampleSet: Soft
StackLeniency: 0.7
Mode: 0
LetterboxInBreaks: 0
WidescreenStoryboard: 0

[Editor]
DistanceSpacing: 1
BeatDivisor: 2
GridSize: 4
TimelineZoom: 1.9

[Metadata]
Title:Baby's Tears
TitleUnicode:Baby's Tears
Artist:Riyu Kosaka
ArtistUnicode:小坂りゆ
Creator:Aeril
Version:Flask's Normal
Source:スカイガールズ
Tags:OVA LOVE+HATE HΛL Mayuko Maruyama DDR SuperNOVA2 opening sky girls
BeatmapID:1324410
BeatmapSetID:485723

[Difficulty]
HPDrainRate:4
CircleSize:3.5
OverallDifficulty:4
ApproachRate:5
SliderMultiplier:1.2
SliderTickRate:1

[Events]
//Background and Video events
0,0,"dfjftyjt.png",0,0
Video,2314,"Sky Girls - Opening.avi"
//Break Periods
//Storyboard Layer 0 (Background)
//Storyboard Layer 1 (Fail)
//Storyboard Layer 2 (Pass)
//Storyboard Layer 3 (Foreground)
Sprite,Foreground,Centre,"dfjftyjt.png",320,240 M,0,2808,,320,240 F,0,2808,,0
//Storyboard Sound Samples

[TimingPoints]
4220,352.941176470588,4,2,4,40,1,0
4220,-133.333333333333,4,2,4,40,0,0
11278,-133.333333333333,4,2,4,50,0,0
33867,-100,4,2,4,60,0,0
57867,-100,4,2,4,60,0,1
80455,-133.333333333333,4,2,4,40,0,0
90337,363.636363636364,4,2,4,40,1,0
90700,375,4,2,4,40,1,0
91075,428.571428571429,4,2,4,40,1,0
91503,480,4,2,4,40,1,0
91983,480,4,2,4,40,1,0

[Colours]
Combo1 : 0,223,223
Combo2 : 81,168,255
Combo3 : 11,73,219
Combo4 : 98,255,255

[HitObjects]
68,48,4220,6,0,B|74:140|74:140|57:193,2,135.000005149842,2|0|0,0:0|0:0|0:0,0:0:0:0:
153,75,5631,2,0,B|205:47|248:78|248:78|287:107|329:88,1,180.000006866455,2|0,0:0|0:0,0:0:0:0:
397,140,6690,6,0,L|392:197,1,45.0000017166138
386,229,7043,2,0,B|427:216|427:216|449:262|423:305,2,135.000005149842,2|0|0,0:0|0:0|0:0,0:0:0:0:
256,192,8455,12,4,11278,0:0:0:0:
74,75,11984,6,0,L|86:172,1,90.0000034332277
88,254,12690,2,0,P|162:203|162:114,1,180.000006866455,2|0,0:0|0:0,0:0:0:0:
240,70,13749,2,0,L|293:80,1,45.0000017166138
325,97,14102,6,0,P|392:102|445:48,2,135.000005149842,2|0|0,0:0|0:0|0:0,0:0:0:0:
294,180,15514,2,0,B|265:178|241:199|241:199|201:139|134:151,1,180.000006866455,2|0,0:0|0:0,0:0:0:0:
89,226,16572,1,0,0:0:0:0:
135,302,16925,6,0,P|181:308|222:286,1,90.0000034332277,2|0,0:0|0:0,0:0:0:0:
288,231,17631,2,0,P|334:225|375:247,1,90.0000034332277,2|0,0:0|0:0,0:0:0:0:
405,327,18337,2,0,B|403:256|403:256|420:213|420:213|418:143,2,180.000006866455,2|2|2,0:0|0:0|0:0,0:0:0:0:
63,305,20808,6,0,L|57:250,1,45.0000017166138
63,215,21161,2,0,B|101:185|148:203|148:203|144:150|184:117,1,180.000006866455,2|2,0:0|0:0,0:0:0:0:
267,110,22219,1,0,0:0:0:0:
340,57,22572,6,0,P|354:130|322:182,2,135.000005149842,4|0|0,0:0|0:0|0:0,0:0:0:0:
267,110,23984,2,0,B|184:103|184:103|157:120|157:120|85:113,1,180.000006866455,2|0,0:0|0:0,0:0:0:0:
38,185,25043,1,0,0:0:0:0:
26,274,25396,6,0,P|72:271|110:235,1,90.0000034332277,2|0,0:0|0:0,0:0:0:0:
107,289,25925,2,0,L|242:281,1,135.000005149841,2|0,0:0|0:0,0:0:0:0:
292,355,26808,2,0,P|328:303|287:203,1,180.000006866455,2|2,0:0|0:0,0:0:0:0:
238,127,27867,1,0,0:0:0:0:
307,70,28219,6,0,B|350:52|395:77|395:77|419:57|448:60,1,135.000005149841,2|0,0:0|0:0,0:0:0:0:
464,26,28925,2,0,L|456:128,1,90.0000034332277,2|0,0:0|0:0,0:0:0:0:
503,193,29631,6,0,P|467:207|413:198,1,90.0000034332277,2|0,0:0|0:0,0:0:0:0:
358,268,30337,2,0,P|314:260|247:326,1,135.000005149841,2|0,0:0|0:0,0:0:0:0:
218,347,31043,2,0,L|117:337,1,90.0000034332277
256,192,31572,12,8,33161,0:0:0:0:
48,71,33867,6,0,P|100:50|163:66,2,120,2|0|0,1:2|1:0|1:0,0:0:0:0:
26,189,34925,1,0,1:0:0:0:
100,282,35278,2,0,B|165:301|214:262|214:262|270:219|328:243,1,240,0|0,1:0|1:0,0:0:0:0:
423,312,36337,1,0,1:0:0:0:
475,204,36690,6,0,P|490:156|468:87,1,120,0|0,1:0|1:0,0:0:0:0:
418,61,37219,2,0,P|368:72|320:125,1,120,0|0,1:0|1:0,0:0:0:0:
293,67,37749,2,0,L|280:195,1,120,0|0,1:0|1:0,0:0:0:0:
390,236,38455,1,0,1:0:0:0:
441,344,38808,1,8,1:2:0:0:
321,346,39161,2,0,L|252:342,1,60,0|0,1:0|0:0,0:0:0:0:
203,359,39514,6,0,P|154:366|94:328,1,120,0|0,1:0|1:0,0:0:0:0:
80,272,40043,1,2,0:0:0:0:
80,272,40219,2,0,L|69:143,1,120,0|0,1:0|1:0,0:0:0:0:
132,49,40925,1,0,1:0:0:0:
229,119,41278,1,0,1:0:0:0:
229,119,41455,2,0,P|290:132|381:58,1,180,2|0,0:0|1:0,0:0:0:0:
495,37,42337,6,0,L|492:175,2,120,0|0|0,1:0|1:0|1:0,0:0:0:0:
378,65,43396,1,0,1:0:0:0:
378,65,43572,2,0,B|278:61|278:61|219:137,1,180,2|0,0:0|1:0,0:0:0:0:
225,244,44455,1,8,1:2:0:0:
109,212,44808,2,0,L|47:205,1,60,0|0,1:0|1:0,0:0:0:0:
23,259,45161,6,0,P|62:195|-13:133,2,180,4|2|0,1:2|0:0|1:0,0:0:0:0:
58,373,46572,2,0,B|132:358|132:358|159:368|159:368|245:348,1,180,0|0,1:0|0:0,0:0:0:0:
281,313,47278,2,0,P|296:261|276:199,1,120,8|0,1:2|0:0,0:0:0:0:
219,93,47984,5,0,1:0:0:0:
337,108,48337,1,0,1:0:0:0:
337,108,48514,2,0,L|474:82,1,120,2|0,0:0|0:0,0:0:0:0:
510,107,49043,1,0,1:0:0:0:
463,217,49396,6,0,P|458:271|488:337,2,120,0|0|8,1:0|1:0|1:2,0:0:0:0:
349,176,50455,1,0,1:0:0:0:
372,58,50808,6,0,P|313:61|260:102,1,120,4|0,1:2|1:0,0:0:0:0:
211,122,51337,2,0,L|91:107,1,120,2|0,0:2|0:0,0:0:0:0:
36,130,51867,1,0,1:0:0:0:
97,232,52219,2,0,P|111:291|15:335,1,180,0|0,1:0|0:0,0:0:0:0:
65,374,52925,2,0,L|186:355,1,120,8|0,1:2|1:0,0:0:0:0:
266,268,53631,5,4,1:2:0:0:
372,323,53984,2,0,L|368:386,2,60,0|0|8,0:0|0:0|1:2,0:0:0:0:
433,219,54690,1,0,1:0:0:0:
256,192,55043,12,0,56455,0:0:0:0:
68,74,57514,6,0,L|57:142,1,60,8|0,1:2|0:0,0:0:0:0:
27,185,57867,6,0,P|79:159|142:191,1,120,4|8,1:2|1:2,0:0:0:0:
217,265,58572,2,0,P|271:286|323:260,1,120,0|8,1:0|1:2,0:0:0:0:
362,214,59102,1,0,0:0:0:0:
367,153,59278,2,0,L|354:29,1,120,2|8,1:2|1:2,0:0:0:0:
234,34,59984,2,0,L|247:158,1,120,0|8,1:0|1:2,0:0:0:0:
205,198,60514,1,0,0:0:0:0:
146,185,60690,6,0,P|82:184|32:231,2,120,2|8|0,1:2|1:2|1:0,0:0:0:0:
199,292,61749,1,8,1:2:0:0:
292,216,62102,2,0,L|310:90,1,120,2|8,1:2|1:2,0:0:0:0:
344,48,62631,1,0,0:0:0:0:
344,48,62808,2,0,P|405:31|460:62,1,120,2|8,1:2|1:2,0:0:0:0:
495,167,63514,5,4,1:2:0:0:
439,273,63867,1,8,1:2:0:0:
439,273,64043,2,0,P|374:265|329:368,1,180,2|8,0:0|1:2,0:0:0:0:
256,256,64925,1,2,1:2:0:0:
187,354,65278,1,8,1:2:0:0:
187,354,65454,2,0,P|157:275|73:273,1,180,2|8,0:0|1:2,0:0:0:0:
8,171,66337,6,0,P|-9:112|22:62,1,120,2|8,1:2|0:0,0:0:0:0:
74,40,66867,2,0,P|133:53|159:164,1,180,2|8,1:2|0:0,0:0:0:0:
168,280,67749,1,4,1:2:0:0:
62,337,68102,1,0,1:0:0:0:
62,337,68278,2,0,B|128:328|128:328|168:341|168:341|242:329,1,180,4|4,1:2|1:2,0:0:0:0:
351,371,69161,6,0,P|360:318|330:253,1,120,4|8,1:2|1:2,0:0:0:0:
438,197,69867,2,0,P|429:144|459:79,1,120,2|8,1:2|1:2,0:0:0:0:
490,36,70396,1,0,0:0:0:0:
490,36,70572,2,0,L|368:25,1,120,2|8,1:2|1:2,0:0:0:0:
279,104,71278,2,0,L|157:93,1,120,2|8,1:2|1:2,0:0:0:0:
66,169,71984,6,0,P|42:122|51:48,2,120,2|8|2,1:2|1:2|1:2,0:0:0:0:
51,288,73043,1,8,1:2:0:0:
137,371,73396,2,0,B|262:359|262:359,1,120,2|8,1:2|0:0,0:0:0:0:
308,329,73925,1,0,0:0:0:0:
308,329,74102,2,0,P|324:270|303:212,1,120,0|8,1:2|1:2,0:0:0:0:
186,230,74808,6,0,P|132:226|93:178,1,120,0|8,0:0|0:0,0:0:0:0:
86,117,75337,2,0,B|111:65|167:54|211:77|211:77|247:59,1,180,0|8,0:0|0:0,0:0:0:0:
361,31,76219,2,0,P|417:20|470:54,1,120,2|8,1:2|1:2,0:0:0:0:
502,167,76925,1,2,1:2:0:0:
435,266,77278,2,0,L|374:260,1,60,8|0,1:2|0:0,0:0:0:0:
315,251,77631,6,0,P|280:287|290:362,1,120,4|8,1:2|1:2,0:0:0:0:
225,370,78161,2,0,P|211:321|141:292,1,120,4|0,1:2|1:2,0:0:0:0:
93,304,78690,1,8,1:2:0:0:
55,189,79043,6,0,L|-8:197,2,60,4|0|8,1:2|0:0|1:2,0:0:0:0:
71,131,79572,1,0,1:0:0:0:
86,72,79749,2,0,L|112:-32,2,90,4|4|4,1:2|1:2|1:2,0:0:0:0:
71,131,80455,6,0,B|48:200|108:247|108:247|66:322|121:378,1,270.000010299683,2|0,0:0|0:0,0:0:0:0:
205,352,81867,2,0,B|252:335|296:362|296:362|334:331|380:349|380:349|392:298|435:284,1,270.000010299683,2|0,0:0|0:0,0:0:0:0:
469,367,83278,2,0,P|521:290|394:202,1,270.000010299683,2|0,0:0|0:0,0:0:0:0:
324,236,84690,2,0,B|236:236|236:236|208:272|208:272|176:236|176:236|76:236,1,270.000010299683,2|0,0:0|0:0,0:0:0:0:
59,321,86102,6,0,B|5:312|-30:249|-6:186|30:163|30:163|15:128|27:95,1,270.000010299683,2|0,0:0|0:0,0:0:0:0:
114,114,87514,2,0,B|122:73|107:43|107:43|169:46|209:101|209:101|248:87|283:105,1,270.000010299683,2|0,0:0|0:0,0:0:0:0:
327,182,88925,2,0,B|367:156|381:101|355:61|355:61|412:100|499:82,1,270.000010299683,2|0,0:0|0:0,0:0:0:0:
256,192,90337,12,0,91983,0:0:0:0:
