osu file format v14

[General]
AudioFilename: audio.mp3
AudioLeadIn: 0
PreviewTime: 57778
Countdown: 0
SampleSet: Soft
StackLeniency: 0.7
Mode: 0
LetterboxInBreaks: 0
WidescreenStoryboard: 0

[Editor]
DistanceSpacing: 1.2
BeatDivisor: 4
GridSize: 4
TimelineZoom: 1.900001

[Metadata]
Title:Baby's Tears
TitleUnicode:Baby's Tears
Artist:Riyu Kosaka
ArtistUnicode:小坂りゆ
Creator:Aeril
Version:Easy
Source:スカイガールズ
Tags:OVA LOVE+HATE HΛL Mayuko Maruyama DDR SuperNOVA2 opening sky girls
BeatmapID:1124421
BeatmapSetID:485723

[Difficulty]
HPDrainRate:2
CircleSize:3
OverallDifficulty:2
ApproachRate:3
SliderMultiplier:0.8
SliderTickRate:1

[Events]
//Background and Video events
0,0,"dfjftyjt.png",0,0
Video,2314,"Sky Girls - Opening.avi"
//Break Periods
//Storyboard Layer 0 (Background)
//Storyboard Layer 1 (Fail)
//Storyboard Layer 2 (Pass)
//Storyboard Layer 3 (Foreground)
Sprite,Foreground,Centre,"dfjftyjt.png",320,240 M,0,2808,,320,240 F,0,2808,,0
//Storyboard Sound Samples

[TimingPoints]
4220,352.941176470588,4,2,1,30,1,0
4220,-100,4,2,1,30,0,0
11278,-100,4,2,1,40,0,0
22572,-100,4,2,1,40,0,0
33867,-100,4,2,1,50,0,0
55043,-100,4,1,1,50,0,0
57161,-100,4,2,1,20,0,0
57514,-100,4,2,1,40,0,0
57867,-100,4,2,2,60,0,1
77631,-100,4,2,2,50,0,1
80455,-100,4,2,1,40,0,0
90337,363.636363636364,4,2,1,40,1,0
90337,-115.273775216138,4,2,1,40,0,0
90700,375,4,2,1,40,1,0
91075,428.571428571429,4,2,1,40,1,0
91503,480,4,2,1,40,1,0
91983,480,4,2,1,40,1,0
96783,-100,4,2,1,5,0,0

[Colours]
Combo1 : 0,223,223
Combo2 : 81,168,255
Combo3 : 11,73,219
Combo4 : 98,255,255

[HitObjects]
110,72,4220,6,0,P|92:136|120:194,2,120,2|0|0,0:0|0:0|0:0,0:0:0:0:
189,125,5631,1,2,0:0:0:0:
402,72,7043,6,0,P|420:136|392:194,2,120,2|0|0,0:0|0:0|0:0,0:0:0:0:
323,125,8455,1,2,0:0:0:0:
310,47,11278,6,0,P|261:55|217:46,1,80,4|0,0:0|0:0,0:0:0:0:
139,21,11984,2,0,P|90:13|46:22,1,80,0|0,0:0|0:0,0:0:0:0:
37,110,12690,2,0,L|46:277,1,160,2|0,0:0|0:0,0:0:0:0:
231,219,14102,6,0,B|228:145|228:145|257:99,2,120,4|0|0,0:0|0:0|0:0,0:0:0:0:
229,316,15514,2,0,B|300:301|300:355|396:335,1,160,2|4,0:0|0:0,0:0:0:0:
458,159,16925,6,0,L|455:67,1,80,4|2,0:0|0:0,0:0:0:0:
366,41,17631,2,0,L|369:133,1,80,0|0,0:0|0:0,0:0:0:0:
372,217,18337,1,2,0:0:0:0:
235,82,19043,1,2,0:0:0:0:
67,175,19749,6,0,B|124:184|124:184|152:219|152:219|223:230,1,160,4|2,0:0|0:0,0:0:0:0:
346,362,21161,5,2,0:0:0:0:
492,238,21867,1,0,0:0:0:0:
409,66,22572,6,0,P|353:23|282:138,1,240,6|0,0:1|0:0,0:0:0:0:
198,186,23984,2,0,B|119:171|119:171|51:225,1,160,0|2,0:0|0:0,0:0:0:0:
30,313,25043,1,0,0:0:0:0:
124,294,25396,6,0,B|160:312|200:294|200:294|243:309|243:309|303:270|368:310,1,240
427,362,26808,2,0,L|449:189,1,160,0|2,0:0|0:0,0:0:0:0:
457,107,27867,1,0,0:0:0:0:
369,144,28219,6,0,P|309:142|226:69,1,160,0|2,0:0|0:0,0:0:0:0:
49,141,29631,2,0,L|29:52,2,80,0|0|2,3:0|0:0|3:2,0:0:0:0:
138,180,30690,1,0,0:0:0:0:
96,266,31043,6,0,B|174:302|174:239|264:278,1,160,0|2,3:0|3:2,0:0:0:0:
433,335,32455,2,0,B|446:300|446:300|440:244,1,80,0|0,3:0|1:0,0:0:0:0:
384,179,33161,1,14,1:1:0:0:
289,11,33867,6,0,B|260:91|321:91|284:180,1,160,4|0,3:1|3:0,0:0:0:0:
203,210,34925,1,0,1:0:0:0:
120,161,35278,2,0,L|112:252,1,80,0|0,3:0|1:0,0:0:0:0:
40,304,35984,2,0,P|67:324|120:332,1,80,2|0,3:2|1:0,0:0:0:0:
204,308,36690,6,0,B|251:308|278:275|278:275|280:315|322:351,1,160,0|0,3:0|3:0,0:0:0:0:
406,358,37749,1,0,1:0:0:0:
373,269,38102,1,0,3:0:0:0:
473,165,38631,2,0,B|502:101|502:101|491:41,1,120,2|0,0:0|1:0,0:0:0:0:
402,23,39514,6,0,P|349:7|236:34,1,160,2|0,3:2|3:0,0:0:0:0:
159,63,40572,1,0,1:0:0:0:
234,122,40925,2,0,B|282:133|282:133|357:108,1,120,0|2,3:0|0:0,0:0:0:0:
487,149,41984,1,0,1:0:0:0:
469,243,42337,6,0,P|404:286|328:272,1,160,0|0,3:0|3:0,0:0:0:0:
256,209,43396,1,0,1:0:0:0:
183,272,43749,2,0,P|107:287|43:244,1,160,2|0,3:2|3:0,0:0:0:0:
127,195,44808,1,2,1:2:0:0:
45,145,45161,6,0,L|37:26,2,120,4|2|0,3:1|0:0|1:0,0:0:0:0:
131,101,46572,2,0,B|196:79|196:79|244:96,1,120,0|2,3:0|0:0,0:0:0:0:
316,221,47631,1,0,1:0:0:0:
385,155,47984,6,0,P|423:140|508:153,2,120,0|2|0,3:0|0:0|1:0,0:0:0:0:
292,127,49396,2,0,P|244:162|133:179,1,160,0|2,3:0|3:1,0:0:0:0:
64,130,50455,1,0,1:0:0:0:
33,221,50808,6,0,B|35:283|35:283|-9:342,2,120,0|2|0,3:0|0:0|1:0,0:0:0:0:
126,245,52219,2,0,P|174:255|248:221,1,120,0|2,3:0|0:0,0:0:0:0:
348,135,53278,1,0,1:0:0:0:
396,217,53631,6,8,L|403:344,2,120,4|2|0,3:1|0:0|1:2,0:0:0:0:
256,192,55043,12,2,56455,1:2:0:0:
78,62,57867,6,0,P|72:99|90:154,2,80,6|8|0,3:1|1:0|3:0,0:0:0:0:
167,97,58925,1,8,1:0:0:0:
251,51,59278,2,0,L|342:44,2,80,2|8|2,3:1|1:0|3:1,0:0:0:0:
249,147,60337,1,8,1:0:0:0:
167,197,60690,6,0,P|161:237|172:289,1,80,2|8,3:1|1:0,0:0:0:0:
236,342,61396,2,0,P|275:348|314:342,1,80,0|8,3:0|1:0,0:0:0:0:
408,362,62102,2,0,B|409:309|409:309|433:272|433:272|434:197,1,160,2|2,3:1|3:1,0:0:0:0:
409,116,63161,1,8,1:0:0:0:
357,34,63514,6,0,B|418:17|418:17|481:31,2,120,2|0|8,3:1|0:0|1:0,0:0:0:0:
260,33,64925,2,0,P|244:59|256:150,1,120,2|0,3:1|0:0,0:0:0:0:
302,279,65984,1,8,1:0:0:0:
217,232,66337,6,0,L|92:243,2,120,2|0|8,3:1|0:0|1:0,0:0:0:0:
252,144,67749,2,0,B|311:141|311:141|368:184,1,120,2|0,3:1|3:0,0:0:0:0:
305,311,68808,1,8,1:0:0:0:
209,323,69161,6,0,L|116:331,2,80,2|8|0,3:1|1:0|3:0,0:0:0:0:
220,227,70219,1,8,1:0:0:0:
138,177,70572,2,0,P|130:136|146:87,1,80,2|8,3:1|1:0,0:0:0:0:
226,59,71278,2,0,P|234:97|226:136,1,80,2|8,3:1|0:1,0:0:0:0:
300,199,71984,6,0,B|297:240|297:240|313:291,2,80,2|8|0,3:1|1:0|3:0,0:0:0:0:
328,107,73043,1,8,1:0:0:0:
424,106,73396,2,0,B|423:163|423:163|449:200|449:200|447:273,1,160,2|2,3:1|3:1,0:0:0:0:
376,322,74455,1,8,1:0:0:0:
296,376,74808,6,0,P|243:355|209:294,1,120,2|0,3:1|0:0,0:0:0:0:
255,166,75867,1,8,1:0:0:0:
172,214,76219,2,0,P|121:234|81:236,1,80,2|8,3:1|1:0,0:0:0:0:
0,239,76925,1,2,3:1:0:0:
42,152,77278,1,8,1:0:0:0:
126,105,77631,6,0,B|85:63|85:63|19:56,2,120,14|12|14,3:1|3:1|3:1,0:0:0:0:
208,109,79043,2,0,B|267:112|267:112|303:138|303:138|377:144,1,160,14|8,3:1|3:1,0:0:0:0:
446,315,80455,6,0,P|417:333|292:336,2,160,2|2|2,0:0|0:0|0:0,0:0:0:0:
66,315,83278,6,0,P|95:333|220:336,2,160,2|2|2,0:0|0:0|0:0,0:0:0:0:
256,28,86102,5,2,0:0:0:0:
158,201,87514,1,2,0:0:0:0:
354,201,88925,1,2,0:0:0:0:
256,192,90337,12,0,91983,0:0:0:0:
