osu file format v14

[General]
AudioFilename: audio.mp3
AudioLeadIn: 0
PreviewTime: 64452
Countdown: 0
SampleSet: Soft
StackLeniency: 0.7
Mode: 0
LetterboxInBreaks: 0
WidescreenStoryboard: 1

[Editor]
Bookmarks: 77223,83052,85109,96081,98823
DistanceSpacing: 1.1
BeatDivisor: 4
GridSize: 4
TimelineZoom: 2.2

[Metadata]
Title:Intruder
TitleUnicode:Intruder
Artist:Riya
ArtistUnicode:Riya
Creator:Yumerios
Version:Insane
Source:
Tags:fa Featured Artist mpg mapper's mappers guild mg Electronic Instrumental edm dance music techcore hardcore 440hz RAVON Milky Way Stage 7
BeatmapID:3500459
BeatmapSetID:1712971

[Difficulty]
HPDrainRate:5
CircleSize:4
OverallDifficulty:8
ApproachRate:9
SliderMultiplier:1.5
SliderTickRate:1

[Events]
//Background and Video events
0,0,"bg.jpg",0,0
//Break Periods
//Storyboard Layer 0 (Background)
//Storyboard Layer 1 (Fail)
//Storyboard Layer 2 (Pass)
//Storyboard Layer 3 (Foreground)
//Storyboard Layer 4 (Overlay)
//Storyboard Sound Samples

[TimingPoints]
81,342.857142857143,4,2,1,60,1,0
81,-125,4,2,1,60,0,0
10538,-76.9230769230769,4,2,1,70,0,0
11052,-66.6666666666667,4,2,1,70,0,0
11395,-100,4,2,1,70,0,0
11738,-66.6666666666667,4,2,1,70,0,0
12081,-100,4,2,1,70,0,0
13795,-66.6666666666667,4,2,1,70,0,0
14823,-100,4,2,1,70,0,0
16538,-66.6666666666667,4,2,1,70,0,0
17566,-100,4,2,1,70,0,0
19281,-66.6666666666667,4,2,1,70,0,0
20652,-100,4,2,1,70,0,0
22023,-83.3333333333333,4,2,1,70,0,0
27509,-100,4,2,1,60,0,0
31623,-142.857142857143,4,2,1,60,0,0
32652,-71.4285714285714,4,2,1,70,0,0
32995,-200,4,2,1,50,0,0
42595,-125,4,2,1,60,0,0
43966,-100,4,2,1,70,0,0
59052,-142.857142857143,4,2,1,70,0,0
61795,-142.857142857143,4,2,1,60,0,0
64538,-250.000000000001,4,2,1,50,0,0
65395,-250.000000000001,4,2,1,70,0,0
65909,-50,4,2,1,80,0,1
66595,-66.6666666666667,4,2,1,80,0,1
66938,-100,4,2,1,80,0,1
67281,-66.6666666666667,4,2,1,80,0,1
68309,-100,4,2,1,80,0,1
68652,-50,4,2,1,80,0,1
69338,-66.6666666666667,4,2,1,80,0,1
69681,-100,4,2,1,80,0,1
70023,-66.6666666666667,4,2,1,80,0,1
71052,-66.6666666666667,4,2,1,80,0,1
71395,-50,4,2,1,80,0,1
72081,-66.6666666666667,4,2,1,80,0,1
72423,-100,4,2,1,80,0,1
72766,-66.6666666666667,4,2,1,80,0,1
73452,-100,4,2,1,80,0,1
74138,-66.6666666666667,4,2,1,80,0,1
74481,-100,4,2,1,80,0,1
75166,-125,4,2,1,80,0,1
75509,-125,4,2,1,80,0,0
76366,-76.9230769230769,4,2,1,80,0,1
76881,-50,4,2,1,80,0,1
77566,-66.6666666666667,4,2,1,80,0,1
77909,-100,4,2,1,80,0,1
78252,-66.6666666666667,4,2,1,80,0,1
79281,-100,4,2,1,80,0,1
79623,-50,4,2,1,80,0,1
80309,-66.6666666666667,4,2,1,80,0,1
80652,-100,4,2,1,80,0,1
80995,-66.6666666666667,4,2,1,80,0,1
82023,-66.6666666666667,4,2,1,80,0,1
82366,-50,4,2,1,80,0,1
83052,-66.6666666666667,4,2,1,80,0,1
83395,-100,4,2,1,80,0,1
83738,-66.6666666666667,4,2,1,80,0,1
84423,-100,4,2,1,80,0,1
85109,-66.6666666666667,4,2,1,80,0,1
85452,-100,4,2,1,80,0,1
86138,-125,4,2,1,80,0,1
86481,-125,4,2,1,80,0,0
87338,-76.9230769230769,4,2,1,80,0,1
87852,-50,4,2,1,80,0,1
88452,-66.6666666666667,4,2,1,80,0,1
89223,-50,4,2,1,80,0,1
89995,-66.6666666666667,4,2,1,80,0,1
90595,-50,4,2,1,80,0,1
91195,-66.6666666666667,4,2,1,80,0,1
91966,-50,4,2,1,80,0,1
92481,-83.3333333333333,4,2,1,80,0,1
92738,-66.6666666666667,4,2,1,80,0,1
93338,-50,4,2,1,80,0,1
93938,-66.6666666666667,4,2,1,80,0,1
94709,-50,4,2,1,80,0,1
95481,-66.6666666666667,4,2,1,80,0,1
96081,-50,4,2,1,80,0,1
96681,-66.6666666666667,4,2,1,80,0,1
97452,-50,4,2,1,80,0,1
97966,-76.9230769230769,4,2,1,80,0,1
98223,-66.6666666666667,4,2,1,80,0,1
98481,-50,4,2,1,80,0,1
99081,-66.6666666666667,4,2,1,80,0,1
99852,-50,4,2,1,80,0,1
100624,-66.6666666666667,4,2,1,80,0,1
101566,-50,4,2,1,80,0,1
102166,-66.6666666666667,4,2,1,80,0,1
102937,-50,4,2,1,80,0,1
103452,-76.9230769230769,4,2,1,80,0,1
104309,-66.6666666666667,4,2,1,70,0,0
104652,-100,4,2,1,70,0,0
104995,-100,4,2,1,70,0,0
105681,-66.6666666666667,4,2,1,70,0,0
107052,-100,4,2,1,70,0,0
108423,-142.857142857143,4,2,1,60,0,0
109281,-66.6666666666667,4,2,1,80,0,0
109795,-66.6666666666667,4,2,1,60,0,0

[Colours]
Combo1 : 53,53,255
Combo2 : 255,128,255
Combo3 : 255,148,96
Combo4 : 163,82,82

[HitObjects]
41,233,81,6,0,L|24:162,1,60,0|0,1:2|0:2,0:2:0:0:
109,213,423,2,0,L|92:142,1,60,0|0,1:2|0:2,0:2:0:0:
160,105,766,2,0,L|187:221,1,120,0|0,1:2|1:2,0:2:0:0:
250,288,1281,1,0,0:2:0:0:
250,288,1366,1,0,0:2:0:0:
250,288,1452,6,0,P|208:302|184:310,1,60,0|0,1:2|0:2,0:2:0:0:
274,357,1795,2,0,P|232:371|208:379,1,60,0|0,1:2|0:2,0:2:0:0:
323,301,2138,2,0,L|326:257,2,30,2|2|2,1:2|0:2|0:2,0:2:0:0:
384,362,2481,2,0,L|469:341,1,60,2|2,1:2|0:2,0:2:0:0:
483,332,2738,1,2,0:2:0:0:
483,332,2823,6,0,B|500:296|480:264|470:273|444:245|459:206,1,120,2|0,1:2|1:2,0:2:0:0:
496,157,3338,1,0,0:2:0:0:
404,96,3509,2,0,L|420:161,1,60,0|0,1:2|0:2,0:2:0:0:
335,116,3852,2,0,L|351:181,1,60,0|0,1:2|0:2,0:2:0:0:
322,209,4109,1,0,0:2:0:0:
322,209,4195,6,0,P|275:200|246:195,1,60,0|0,1:2|0:2,0:2:0:0:
207,137,4538,2,0,P|160:146|131:151,1,60,0|0,1:2|0:2,0:2:0:0:
51,96,4881,2,0,P|103:123|103:203,1,120,0|0,1:2|1:2,0:2:0:0:
27,230,5395,1,0,0:2:0:0:
27,230,5481,1,0,0:2:0:0:
27,230,5566,6,0,L|37:165,1,60,0|0,1:2|0:2,0:2:0:0:
100,268,5909,2,0,L|110:333,1,60,0|0,1:2|0:2,0:2:0:0:
154,203,6252,2,0,P|185:183|262:201,1,120,0|0,1:2|1:2,0:2:0:0:
326,277,6766,1,0,0:2:0:0:
326,277,6852,1,0,0:2:0:0:
326,277,6938,6,0,B|401:268|358:223|446:211,1,120,0|0,1:2|1:2,0:2:0:0:
498,259,7452,1,0,0:2:0:0:
357,155,7623,2,0,L|342:96,1,60,0|0,1:2|0:2,0:2:0:0:
425,0,7966,2,0,L|421:40,3,30,2|2|2|2,1:2|0:2|0:2|0:2,0:0:0:0:
416,63,8309,6,0,P|378:17|315:21,1,120,2|0,1:2|1:2,0:2:0:0:
237,103,8823,2,0,P|204:114|174:106,1,60,2|0,0:2|1:2,0:2:0:0:
173,5,9166,2,0,P|206:-6|236:2,1,60,2|0,0:2|1:2,0:2:0:0:
103,63,9509,1,2,0:2:0:0:
103,63,9681,6,0,P|63:27|-5:30,2,120,0|0|0,1:2|0:2|0:2,0:2:0:0:
25,124,10538,5,0,3:2:0:0:
25,124,10709,6,0,B|63:117|98:156|79:160|108:206|166:182,1,146.249993305207,12|0,3:2|0:2,0:2:0:0:
156,114,11052,6,0,P|74:139|18:208,1,168.750006437302,6|0,3:2|0:2,0:2:0:0:
78,250,11395,2,0,L|90:301,3,37.5,8|0|0|0,0:2|0:2|0:2|0:2,0:0:0:0:
0,333,11738,6,0,B|11:289|67:286|67:286|81:341|154:344,1,168.750006437302,2|0,3:2|0:2,0:2:0:0:
167,278,12081,2,0,P|213:252|247:266,1,75,8|0,0:2|0:2,0:2:0:0:
264,286,12338,1,0,0:2:0:0:
264,286,12423,6,0,P|317:307|346:293,1,75,0|0,3:2|0:0,0:2:0:0:
441,225,12766,1,8,0:2:0:0:
441,225,12938,1,0,0:2:0:0:
341,159,13109,2,0,L|349:212,3,37.5,2|2|2|2,3:2|0:2|0:2|0:2,0:0:0:0:
349,221,13452,1,10,0:2:0:0:
449,115,13623,1,2,0:2:0:0:
449,115,13709,1,2,0:2:0:0:
449,115,13795,6,0,B|339:92|412:44|277:22,1,168.750006437302,2|0,3:2|0:2,0:2:0:0:
253,82,14138,1,8,0:2:0:0:
253,82,14309,1,0,0:2:0:0:
120,27,14481,6,0,B|86:-11|217:-34|167:103|101:147,1,168.750006437302,2|0,3:2|0:2,0:2:0:0:
65,133,14823,2,0,P|45:179|52:206,1,75,8|0,0:2|0:2,0:2:0:0:
78,237,15081,1,0,0:2:0:0:
78,237,15166,6,0,L|183:231,1,75,0|0,3:2|0:2,0:2:0:0:
235,186,15509,1,8,0:2:0:0:
276,327,15681,2,0,L|330:338,3,37.5,0|0|0|0,0:2|0:2|3:2|0:2,0:2:0:0:
349,342,16023,1,0,0:2:0:0:
204,368,16195,1,8,0:2:0:0:
300,253,16366,1,0,0:2:0:0:
300,253,16451,1,0,0:2:0:0:
300,253,16538,6,0,P|312:185|373:75,1,168.750006437302,2|0,3:2|0:2,0:2:0:0:
420,52,16881,1,8,0:2:0:0:
420,52,17052,1,0,0:2:0:0:
264,85,17223,6,0,B|332:114|332:114|338:139|338:139|432:176,1,168.750006437302,2|0,3:2|0:2,0:2:0:0:
461,208,17566,2,0,P|407:221|386:252,1,75,8|2,0:2|0:2,0:2:0:0:
376,278,17823,1,2,0:2:0:0:
376,278,17909,5,2,3:2:0:0:
459,289,18081,1,2,0:2:0:0:
305,358,18252,2,0,L|288:274,1,75,10|2,0:2|0:2,0:2:0:0:
282,247,18509,1,2,0:2:0:0:
282,247,18595,5,2,3:2:0:0:
167,151,18767,1,2,0:2:0:0:
83,266,18938,2,0,L|90:316,3,37.5,10|2|2|2,0:2|0:2|0:2|0:2,0:0:0:0:
89,344,19281,6,0,B|36:318|36:318|225:299,1,225.000008583069,2|8,3:2|0:2,0:2:0:0:
355,371,19795,1,2,0:2:0:0:
355,371,19880,1,2,0:2:0:0:
355,371,19966,6,0,B|368:323|329:291|314:301|274:268|298:207,1,168.750006437302,2|0,3:2|0:0,0:2:0:0:
321,201,20309,1,10,0:2:0:0:
272,362,20481,1,2,0:2:0:0:
272,362,20566,1,2,0:2:0:0:
272,362,20652,2,0,P|230:377|191:353,2,75,2|2|10,3:2|0:2|0:2,0:2:0:0:
442,324,21166,1,2,0:2:0:0:
442,324,21252,1,2,0:2:0:0:
442,324,21338,2,0,P|451:271|465:234,1,75,2|2,3:2|0:2,0:0:0:0:
364,128,21681,1,10,0:2:0:0:
459,69,21852,5,2,0:2:0:0:
459,69,21938,1,2,0:2:0:0:
459,69,22023,2,0,L|447:173,2,89.9999972534181,14|2|10,3:2|0:2|0:2,0:2:0:0:
330,133,22538,1,2,0:2:0:0:
330,133,22624,1,2,0:2:0:0:
330,133,22709,2,0,L|342:237,2,89.9999972534181,10|2|10,3:2|0:2|0:2,0:2:0:0:
204,72,23223,1,2,0:2:0:0:
204,72,23309,1,2,0:2:0:0:
204,72,23394,2,0,L|192:176,2,89.9999972534181,10|2|10,3:2|0:2|0:2,0:2:0:0:
65,138,23909,5,2,0:2:0:0:
65,138,23995,1,2,0:2:0:0:
65,138,24081,2,0,L|77:242,1,89.9999972534181,10|2,3:2|0:2,0:2:0:0:
13,322,24423,1,10,0:2:0:0:
161,225,24595,1,2,0:2:0:0:
161,225,24681,1,2,0:2:0:0:
161,225,24766,6,0,L|144:297,1,44.999998626709,8|2,3:2|0:2,0:2:0:0:
125,342,24938,1,2,0:2:0:0:
245,255,25109,1,8,0:2:0:0:
341,370,25281,5,2,0:2:0:0:
341,370,25366,1,2,0:2:0:0:
341,370,25452,2,0,L|443:351,2,89.9999972534181,10|2|10,3:2|0:2|0:2,0:2:0:0:
412,263,25966,1,2,0:2:0:0:
412,263,26051,1,2,0:2:0:0:
412,263,26137,2,0,L|514:282,2,89.9999972534181,10|2|10,3:2|0:2|0:2,0:2:0:0:
319,157,26652,5,2,0:2:0:0:
321,174,26737,1,2,0:2:0:0:
323,190,26823,1,10,3:2:0:0:
461,147,26995,1,2,0:2:0:0:
459,130,27080,1,2,0:2:0:0:
457,111,27166,6,0,P|383:83|335:74,1,89.9999972534181,8|0,0:2|0:2,0:2:0:0:
203,18,27509,5,10,0:2:0:0:
302,119,27681,1,10,0:2:0:0:
145,173,27852,1,8,0:2:0:0:
211,101,28023,1,10,0:2:0:0:
307,219,28195,6,0,P|299:271|292:311,1,75,10|10,0:2|0:2,0:2:0:0:
159,373,28538,2,0,P|152:336|147:298,1,75,8|10,0:2|0:2,0:2:0:0:
214,220,28881,5,10,0:2:0:0:
214,220,29052,1,10,0:2:0:0:
117,114,29223,1,8,0:2:0:0:
117,114,29395,1,10,0:2:0:0:
50,194,29566,6,0,P|93:191|122:221,1,75,10|10,0:2|0:2,0:2:0:0:
191,298,29909,2,0,P|234:301|263:271,1,75,8|10,0:2|0:2,0:2:0:0:
288,186,30252,5,10,0:2:0:0:
312,170,30337,1,8,0:2:0:0:
343,169,30423,1,10,0:2:0:0:
371,181,30509,1,8,0:2:0:0:
389,203,30594,1,8,0:2:0:0:
408,226,30681,1,8,0:2:0:0:
436,238,30767,1,10,0:2:0:0:
466,237,30853,1,10,0:2:0:0:
491,221,30938,2,0,L|485:172,3,37.5,10|8|10|8,0:2|0:2|0:2|0:2,0:2:0:0:
431,126,31281,2,0,L|437:77,3,37.5,8|8|10|10,0:2|0:2|0:2|0:2,0:2:0:0:
376,19,31623,6,0,P|339:37|313:39,1,52.4999983978272,2|0,3:2|0:2,0:2:0:0:
264,128,31966,6,0,P|276:153|280:166,1,34.9999989318848,0|0,0:2|0:2,0:2:0:0:
288,186,32138,2,0,P|276:211|272:224,1,34.9999989318848,0|0,0:2|0:2,0:2:0:0:
263,266,32309,1,0,0:2:0:0:
351,229,32481,1,0,0:2:0:0:
289,384,32652,6,0,P|263:376|228:371,1,52.4999983978272,8|0,0:2|0:2,0:2:0:0:
167,307,32823,2,0,P|141:314|106:320,1,52.4999983978272,8|0,0:2|0:2,0:2:0:0:
0,369,32995,6,0,L|6:324,2,37.5,6|2|2,0:2|0:2|0:2,0:2:0:0:
42,313,33509,2,0,L|37:235,1,75,2|2,0:2|0:2,0:2:0:0:
37,238,34023,1,2,0:2:0:0:
89,182,34195,2,0,P|119:172|158:190,1,75,2|2,0:2|0:2,0:2:0:0:
241,238,34709,1,2,0:2:0:0:
241,238,34881,6,0,L|232:199,1,37.5,2|2,0:2|0:2,0:0:0:0:
282,138,35223,2,0,L|291:99,1,37.5,2|2,0:2|0:2,0:0:0:0:
260,32,35566,1,2,0:2:0:0:
260,32,35738,6,0,L|309:18,2,37.5,2|2|2,0:2|0:2|0:2,0:2:0:0:
210,88,36252,2,0,P|174:96|139:75,1,75,2|2,0:2|0:2,0:2:0:0:
141,78,36766,1,2,0:2:0:0:
67,67,36938,2,0,P|74:111|81:151,1,75,2|2,0:2|0:2,0:2:0:0:
12,211,37452,1,2,0:2:0:0:
12,211,37623,6,0,P|38:221|51:229,1,37.5,2|2,0:2|0:2,0:0:0:0:
103,274,37966,2,0,P|129:264|142:256,1,37.5,2|2,0:2|0:2,0:0:0:0:
214,245,38308,1,2,0:2:0:0:
214,245,38481,6,0,P|242:255|256:258,2,37.5,2|2|2,0:2|0:2|0:2,0:2:0:0:
168,188,38995,2,0,P|157:149|175:111,1,75,2|2,0:2|0:2,0:2:0:0:
168,117,39509,1,2,0:2:0:0:
236,80,39681,2,0,P|270:88|315:98,1,75,2|2,0:2|0:2,0:2:0:0:
392,47,40195,1,2,0:2:0:0:
392,47,40366,6,0,P|399:82|402:96,1,37.5,2|2,0:2|0:2,0:0:0:0:
457,130,40709,2,0,P|450:165|447:179,1,37.5,2|2,0:2|0:2,0:0:0:0:
396,220,41052,1,2,0:2:0:0:
396,220,41223,6,0,P|371:211|347:201,2,37.5,2|2|2,0:2|0:2|0:2,0:2:0:0:
453,269,41738,2,0,P|469:289|458:343,1,75,2|2,0:2|0:2,0:2:0:0:
403,379,42252,1,2,0:2:0:0:
403,379,42423,1,2,0:2:0:0:
316,317,42595,6,0,P|308:281|298:249,1,60,2|0,0:2|0:2,0:2:0:0:
274,227,42852,1,0,0:2:0:0:
274,227,42938,1,2,0:2:0:0:
330,167,43109,2,0,P|338:131|340:121,1,30,2|0,0:2|0:2,0:2:0:0:
296,72,43281,2,0,L|258:79,3,30,0|0|0|0,3:2|3:2|3:2|3:2,0:0:0:0:
231,109,43623,2,0,L|193:102,3,30,2|0|2|0,3:2|3:2|3:2|3:2,0:2:0:0:
128,80,43966,6,0,P|121:34|113:-2,2,75,14|2|10,0:2|0:2|0:2,0:2:0:0:
32,141,44481,2,0,B|69:134|98:173|95:181|87:183|117:227|164:205,1,150,2|2,0:2|0:2,0:2:0:0:
153,209,44995,1,10,0:2:0:0:
274,126,45166,2,0,P|254:189|235:281,1,150,2|2,0:2|0:2,0:2:0:0:
236,270,45681,1,10,0:2:0:0:
369,367,45852,5,2,0:2:0:0:
323,297,46023,1,10,0:2:0:0:
439,229,46195,1,2,0:2:0:0:
439,229,46366,1,10,0:2:0:0:
405,296,46538,1,2,0:2:0:0:
335,189,46709,6,0,P|369:159|407:161,2,75,10|2|10,0:2|0:2|0:2,0:2:0:0:
236,270,47223,2,0,B|207:232|165:246|165:246|146:289|99:291,1,150,2|2,0:2|0:2,0:2:0:0:
114,289,47738,1,10,0:2:0:0:
14,345,47909,2,0,P|38:266|60:175,1,150,2|2,0:2|0:2,0:2:0:0:
54,200,48423,1,10,0:2:0:0:
17,74,48595,5,2,0:2:0:0:
76,125,48766,1,10,0:2:0:0:
179,63,48938,1,2,0:2:0:0:
179,63,49109,1,10,0:2:0:0:
231,118,49281,1,2,0:2:0:0:
353,70,49452,6,0,P|367:20|382:-11,2,75,10|2|10,0:2|0:2|0:2,0:2:0:0:
244,149,49966,2,0,P|264:191|300:293,1,150,2|2,0:2|0:2,0:2:0:0:
298,288,50481,1,10,0:2:0:0:
378,379,50652,2,0,P|390:330|493:306,1,150,2|2,0:2|0:2,0:2:0:0:
476,298,51166,1,10,0:2:0:0:
400,218,51338,5,2,0:2:0:0:
455,169,51509,1,10,0:2:0:0:
376,88,51681,1,2,0:2:0:0:
376,88,51852,1,10,0:2:0:0:
320,138,52023,1,2,0:2:0:0:
202,88,52195,6,0,P|192:40|206:16,2,75,10|2|10,0:2|0:2|0:2,0:2:0:0:
113,176,52709,2,0,B|81:171|81:171|45:113|101:56,1,150,2|2,0:2|0:2,0:2:0:0:
94,63,53223,1,10,0:2:0:0:
2,177,53395,2,0,P|16:219|48:330,1,150,2|2,0:2|0:2,0:2:0:0:
45,320,53909,1,10,0:2:0:0:
152,245,54081,5,2,0:2:0:0:
208,296,54252,1,10,0:2:0:0:
309,212,54423,2,0,L|323:112,2,75,2|10|2,0:2|0:2|0:2,0:2:0:0:
390,378,54938,5,6,3:2:0:0:
422,313,55109,1,2,0:2:0:0:
388,249,55280,1,10,0:2:0:0:
276,345,55452,6,0,P|321:322|359:311,1,75,0|2,0:2|3:2,0:0:0:0:
249,265,55795,2,0,P|213:252|180:234,2,75,2|10|2,3:2|0:2|0:2,0:0:0:0:
108,378,56309,5,2,3:2:0:0:
76,313,56480,1,2,0:2:0:0:
110,249,56651,1,10,0:2:0:0:
222,345,56823,6,0,P|177:322|139:311,1,75,0|2,0:2|3:2,0:0:0:0:
249,265,57166,2,0,P|284:252|317:234,2,75,2|10|2,3:2|0:2|0:2,0:0:0:0:
390,378,57681,5,2,3:2:0:0:
422,313,57852,1,2,0:2:0:0:
388,249,58023,1,10,0:2:0:0:
276,345,58195,6,0,P|321:322|359:311,1,75,0|2,0:2|3:2,0:0:0:0:
249,265,58538,2,0,P|213:252|180:234,2,75,2|10|2,3:2|0:2|0:2,0:0:0:0:
421,168,59052,6,0,L|412:116,2,52.4999983978272,2|2|10,3:2|0:2|0:2,0:2:0:0:
321,120,59566,5,0,0:2:0:0:
324,93,59738,1,2,3:2:0:0:
328,67,59909,1,2,3:2:0:0:
331,41,60081,1,10,0:2:0:0:
335,15,60252,1,2,0:2:0:0:
259,28,60423,6,0,L|250:79,2,52.4999983978272,2|2|10,3:2|0:2|0:2,0:2:0:0:
170,99,60937,5,0,0:2:0:0:
172,117,61109,1,2,3:2:0:0:
174,135,61280,1,2,3:2:0:0:
176,153,61452,1,10,0:2:0:0:
179,171,61623,1,2,0:2:0:0:
101,171,61795,6,0,L|92:119,2,52.4999983978272,2|2|10,3:2|0:2|0:2,0:2:0:0:
0,91,62309,5,2,0:2:0:0:
1,78,62481,1,2,3:2:0:0:
2,65,62652,1,2,3:2:0:0:
4,53,62824,1,10,0:2:0:0:
6,40,62995,1,2,0:2:0:0:
92,119,63166,5,10,0:2:0:0:
108,139,63251,1,8,0:2:0:0:
114,164,63337,1,8,0:2:0:0:
109,189,63423,1,8,0:2:0:0:
93,210,63508,1,8,0:2:0:0:
76,230,63595,1,8,0:2:0:0:
70,255,63681,1,8,0:2:0:0:
75,280,63767,1,8,0:2:0:0:
92,300,63852,2,0,L|129:314,3,26.2499991989136,10|8|8|8,0:2|0:2|0:2|0:2,0:2:0:0:
176,265,64195,2,0,L|213:251,3,26.2499991989136,8|8|8|8,0:2|0:2|0:2|0:2,0:2:0:0:
271,353,64538,6,0,L|279:285,2,60,2|0|0,3:2|0:2|0:2,0:2:0:0:
364,263,65395,5,0,3:2:0:0:
298,176,65566,1,8,0:2:0:0:
347,120,65738,1,0,3:2:0:0:
181,45,65909,6,0,B|140:20|190:-14|265:10|265:109|161:183,1,225,6|0,3:2|0:2,0:2:0:0:
142,213,66252,1,2,3:2:0:0:
44,132,66423,1,2,0:2:0:0:
148,243,66595,6,0,P|216:257|277:275,1,112.500004291535,2|0,3:2|0:0,0:2:0:0:
361,175,66938,2,0,L|346:109,2,50,0|0|0,3:2|3:2|3:2,0:0:0:0:
344,211,67281,6,0,L|374:54,1,112.500004291535,0|2,3:2|0:2,0:2:0:0:
272,0,67623,6,0,L|209:14,3,56.2500021457673,2|0|0|0,3:2|0:2|0:2|0:2,0:0:0:0:
164,85,67966,1,2,3:2:0:0:
137,81,68051,1,0,0:2:0:0:
110,78,68137,1,0,0:2:0:0:
83,75,68223,1,0,0:2:0:0:
56,72,68309,6,0,L|9:66,1,37.5,2|2,3:2|0:2,0:2:0:0:
6,44,68481,2,0,L|43:48,1,37.5,2|2,0:2|0:2,0:2:0:0:
187,105,68652,6,0,B|210:136|202:177|171:207|165:200|155:195|102:228|100:281|140:336,1,225,2|0,3:2|0:2,0:2:0:0:
176,355,68995,1,2,3:2:0:0:
43,253,69166,1,2,0:2:0:0:
184,384,69338,6,0,L|200:261,1,112.500004291535,2|0,3:2|0:0,0:2:0:0:
285,159,69681,6,0,L|295:228,2,50,0|0|0,3:2|3:2|3:2,0:0:0:0:
259,223,70023,6,0,P|280:158|336:146,1,112.500004291535,0|2,3:2|0:2,0:2:0:0:
433,214,70366,5,2,3:2:0:0:
428,245,70451,1,0,0:2:0:0:
425,275,70537,1,0,0:2:0:0:
422,307,70623,1,0,0:2:0:0:
418,326,70709,6,0,B|384:281|416:243|428:252|475:212|420:142,1,168.750006437302,2|0,3:2|0:2,0:2:0:0:
404,99,71052,6,0,L|366:95,6,28.1250010728836,2|2|2|2|2|2|2,3:2|0:2|0:2|0:2|0:2|0:2|0:2,0:2:0:0:
472,61,71395,6,0,P|397:87|336:219,1,225,2|0,3:2|0:2,0:2:0:0:
376,276,71738,1,2,3:2:0:0:
472,175,71909,1,2,0:2:0:0:
374,309,72081,6,0,P|316:292|248:278,1,112.500004291535,2|0,3:2|0:0,0:2:0:0:
137,343,72423,6,0,L|206:324,2,50,0|0|0,3:2|3:2|3:2,0:0:0:0:
212,380,72766,6,0,P|184:307|183:257,1,112.500004291535,0|2,3:2|0:2,0:2:0:0:
134,190,73109,6,0,P|128:158|120:127,3,56.2500021457673,2|0|0|0,3:2|0:2|0:2|0:2,0:0:0:0:
189,95,73452,2,0,P|195:63|199:42,1,37.5,0|0,3:2|0:2,0:2:0:0:
143,6,73623,1,2,0:2:0:0:
251,138,73795,5,2,3:2:0:0:
277,133,73880,1,0,0:2:0:0:
304,127,73966,1,0,0:2:0:0:
332,120,74052,1,0,0:2:0:0:
365,95,74138,6,0,P|302:119|306:216,1,168.750006437302,2|0,3:2|0:2,0:2:0:0:
356,256,74481,2,0,L|458:227,1,75,2|0,3:2|0:2,0:2:0:0:
333,352,74823,1,2,3:2:0:0:
241,257,74995,1,2,0:2:0:0:
150,342,75166,6,0,P|114:356|76:339,1,60,2|0,3:2|0:2,0:2:0:0:
4,240,75509,5,6,3:2:0:0:
146,157,75681,1,2,0:2:0:0:
87,229,75852,1,2,0:2:0:0:
1,100,76023,1,2,0:2:0:0:
62,148,76195,1,2,0:2:0:0:
149,53,76366,6,0,P|181:39|214:47,1,48.7499977684022,2|0,3:2|0:2,0:2:0:0:
224,115,76538,2,0,P|256:129|289:121,1,48.7499977684022,10|0,0:2|0:2,0:2:0:0:
299,53,76709,2,0,P|331:39|364:47,1,48.7499977684022,2|0,3:2|0:2,0:2:0:0:
427,110,76881,6,0,B|417:201|417:201|381:219|381:219|367:334,1,225,6|0,3:2|0:2,0:2:0:0:
420,370,77223,1,10,0:2:0:0:
284,252,77395,1,2,0:2:0:0:
442,376,77566,6,0,P|468:314|437:262,1,112.500004291535,2|0,3:2|0:0,0:2:0:0:
447,79,77909,1,8,3:2:0:0:
478,118,78023,1,0,3:2:0:0:
472,162,78137,1,0,3:0:0:0:
440,198,78252,6,0,L|302:176,1,112.500004291535,0|2,3:2|0:2,0:2:0:0:
175,222,78595,6,0,L|170:282,3,56.2500021457673,10|0|0|0,0:2|0:2|0:2|0:2,0:0:0:0:
106,164,78938,1,2,3:2:0:0:
87,143,79023,1,0,0:2:0:0:
82,115,79109,1,0,0:2:0:0:
91,89,79195,1,0,0:2:0:0:
111,71,79281,6,0,P|136:65|159:56,1,37.5,10|2,0:2|0:2,0:2:0:0:
177,80,79452,2,0,P|202:86|225:95,1,37.5,2|2,0:2|0:2,0:2:0:0:
286,12,79623,6,0,P|240:91|195:225,1,225,2|0,3:2|0:2,0:2:0:0:
243,279,79966,1,10,0:2:0:0:
130,158,80138,1,2,0:2:0:0:
311,278,80309,6,0,L|193:320,1,112.500004291535,2|0,3:2|0:0,0:2:0:0:
9,346,80652,1,8,3:2:0:0:
47,378,80766,1,0,3:2:0:0:
90,372,80880,1,0,3:2:0:0:
127,344,80995,6,0,L|131:221,1,112.500004291535,0|2,3:2|0:2,0:2:0:0:
36,134,81338,5,10,0:2:0:0:
31,103,81423,1,0,0:2:0:0:
28,73,81509,1,0,0:2:0:0:
25,41,81595,1,0,0:2:0:0:
1,14,81681,6,0,P|15:86|111:77,1,168.750006437302,2|0,3:2|0:2,0:2:0:0:
186,25,82023,6,0,L|168:61,6,28.1250010728836,10|2|2|2|2|2|2,0:2|0:2|0:2|0:2|0:2|0:2|0:2,0:2:0:0:
87,9,82366,6,0,P|193:50|270:151,1,225,2|0,3:2|0:2,0:2:0:0:
336,119,82709,1,10,3:2:0:0:
209,202,82881,1,2,0:2:0:0:
339,75,83052,6,0,P|393:48|452:87,1,112.500004291535,2|0,3:2|0:0,0:2:0:0:
511,181,83395,1,8,3:2:0:0:
489,225,83509,1,0,3:2:0:0:
448,243,83623,1,0,3:2:0:0:
404,228,83738,6,0,L|258:203,1,112.500004291535,0|2,3:2|0:2,0:2:0:0:
171,297,84081,6,0,L|180:363,3,56.2500021457673,10|0|0|0,3:2|0:2|0:2|0:2,0:0:0:0:
252,384,84423,2,0,P|257:361|264:326,1,37.5,0|0,3:2|0:2,0:2:0:0:
308,293,84595,1,2,0:2:0:0:
173,199,84766,5,10,3:2:0:0:
147,204,84852,1,0,0:2:0:0:
120,210,84938,1,0,0:2:0:0:
92,217,85023,1,0,0:2:0:0:
45,226,85109,6,0,P|123:189|203:161,1,168.750006437302,2|0,3:2|0:2,0:2:0:0:
271,192,85452,2,0,P|281:153|299:107,1,75,10|0,0:2|0:2,0:2:0:0:
252,25,85795,1,2,3:2:0:0:
373,120,85966,1,2,0:2:0:0:
469,50,86138,6,0,P|450:95|444:117,1,60,10|0,0:2|0:2,0:2:0:0:
512,208,86481,5,6,3:2:0:0:
427,313,86652,1,2,0:2:0:0:
345,188,86823,1,2,0:2:0:0:
427,233,86995,1,2,0:2:0:0:
427,233,87081,1,0,0:2:0:0:
427,233,87166,1,2,0:2:0:0:
355,348,87338,6,0,P|323:362|290:354,1,48.7499977684022,2|0,3:2|0:2,0:2:0:0:
280,286,87509,2,0,P|248:272|215:280,1,48.7499977684022,10|0,0:2|0:2,0:2:0:0:
205,348,87681,2,0,P|173:362|140:354,1,48.7499977684022,2|0,3:2|0:2,0:2:0:0:
86,298,87852,6,0,B|60:256|88:218|104:234|130:203|116:162,1,150,6|0,3:2|0:2,0:2:0:0:
68,112,88109,1,2,0:2:0:0:
68,112,88195,1,10,0:2:0:0:
160,13,88366,5,2,0:2:0:0:
198,37,88452,2,0,P|265:21|349:9,1,112.500004291535,2|2,0:2|0:2,0:2:0:0:
377,43,88709,2,0,P|402:99|371:157,1,112.500004291535,2|10,0:2|0:2,0:2:0:0:
317,231,89052,2,0,L|255:221,2,37.5000014305115,2|2|2,0:2|0:2|0:2,0:2:0:0:
251,250,89223,6,0,P|344:214|390:231,1,150,2|0,3:2|0:2,0:2:0:0:
475,228,89481,2,0,P|392:266|328:318,1,150,2|0,0:2|0:2,0:2:0:0:
298,362,89738,1,2,0:2:0:0:
146,285,89909,1,2,3:2:0:0:
170,253,89995,2,0,P|178:173|204:103,1,112.500004291535,2|2,0:2|0:2,0:2:0:0:
157,75,90252,2,0,P|102:48|50:73,1,112.500004291535,8|2,0:2|0:2,0:0:0:0:
33,101,90509,1,0,0:2:0:0:
33,101,90595,6,0,P|117:80|204:61,1,150,2|0,3:2|0:2,0:2:0:0:
252,99,90852,1,2,0:2:0:0:
252,99,90938,1,10,0:2:0:0:
370,18,91109,5,2,0:2:0:0:
345,49,91195,2,0,P|366:119|382:180,1,112.500004291535,2|2,0:2|0:2,0:2:0:0:
441,193,91452,2,0,P|420:263|404:324,1,112.500004291535,2|10,0:2|0:2,0:2:0:0:
265,360,91795,2,0,L|203:350,2,37.5000014305115,2|2|2,0:2|0:2|0:2,0:2:0:0:
301,345,91966,6,0,B|321:303|290:264|280:274|256:236|278:186,1,150,2|0,3:2|0:2,0:2:0:0:
333,136,92223,2,0,P|265:185|195:152,1,150,2|2,0:2|0:2,0:2:0:0:
147,118,92481,2,0,L|141:59,2,44.999998626709,2|2|2,0:2|0:2|3:2,0:2:0:0:
89,169,92738,2,0,P|64:222|85:290,1,112.500004291535,2|2,0:2|0:2,0:2:0:0:
119,335,92995,1,8,0:2:0:0:
203,265,93166,1,2,0:2:0:0:
203,265,93252,1,0,0:2:0:0:
203,265,93338,6,0,B|288:281|232:330|333:346,1,150,6|0,3:2|0:2,0:2:0:0:
388,309,93595,1,2,0:2:0:0:
388,309,93681,1,10,0:2:0:0:
306,197,93852,5,2,0:2:0:0:
340,166,93938,2,0,P|363:108|326:52,1,112.500004291535,2|2,0:2|0:2,0:2:0:0:
294,12,94195,2,0,L|175:32,1,112.500004291535,2|10,0:2|0:2,0:2:0:0:
92,124,94538,2,0,L|30:114,2,37.5000014305115,2|2|2,0:2|0:2|0:2,0:2:0:0:
40,73,94709,6,0,P|104:126|114:212,1,150,2|0,3:2|0:2,0:2:0:0:
145,253,94966,2,0,P|163:163|187:83,1,150,2|0,0:2|0:2,0:2:0:0:
135,41,95224,1,2,0:2:0:0:
249,149,95395,1,2,3:2:0:0:
276,116,95481,2,0,P|335:90|393:116,1,112.500004291535,2|2,0:2|0:2,0:2:0:0:
439,147,95738,2,0,P|423:206|411:268,1,112.500004291535,8|2,0:2|0:2,0:0:0:0:
451,328,95995,1,0,0:2:0:0:
451,328,96081,6,0,P|385:261|311:288,1,150,2|0,3:2|0:2,0:2:0:0:
292,325,96338,1,2,0:2:0:0:
292,325,96424,1,10,0:2:0:0:
139,251,96595,5,2,0:2:0:0:
155,211,96681,2,0,P|193:182|272:199,1,112.500004291535,2|2,0:2|0:2,0:2:0:0:
293,247,96938,2,0,P|208:220|156:210,1,112.500004291535,2|10,0:2|0:2,0:2:0:0:
56,144,97281,2,0,L|46:85,2,37.5000014305115,2|2|2,0:2|0:2|0:2,0:2:0:0:
17,206,97452,6,0,B|106:174|47:138|155:106,1,150,2|0,3:2|0:2,0:2:0:0:
191,64,97709,2,0,B|280:96|221:132|329:164,1,150,2|2,0:2|0:2,0:2:0:0:
370,113,97966,2,0,L|366:49,2,48.7499977684022,2|2|2,0:2|0:2|3:2,0:2:0:0:
436,155,98223,2,0,P|461:207|448:257,1,112.500004291535,2|2,0:2|0:2,0:2:0:0:
397,314,98481,1,8,0:2:0:0:
287,234,98652,1,2,0:2:0:0:
287,234,98738,1,0,0:2:0:0:
287,234,98823,6,0,P|218:264|229:354,1,150,6|0,3:2|0:2,0:2:0:0:
274,378,99080,1,2,0:2:0:0:
274,378,99166,1,10,0:2:0:0:
113,274,99337,5,2,0:2:0:0:
141,245,99423,2,0,P|162:174|182:113,1,112.500004291535,2|2,0:2|0:2,0:2:0:0:
151,67,99681,2,0,P|100:28|40:45,1,112.500004291535,2|10,0:2|0:2,0:2:0:0:
31,157,100023,2,0,L|85:144,2,50,2|2|2,0:2|0:2|0:2,0:2:0:0:
0,139,100195,6,0,P|110:169|158:199,1,150,2|0,3:2|0:2,0:2:0:0:
203,128,100452,2,0,P|313:98|361:68,1,150,2|0,0:2|0:2,0:2:0:0:
413,117,100709,1,2,0:2:0:0:
342,217,100880,1,2,3:2:0:0:
373,244,100966,2,0,P|403:307|373:360,1,112.500004291535,2|2,0:2|0:2,0:2:0:0:
327,384,101223,2,0,P|262:358|204:341,1,112.500004291535,8|2,0:2|0:2,0:0:0:0:
149,366,101480,1,0,0:2:0:0:
149,366,101566,6,0,B|128:328|149:291|157:298|200:264|177:217,1,150,2|0,3:2|0:2,0:2:0:0:
131,171,101823,1,2,0:2:0:0:
131,171,101909,1,10,0:2:0:0:
33,65,102080,5,2,0:2:0:0:
5,98,102166,2,0,P|25:162|43:222,1,112.500004291535,2|2,0:2|0:2,0:2:0:0:
103,246,102423,2,0,P|175:211|231:204,1,112.500004291535,2|10,0:2|0:2,0:2:0:0:
351,257,102766,2,0,L|289:247,2,37.5000014305115,2|2|2,0:2|0:2|0:2,0:2:0:0:
328,297,102938,6,0,P|307:209|282:127,1,150,2|0,3:2|0:2,0:2:0:0:
319,60,103195,2,0,P|275:132|217:125,1,150,2|2,0:2|0:2,0:2:0:0:
150,65,103452,5,2,0:2:0:0:
150,65,103538,1,2,0:2:0:0:
150,65,103623,2,0,L|162:-7,3,48.7499977684022,2|2|2|2,3:2|0:2|0:2|0:2,0:0:0:0:
83,129,103966,1,8,0:2:0:0:
86,154,104051,1,2,0:2:0:0:
89,178,104137,1,2,0:2:0:0:
93,202,104223,1,2,0:2:0:0:
99,230,104309,6,0,B|140:253|180:213|164:205|199:156|266:173,1,168.750006437302,10|0,3:2|0:2,0:2:0:0:
310,205,104652,2,0,P|329:248|309:286,1,75,10|0,0:2|0:0,0:2:0:0:
268,339,104995,5,10,0:2:0:0:
401,239,105166,1,2,0:2:0:0:
307,131,105338,6,0,P|331:70|342:27,1,75,10|0,0:2|0:2,0:2:0:0:
362,30,105595,1,2,0:2:0:0:
362,30,105681,6,0,P|301:5|251:39,1,112.500004291535,10|0,0:2|0:2,0:2:0:0:
235,97,105938,2,0,P|174:122|124:88,1,112.500004291535,2|0,0:2|0:2,0:2:0:0:
77,54,106195,1,2,0:2:0:0:
7,183,106366,5,10,0:2:0:0:
7,183,106452,2,0,P|58:154|106:179,1,112.500004291535,2|2,0:2|0:2,0:2:0:0:
130,202,106709,2,0,L|111:327,1,112.500004291535,8|2,0:2|0:2,0:0:0:0:
195,381,107052,6,0,L|250:368,3,37.5,10|8|8|8,0:2|0:2|0:2|0:2,0:0:0:0:
291,324,107395,2,0,L|346:337,3,37.5,8|8|8|8,0:2|0:2|0:2|0:2,0:0:0:0:
402,306,107738,1,10,0:2:0:0:
421,274,107823,1,8,0:2:0:0:
423,237,107909,1,8,0:2:0:0:
408,203,107995,1,8,0:2:0:0:
379,180,108080,1,8,0:2:0:0:
359,148,108166,1,8,0:2:0:0:
357,111,108252,1,8,0:2:0:0:
372,77,108338,1,8,0:2:0:0:
401,54,108423,6,0,P|441:70|460:77,1,52.4999983978272,0|0,3:2|0:2,0:2:0:0:
487,70,108681,1,0,0:2:0:0:
487,70,108766,1,8,0:2:0:0:
331,9,108938,1,0,0:2:0:0:
331,9,109109,1,0,0:2:0:0:
226,66,109281,6,0,L|236:137,1,56.2500021457673,0|0,3:2|0:2,0:2:0:0:
256,192,109452,6,0,P|193:140|144:152,2,112.500004291535,8|0|0,0:2|3:2|3:2,0:2:0:0:
256,192,109881,12,0,113909,0:2:0:0:
