osu file format v14

[General]
AudioFilename: audio.mp3
AudioLeadIn: 0
PreviewTime: 64452
Countdown: 0
SampleSet: Soft
StackLeniency: 0.7
Mode: 0
LetterboxInBreaks: 0
WidescreenStoryboard: 0

[Editor]
Bookmarks: 1452,4881,12766,13452,16538,19281,28023,28709,29395,31281,43109,47223,54938,56309,57681,59566,60938,62309,64538,68309,70023,70709,72081,72423,72766,74138,75509,77223,77909,78595,81681,85109,87338,88109,91966,92909,93338,93852,94366,94709,95652,97281,97966,98395,102766,106366,107738,108423,109281
DistanceSpacing: 1.5
BeatDivisor: 4
GridSize: 4
TimelineZoom: 2.2

[Metadata]
Title:Intruder
TitleUnicode:Intruder
Artist:Riya
ArtistUnicode:Riya
Creator:Yumerios
Version:Extra
Source:
Tags:fa Featured Artist mpg mapper's mappers guild mg Electronic Instrumental edm dance music techcore hardcore 440hz RAVON Milky Way Stage 7
BeatmapID:3500174
BeatmapSetID:1712971

[Difficulty]
HPDrainRate:5
CircleSize:4
OverallDifficulty:9
ApproachRate:9.4
SliderMultiplier:1.8
SliderTickRate:1

[Events]
//Background and Video events
0,0,"bg.jpg",0,0
//Break Periods
//Storyboard Layer 0 (Background)
//Storyboard Layer 1 (Fail)
//Storyboard Layer 2 (Pass)
//Storyboard Layer 3 (Foreground)
//Storyboard Layer 4 (Overlay)
//Storyboard Sound Samples

[TimingPoints]
81,342.857142857143,4,2,1,60,1,0
81,-100,4,2,1,60,0,0
1452,-125,4,2,1,60,0,0
2138,-100,4,2,1,60,0,0
10538,-83.3333333333333,4,2,1,70,0,0
10709,-62.5,4,2,1,70,0,0
11052,-50,4,2,1,70,0,0
11566,-100,4,2,1,70,0,0
11738,-50,4,2,1,70,0,0
12081,-66.6666666666667,4,2,1,70,0,0
12423,-83.3333333333333,4,2,1,70,0,0
13795,-50,4,2,1,70,0,0
14138,-100,4,2,1,70,0,0
14481,-50,4,2,1,70,0,0
14823,-66.6666666666667,4,2,1,70,0,0
15166,-83.3333333333333,4,2,1,70,0,0
16538,-50,4,2,1,70,0,0
16881,-100,4,2,1,70,0,0
17223,-50,4,2,1,70,0,0
17566,-66.6666666666667,4,2,1,70,0,0
17909,-83.3333333333333,4,2,1,70,0,0
19281,-83.3333333333333,4,2,1,70,0,0
22023,-66.6666666666667,4,2,1,70,0,0
27509,-100,4,2,1,60,0,0
31623,-142.857142857143,4,2,1,60,0,0
32652,-71.4285714285714,4,2,1,70,0,0
32995,-200,4,2,1,50,0,0
42595,-125,4,2,1,60,0,0
43966,-100,4,2,1,70,0,0
59052,-142.857142857143,4,2,1,70,0,0
61795,-142.857142857143,4,2,1,60,0,0
64538,-250.000000000001,4,2,1,50,0,0
64881,-90.9090909090909,4,2,1,50,0,0
65395,-142.857142857143,4,2,1,70,0,0
65909,-50,4,2,1,80,0,1
66252,-40,4,2,1,80,0,1
66595,-66.6666666666667,4,2,1,80,0,1
67281,-50,4,2,1,80,0,1
68309,-100,4,2,1,80,0,1
68652,-50,4,2,1,80,0,1
68995,-40,4,2,1,80,0,1
69338,-66.6666666666667,4,2,1,80,0,1
70023,-50,4,2,1,80,0,1
70709,-40,4,2,1,80,0,1
71052,-66.6666666666667,4,2,1,80,0,1
71395,-50,4,2,1,80,0,1
71738,-40,4,2,1,80,0,1
72081,-66.6666666666667,4,2,1,80,0,1
72766,-50,4,2,1,80,0,1
73452,-100,4,2,1,80,0,1
74138,-50,4,2,1,80,0,1
74823,-66.6666666666667,4,2,1,80,0,1
75166,-100,4,2,1,80,0,1
75509,-100,4,2,1,80,0,0
76366,-50,4,2,1,80,0,1
76881,-50,4,2,1,80,0,1
77223,-40,4,2,1,80,0,1
77566,-66.6666666666667,4,2,1,80,0,1
78252,-50,4,2,1,80,0,1
79281,-100,4,2,1,80,0,1
79623,-50,4,2,1,80,0,1
79966,-40,4,2,1,80,0,1
80309,-66.6666666666667,4,2,1,80,0,1
80995,-50,4,2,1,80,0,1
81681,-40,4,2,1,80,0,1
82023,-66.6666666666667,4,2,1,80,0,1
82366,-50,4,2,1,80,0,1
82709,-40,4,2,1,80,0,1
83052,-66.6666666666667,4,2,1,80,0,1
83738,-50,4,2,1,80,0,1
84423,-100,4,2,1,80,0,1
85109,-50,4,2,1,80,0,1
85795,-66.6666666666667,4,2,1,80,0,1
86138,-100,4,2,1,80,0,1
86481,-100,4,2,1,80,0,0
87338,-50,4,2,1,80,0,1
87852,-40,4,2,1,80,0,1
88195,-50,4,2,1,80,0,1
88366,-66.6666666666667,4,2,1,80,0,1
88881,-50,4,2,1,80,0,1
89223,-40,4,2,1,80,0,1
89909,-50,4,2,1,80,0,1
90166,-66.6666666666667,4,2,1,80,0,1
90595,-40,4,2,1,80,0,1
90938,-50,4,2,1,80,0,1
91109,-66.6666666666667,4,2,1,80,0,1
91623,-50,4,2,1,80,0,1
91966,-40,4,2,1,80,0,1
92481,-100,4,2,1,80,0,1
92652,-50,4,2,1,80,0,1
92909,-66.6666666666667,4,2,1,80,0,1
93338,-40,4,2,1,80,0,1
93681,-50,4,2,1,80,0,1
93852,-66.6666666666667,4,2,1,80,0,1
94367,-50,4,2,1,80,0,1
94709,-40,4,2,1,80,0,1
95395,-50,4,2,1,80,0,1
95652,-66.6666666666667,4,2,1,80,0,1
96081,-40,4,2,1,80,0,1
96423,-50,4,2,1,80,0,1
96595,-66.6666666666667,4,2,1,80,0,1
97109,-50,4,2,1,80,0,1
97452,-40,4,2,1,80,0,1
97966,-100,4,2,1,80,0,1
98138,-50,4,2,1,80,0,1
98395,-66.6666666666667,4,2,1,80,0,1
98823,-40,4,2,1,80,0,1
99166,-50,4,2,1,80,0,1
99337,-66.6666666666667,4,2,1,80,0,1
99852,-50,4,2,1,80,0,1
100194,-40,4,2,1,80,0,1
100880,-50,4,2,1,80,0,1
101137,-66.6666666666667,4,2,1,80,0,1
101566,-40,4,2,1,80,0,1
101909,-50,4,2,1,80,0,1
102080,-66.6666666666667,4,2,1,80,0,1
102595,-50,4,2,1,80,0,1
102937,-40,4,2,1,80,0,1
103452,-100,4,2,1,80,0,1
103623,-50,4,2,1,80,0,1
103880,-66.6666666666667,4,2,1,80,0,1
104309,-50,4,2,1,70,0,0
104652,-66.6666666666667,4,2,1,70,0,0
104995,-100,4,2,1,70,0,0
105681,-66.6666666666667,4,2,1,70,0,0
107052,-100,4,2,1,70,0,0
108423,-100,4,2,1,60,0,0
109281,-50,4,2,1,80,0,0
109795,-50,4,2,1,60,0,0

[Colours]
Combo1 : 53,53,255
Combo2 : 255,128,255
Combo3 : 255,148,96
Combo4 : 163,82,82

[HitObjects]
80,150,81,6,0,P|40:149|-8:187,1,90,0|0,1:2|0:2,0:2:0:0:
149,96,423,2,0,P|119:69|57:67,1,90,0|0,1:2|0:2,0:2:0:0:
236,98,766,2,0,P|230:58|184:17,1,90,0|0,1:2|0:2,0:2:0:0:
301,155,1109,2,0,P|322:120|313:59,1,90,0|0,1:2|0:2,2:2:0:0:
417,10,1366,1,0,0:2:0:0:
417,10,1452,6,0,L|402:90,1,72,0|0,1:2|0:2,0:2:0:0:
499,24,1795,2,0,L|484:104,1,72,0|0,1:2|0:2,0:2:0:0:
423,203,2138,2,0,L|434:149,2,45,2|2|2,1:2|0:2|0:2,0:2:0:0:
345,304,2481,2,0,P|404:289|450:279,1,90,2|2,1:2|0:2,0:2:0:0:
474,308,2738,1,2,0:2:0:0:
474,308,2823,6,0,B|452:324|417:321|391:293|397:287|400:281|375:248|339:244|301:278,1,180,2|0,1:2|1:2,0:2:0:0:
165,356,3338,1,0,0:2:0:0:
246,383,3509,2,0,P|252:335|225:294,1,90,0|0,1:2|0:2,0:2:0:0:
146,243,3852,2,0,P|140:195|167:154,1,90,0|0,1:2|0:2,0:2:0:0:
200,136,4109,1,0,0:2:0:0:
200,136,4195,6,0,P|219:96|201:44,1,90,0|0,1:2|0:2,0:2:0:0:
93,41,4538,2,0,P|74:81|92:133,1,90,0|0,1:2|0:2,0:2:0:0:
240,218,4881,2,0,B|296:235|323:195|314:186|336:128|420:158,1,180,0|0,1:2|1:2,0:2:0:0:
467,276,5395,1,0,0:2:0:0:
467,276,5481,1,0,0:2:0:0:
467,276,5566,6,0,P|419:253|411:196,1,90,0|0,1:2|0:2,0:2:0:0:
300,266,5909,2,0,P|305:213|356:186,1,90,0|0,1:2|0:2,0:2:0:0:
252,104,6252,2,0,P|303:90|346:129,1,90,0|0,1:2|0:2,0:2:0:0:
387,3,6595,2,0,P|417:46|395:100,1,90,0|0,1:2|0:2,0:2:0:0:
376,110,6852,1,0,0:2:0:0:
376,110,6938,6,0,P|326:66|210:84,1,180,0|0,1:2|1:2,0:2:0:0:
92,166,7452,1,0,0:2:0:0:
121,11,7623,2,0,L|146:111,1,90,0|0,1:2|0:2,0:2:0:0:
278,231,7966,1,2,1:2:0:0:
249,196,8051,1,2,0:2:0:0:
206,185,8137,1,2,0:2:0:0:
165,201,8223,1,2,0:2:0:0:
141,237,8309,6,0,B|194:262|225:216|218:210|245:166|324:194,1,180,2|0,1:2|1:2,0:2:0:0:
443,271,8823,2,0,P|397:285|348:250,1,90,2|0,0:2|1:2,0:2:0:0:
410,87,9166,2,0,L|402:190,1,90,2|0,0:2|1:2,0:2:0:0:
395,367,9509,1,2,0:2:0:0:
197,320,9681,6,0,B|121:342|121:342|107:365|107:365|14:388,2,180,0|0|0,1:2|0:2|0:2,0:2:0:0:
294,175,10538,6,0,P|282:207|270:247,1,53.9999983520508,0|0,3:2|0:2,0:2:0:0:
282,336,10709,6,0,B|303:281|249:224|240:252|177:205|229:113,1,216,12|0,3:2|0:2,0:2:0:0:
353,72,11052,6,0,B|384:121|384:121|166:54,1,270,6|0,3:2|0:2,0:2:0:0:
52,157,11395,1,8,0:2:0:0:
69,152,11481,1,0,0:2:0:0:
87,147,11566,2,0,L|140:130,1,45,0|0,0:2|0:2,0:2:0:0:
70,21,11738,6,0,B|105:139|105:139|118:146|118:146|155:283,1,270,2|0,3:2|0:2,0:2:0:0:
45,317,12081,2,0,P|28:269|53:314,1,135.000005149842,8|0,0:2|0:2,0:2:0:0:
136,357,12338,5,0,0:2:0:0:
136,357,12423,6,0,B|183:370|208:331|198:329|220:279|275:295,1,161.999995056153,0|0,3:2|0:2,0:2:0:0:
457,368,12766,1,8,0:2:0:0:
385,299,12938,1,0,0:2:0:0:
486,228,13109,5,2,3:2:0:0:
486,228,13195,1,2,0:2:0:0:
486,228,13281,2,0,L|496:289,1,53.9999983520508,2|2,0:2|0:2,0:2:0:0:
324,374,13452,1,10,0:2:0:0:
340,149,13623,1,2,0:2:0:0:
340,149,13709,1,2,0:2:0:0:
340,149,13795,6,0,B|322:169|318:200|318:200|381:141|468:141|468:141|424:156|408:193,1,270,2|0,3:2|0:2,0:2:0:0:
352,40,14138,6,0,P|372:65|384:86,1,45,8|0,0:2|0:2,0:2:0:0:
440,24,14309,2,0,P|454:52|462:75,1,45,0|0,0:2|0:2,0:2:0:0:
282,90,14481,6,0,B|232:15|143:45|143:45|144:120|80:138,1,270,2|0,3:2|0:2,0:2:0:0:
23,78,14823,2,0,B|5:49|5:49|50:19|50:19|22:39|23:72,1,135.000005149842,8|0,0:2|0:2,0:2:0:0:
10,172,15081,5,0,0:2:0:0:
10,172,15166,6,0,P|58:213|52:272,1,107.999996704102,0|0,3:2|0:2,0:2:0:0:
16,322,15423,1,0,0:2:0:0:
16,322,15509,1,8,0:2:0:0:
201,133,15681,6,0,L|189:206,1,53.9999983520508,0|0,0:2|0:2,0:2:0:0:
142,269,15852,1,0,3:2:0:0:
140,256,15938,1,0,0:2:0:0:
137,242,16023,1,0,0:2:0:0:
277,374,16195,1,8,0:2:0:0:
92,329,16366,1,0,0:2:0:0:
89,343,16451,1,0,0:2:0:0:
86,355,16538,6,0,B|178:386|216:323|199:306|241:216|348:254,1,270,2|0,3:2|0:2,0:2:0:0:
393,260,16881,6,0,P|380:288|340:302,1,45,8|0,0:2|0:2,0:2:0:0:
399,371,17052,2,0,P|369:379|333:357,1,45,0|0,0:2|0:2,0:2:0:0:
82,236,17223,6,0,B|174:224|193:325|193:325|198:320|198:320|226:374|281:375,1,270,2|0,3:2|0:2,0:2:0:0:
480,264,17566,6,0,P|454:191|396:176,1,135.000005149842,8|2,0:2|0:2,0:2:0:0:
361,179,17823,1,2,0:2:0:0:
361,179,17909,5,2,3:2:0:0:
206,267,18081,1,2,0:2:0:0:
161,39,18252,2,0,P|179:107|196:172,1,107.999996704102,10|2,0:2|0:2,0:2:0:0:
217,179,18509,1,2,0:2:0:0:
217,179,18595,5,2,3:2:0:0:
63,286,18767,1,2,0:2:0:0:
237,367,18938,1,10,0:2:0:0:
268,363,19023,1,2,0:2:0:0:
299,358,19109,1,2,0:2:0:0:
331,354,19195,1,2,0:2:0:0:
358,349,19281,6,0,P|371:276|336:231,1,107.999996704102,2|0,3:2|0:0,0:2:0:0:
239,186,19623,1,8,0:2:0:0:
155,280,19795,1,2,0:2:0:0:
139,281,19880,1,2,0:2:0:0:
122,280,19966,6,0,P|96:211|132:164,2,107.999996704102,2|2|10,3:2|0:2|0:2,0:2:0:0:
42,58,20481,1,2,0:2:0:0:
44,74,20566,1,2,0:2:0:0:
47,91,20652,6,0,P|71:107|149:82,1,107.999996704102,2|2,3:2|0:2,0:2:0:0:
244,2,20995,1,10,0:2:0:0:
389,142,21166,1,2,0:2:0:0:
389,142,21252,1,2,0:2:0:0:
389,142,21338,1,2,3:2:0:0:
226,229,21509,1,2,0:2:0:0:
279,122,21681,1,10,0:2:0:0:
435,281,21852,5,2,0:2:0:0:
434,299,21938,1,2,0:2:0:0:
435,316,22023,6,0,B|356:329|404:371|309:379,2,135.000005149842,14|2|10,3:2|0:2|0:2,0:2:0:0:
313,229,22538,5,2,0:2:0:0:
312,211,22624,1,2,0:2:0:0:
313,194,22709,2,0,B|234:181|282:139|187:131,2,135.000005149842,10|2|10,3:2|0:2|0:2,0:2:0:0:
160,282,23223,5,2,0:2:0:0:
159,300,23309,1,2,0:2:0:0:
160,317,23394,2,0,B|81:330|129:372|34:380,1,135.000005149842,10|2,3:2|0:2,0:2:0:0:
238,273,23738,1,10,0:2:0:0:
88,154,23909,5,2,0:2:0:0:
88,154,23995,1,2,0:2:0:0:
88,154,24081,1,10,3:2:0:0:
211,37,24252,1,2,0:2:0:0:
44,171,24423,1,10,0:2:0:0:
238,273,24595,1,2,0:2:0:0:
238,273,24681,1,2,0:2:0:0:
238,273,24766,6,0,L|217:205,1,67.5000025749208,8|2,3:2|0:2,0:2:0:0:
184,123,24938,1,2,0:2:0:0:
272,352,25109,1,8,0:2:0:0:
426,242,25281,5,2,0:2:0:0:
428,225,25366,1,2,0:2:0:0:
429,210,25452,2,0,P|375:170|310:202,2,135.000005149842,10|2|10,3:2|0:2|0:2,0:2:0:0:
238,273,25966,5,2,0:2:0:0:
240,290,26051,1,2,0:2:0:0:
241,305,26137,2,0,P|187:345|122:313,2,135.000005149842,10|2|10,3:2|0:2|0:2,0:2:0:0:
58,206,26652,5,2,0:2:0:0:
56,223,26737,1,2,0:2:0:0:
54,239,26823,1,10,3:2:0:0:
214,169,26995,1,2,0:2:0:0:
212,152,27080,1,2,0:2:0:0:
208,136,27166,6,0,B|128:123|169:80|85:54,1,135.000005149842,8|0,0:2|0:2,0:2:0:0:
338,9,27509,6,0,L|292:52,1,45,10|2,0:2|0:2,0:2:0:0:
307,123,27681,2,0,L|291:61,1,45,10|0,0:2|0:2,0:2:0:0:
223,39,27852,2,0,L|283:56,1,45,8|0,0:2|0:2,0:2:0:0:
406,191,28023,1,10,0:2:0:0:
406,191,28109,1,2,0:2:0:0:
406,191,28195,6,0,P|376:177|361:152,1,45,10|0,0:2|0:2,0:2:0:0:
312,244,28366,2,0,P|298:213|302:185,1,45,10|0,0:2|0:2,0:2:0:0:
205,224,28538,2,0,P|213:192|235:172,1,45,8|0,0:2|0:2,0:2:0:0:
145,101,28709,1,10,0:2:0:0:
145,101,28795,1,2,0:2:0:0:
145,101,28881,6,0,P|121:109|94:117,1,45,10|0,0:2|0:2,0:2:0:0:
67,186,29052,2,0,P|72:161|78:133,1,45,10|0,0:2|0:2,0:2:0:0:
32,75,29223,2,0,P|50:91|71:111,1,45,8|0,0:2|0:2,0:2:0:0:
0,274,29395,1,10,0:2:0:0:
0,274,29481,1,2,0:2:0:0:
0,274,29566,6,0,P|29:260|67:250,1,45,10|0,0:2|0:2,0:2:0:0:
4,285,29738,2,0,P|33:271|71:261,1,45,10|0,0:2|0:2,0:2:0:0:
96,337,29909,2,0,P|125:351|163:361,1,45,8|0,0:2|0:2,0:2:0:0:
100,326,30081,2,0,P|129:340|167:350,1,45,10|2,0:2|0:2,0:2:0:0:
299,314,30252,5,10,0:2:0:0:
319,287,30337,1,8,0:2:0:0:
323,254,30423,1,10,0:2:0:0:
309,223,30509,1,8,0:2:0:0:
280,205,30595,1,8,0:2:0:0:
260,178,30680,1,8,0:2:0:0:
256,145,30766,1,10,0:2:0:0:
270,114,30852,1,10,0:2:0:0:
299,96,30938,6,0,L|305:153,3,45,10|8|10|8,0:2|0:2|0:2|0:2,0:2:0:0:
226,203,31281,2,0,L|213:159,1,45,8|8,0:2|0:2,0:2:0:0:
155,273,31452,1,10,0:2:0:0:
155,273,31538,1,10,0:2:0:0:
155,273,31623,6,0,L|124:208,1,62.9999980773926,2|0,3:2|0:2,0:2:0:0:
60,171,31966,6,0,L|20:132,1,41.9999987182618,0|0,0:2|0:2,0:2:0:0:
131,134,32138,2,0,L|123:78,1,41.9999987182618,0|0,0:2|0:2,0:2:0:0:
40,54,32309,1,0,0:2:0:0:
55,254,32481,1,0,0:2:0:0:
335,93,32652,6,0,P|325:131|317:179,1,62.9999980773926,8|0,0:2|0:2,0:2:0:0:
264,236,32823,2,0,P|274:274|282:322,1,62.9999980773926,8|0,0:2|0:2,0:2:0:0:
333,363,32995,6,0,L|392:351,2,45,6|2|2,0:2|0:2|0:2,0:2:0:0:
410,381,33509,2,0,P|416:338|437:285,1,90,2|2,0:2|0:2,0:2:0:0:
432,294,34023,1,2,0:2:0:0:
344,240,34195,2,0,P|338:197|317:144,1,90,2|2,0:2|0:2,0:2:0:0:
321,153,34709,1,2,0:2:0:0:
407,79,34881,5,2,0:2:0:0:
378,99,35052,1,2,0:2:0:0:
351,79,35223,1,2,0:2:0:0:
362,46,35396,1,2,0:2:0:0:
395,47,35566,1,2,0:2:0:0:
269,88,35738,6,0,P|235:74|211:68,2,45,2|2|2,0:2|0:2|0:2,0:2:0:0:
166,14,36252,2,0,P|188:49|208:113,1,90,2|2,0:2|0:2,0:2:0:0:
204,94,36766,1,2,0:2:0:0:
133,152,36938,2,0,P|111:187|91:251,1,90,2|2,0:2|0:2,0:2:0:0:
94,232,37452,1,2,0:2:0:0:
183,370,37623,5,2,0:2:0:0:
165,329,37794,1,2,0:2:0:0:
127,306,37965,1,2,0:2:0:0:
83,310,38137,1,2,0:2:0:0:
50,339,38308,1,2,0:2:0:0:
179,235,38481,6,0,P|208:249|226:257,2,45,2|2|2,0:2|0:2|0:2,0:2:0:0:
239,290,38995,2,0,P|280:270|339:260,1,90,2|2,0:2|0:2,0:2:0:0:
323,260,39509,1,2,0:2:0:0:
407,198,39681,2,0,P|448:218|507:228,1,90,2|2,0:2|0:2,0:2:0:0:
491,227,40195,1,2,0:2:0:0:
453,338,40366,5,2,0:2:0:0:
424,358,40537,1,2,0:2:0:0:
397,338,40708,1,2,0:2:0:0:
408,305,40881,1,2,0:2:0:0:
441,306,41051,1,2,0:2:0:0:
270,363,41223,6,0,P|262:326|250:307,2,45,2|2|2,0:2|0:2|0:2,0:2:0:0:
332,282,41738,2,0,P|332:244|365:180,1,90,2|2,0:2|0:2,0:2:0:0:
351,196,42252,1,2,0:2:0:0:
295,138,42423,1,2,0:2:0:0:
423,30,42595,6,0,P|413:75|405:114,1,72,2|0,0:2|0:2,0:2:0:0:
433,140,42852,1,0,0:2:0:0:
433,140,42938,1,2,0:2:0:0:
342,40,43109,2,0,L|306:30,1,36,2|0,0:2|0:2,0:2:0:0:
96,55,43281,5,0,3:2:0:0:
80,71,43366,1,0,3:2:0:0:
68,115,43452,1,0,3:2:0:0:
95,155,43538,1,0,3:2:0:0:
165,146,43623,6,0,P|157:120|135:92,1,36,2|0,3:2|3:2,0:2:0:0:
231,26,43795,2,0,P|223:51|201:79,1,36,2|0,3:2|3:2,0:2:0:0:
137,211,43966,6,0,P|153:261|164:308,1,90,14|2,0:2|0:2,0:2:0:0:
56,214,44309,1,10,0:2:0:0:
158,376,44481,2,0,B|201:396|238:347|234:337|224:334|262:278|321:306,1,180,2|2,0:2|0:2,0:2:0:0:
458,346,44995,1,10,0:2:0:0:
424,216,45166,2,0,P|398:269|363:392,1,180,2|2,0:2|0:2,0:2:0:0:
237,239,45681,1,10,0:2:0:0:
405,132,45852,5,2,0:2:0:0:
344,194,46023,1,10,0:2:0:0:
268,45,46195,1,2,0:2:0:0:
322,110,46366,1,10,0:2:0:0:
169,182,46538,1,2,0:2:0:0:
261,213,46709,6,0,P|250:169|239:126,2,90,10|2|10,0:2|0:2|0:2,0:2:0:0:
97,94,47223,2,0,B|122:95|146:122|146:122|173:83|176:38|143:7,1,180,2|2,0:2|0:2,0:2:0:0:
0,198,47738,1,10,0:2:0:0:
139,4,47909,2,0,P|79:77|70:166,1,180,2|2,0:2|0:2,0:2:0:0:
182,317,48423,1,10,0:2:0:0:
290,169,48595,5,2,0:2:0:0:
213,216,48766,1,10,0:2:0:0:
339,336,48938,1,2,0:2:0:0:
287,258,49109,1,10,0:2:0:0:
388,123,49281,1,2,0:2:0:0:
454,193,49452,6,0,P|397:205|347:220,2,90,10|2|10,0:2|0:2|0:2,0:2:0:0:
322,59,49966,2,0,B|267:36|223:72|223:72|207:129|165:134,1,180,2|2,0:2|0:2,0:2:0:0:
298,152,50481,1,10,0:2:0:0:
145,208,50652,2,0,P|104:170|140:55,1,180,2|2,0:2|0:2,0:2:0:0:
230,197,51166,1,10,0:2:0:0:
55,305,51338,5,2,0:2:0:0:
122,247,51509,1,10,0:2:0:0:
254,369,51681,1,2,0:2:0:0:
328,304,51852,1,10,0:2:0:0:
230,197,52023,1,2,0:2:0:0:
162,317,52195,6,0,P|207:300|264:283,2,90,10|2|10,0:2|0:2|0:2,0:2:0:0:
400,334,52709,2,0,B|418:292|385:244|367:260|333:210|347:168,1,180,2|2,0:2|0:2,0:2:0:0:
459,20,53223,1,10,0:2:0:0:
436,180,53395,2,0,P|423:120|294:95,1,180,2|2,0:2|0:2,0:2:0:0:
230,197,53909,1,10,0:2:0:0:
139,31,54081,5,2,0:2:0:0:
215,87,54252,1,10,0:2:0:0:
125,205,54423,2,0,L|139:105,2,90,2|10|2,0:2|0:2|0:2,0:2:0:0:
371,377,54938,5,6,3:2:0:0:
175,261,55109,1,2,0:2:0:0:
373,153,55281,1,10,0:2:0:0:
279,309,55452,5,0,0:2:0:0:
248,239,55624,1,2,3:2:0:0:
306,189,55795,1,2,3:2:0:0:
369,229,55966,1,10,0:2:0:0:
352,301,56138,1,2,0:2:0:0:
54,268,56309,5,2,3:2:0:0:
230,163,56480,1,2,0:2:0:0:
51,66,56652,1,10,0:2:0:0:
132,200,56823,5,0,0:2:0:0:
154,149,56995,1,2,3:2:0:0:
112,114,57166,1,2,3:2:0:0:
67,142,57337,1,10,0:2:0:0:
79,194,57509,1,2,0:2:0:0:
369,186,57681,5,2,3:2:0:0:
210,91,57852,1,2,0:2:0:0:
370,4,58024,1,10,0:2:0:0:
304,118,58195,5,0,0:2:0:0:
287,80,58367,1,2,3:2:0:0:
317,56,58538,1,2,3:2:0:0:
350,76,58709,1,10,0:2:0:0:
341,113,58881,1,2,0:2:0:0:
150,80,59052,6,0,L|163:158,2,62.9999980773926,2|2|10,3:2|0:2|0:2,0:2:0:0:
42,147,59566,5,0,0:2:0:0:
29,118,59738,1,2,3:2:0:0:
51,101,59909,1,2,3:2:0:0:
75,115,60080,1,10,0:2:0:0:
69,142,60252,1,2,0:2:0:0:
233,154,60423,6,0,L|220:232,2,62.9999980773926,2|2|10,3:2|0:2|0:2,0:2:0:0:
364,210,60937,5,0,0:2:0:0:
374,186,61109,1,2,3:2:0:0:
356,173,61280,1,2,3:2:0:0:
337,184,61451,1,10,0:2:0:0:
342,206,61623,1,2,0:2:0:0:
143,232,61795,6,0,L|156:310,2,62.9999980773926,2|2|10,3:2|0:2|0:2,0:2:0:0:
33,312,62309,5,2,0:2:0:0:
25,294,62481,1,2,3:2:0:0:
38,284,62652,1,2,3:2:0:0:
53,293,62823,1,10,0:2:0:0:
49,309,62995,1,2,0:2:0:0:
213,379,63166,5,10,0:2:0:0:
243,387,63251,1,8,0:2:0:0:
273,381,63337,1,8,0:2:0:0:
297,361,63423,1,8,0:2:0:0:
310,333,63508,1,8,0:2:0:0:
322,304,63594,1,8,0:2:0:0:
346,284,63680,1,8,0:2:0:0:
377,278,63766,1,8,0:2:0:0:
407,287,63852,2,0,L|416:332,3,31.4999990386963,10|8|8|8,0:2|0:2|0:2|0:2,0:2:0:0:
480,218,64195,2,0,L|471:263,3,31.4999990386963,8|8|8|8,0:2|0:2|0:2|0:2,0:2:0:0:
378,88,64538,6,0,P|381:77|381:93,1,54,2|0,3:2|0:0,0:2:0:0:
449,146,64881,2,0,P|342:112|282:101,1,148.50000453186,0|0,0:2|0:0,0:0:0:0:
268,117,65223,1,0,0:2:0:0:
238,230,65395,6,0,L|248:191,1,31.4999990386963,0|0,3:2|0:0,0:0:0:0:
201,31,65566,2,0,L|211:70,1,31.4999990386963,8|0,0:2|0:0,0:0:0:0:
183,37,65738,2,0,L|193:76,1,31.4999990386963,0|0,3:2|0:0,0:0:0:0:
49,97,65909,6,0,B|19:100|-1:70|-1:70|117:63|165:186,1,270,6|0,3:2|0:2,0:2:0:0:
62,273,66252,6,0,B|36:223|36:223|89:167,1,112.5,2|0,3:2|0:2,0:2:0:0:
74,182,66423,2,0,B|62:233|62:233|54:237|54:237|43:312,1,112.5,2|0,0:2|0:2,0:2:0:0:
40,362,66595,6,0,B|79:367|109:351|123:318|117:311|106:306|127:253|169:241|225:253,1,202.500007724762,2|0,3:2|0:2,0:2:0:0:
258,384,66938,6,0,L|271:280,2,90.0000034332277,0|0|0,3:2|3:2|3:2,0:0:0:0:
192,328,67281,6,0,B|265:339|265:339|283:366|283:366|383:380,1,180,0|2,3:2|0:2,0:2:0:0:
480,162,67623,5,2,3:2:0:0:
449,170,67708,1,0,0:2:0:0:
427,192,67794,1,0,0:2:0:0:
419,223,67880,1,0,0:2:0:0:
348,216,67966,5,2,3:2:0:0:
339,246,68051,1,0,0:2:0:0:
347,276,68137,1,0,0:2:0:0:
369,300,68223,1,0,0:2:0:0:
477,340,68309,6,0,P|460:310|449:282,1,45,2|2,3:2|0:2,0:2:0:0:
492,225,68481,2,0,P|508:195|519:167,1,45,2|2,0:2|0:2,0:2:0:0:
422,54,68652,6,0,B|457:45|496:68|496:68|407:61|313:129,1,270,2|0,3:2|0:2,0:2:0:0:
184,49,68995,6,0,B|187:30|187:30|216:141,1,112.5,2|0,3:2|0:2,0:2:0:0:
210,120,69166,2,0,B|187:92|187:92|219:-8,1,112.5,2|0,0:2|0:2,0:2:0:0:
295,27,69338,6,0,L|214:272,1,202.500007724762,2|0,3:2|0:2,0:2:0:0:
132,341,69681,2,0,L|118:248,2,90.0000034332277,0|0|0,3:2|3:2|3:2,0:0:0:0:
196,286,70023,6,0,B|57:309|57:309|45:239,1,180,0|2,3:2|0:2,0:2:0:0:
157,371,70366,5,2,3:2:0:0:
192,364,70451,1,0,0:2:0:0:
228,357,70537,1,0,0:2:0:0:
264,350,70623,1,0,0:2:0:0:
340,326,70709,6,0,B|362:302|414:329|372:413|294:373|228:295|299:136|439:162,1,337.5,2|0,3:2|0:2,0:2:0:0:
512,216,71052,6,0,L|469:208,6,33.7500012874604,2|2|2|2|2|2|2,3:2|0:2|0:2|0:2|0:2|0:2|0:2,0:2:0:0:
449,340,71395,6,0,B|456:312|438:265|395:249|395:249|422:79,1,270,2|0,3:2|0:2,0:2:0:0:
468,2,71738,6,0,B|484:8|484:8|378:26,1,112.5,2|0,3:2|0:2,0:2:0:0:
389,23,71909,2,0,B|440:0|440:0|502:63,1,112.5,2|0,0:2|0:2,0:2:0:0:
512,133,72081,6,0,L|289:96,1,202.500007724762,2|0,3:2|0:2,0:2:0:0:
238,87,72423,6,0,L|149:73,2,90.0000034332277,0|0|0,3:2|3:2|3:2,0:0:0:0:
223,1,72766,6,0,B|217:52|217:52|238:87|238:87|210:117|210:117|204:180,1,180,0|2,3:2|0:2,0:2:0:0:
8,203,73109,5,2,3:2:0:0:
20,164,73195,1,0,0:2:0:0:
51,137,73281,1,0,0:2:0:0:
91,130,73366,1,0,0:2:0:0:
125,153,73452,2,0,P|103:183|97:219,1,45,0|0,3:2|0:2,0:2:0:0:
23,67,73623,6,0,P|13:46|-1:28,1,45,2|0,0:2|0:2,0:2:0:0:
176,216,73795,5,2,3:2:0:0:
172,243,73880,1,0,0:2:0:0:
169,271,73966,1,0,0:2:0:0:
166,299,74052,1,0,0:2:0:0:
181,368,74138,6,0,B|157:373|125:387|125:387|200:307|323:294,1,270,2|0,3:2|0:2,0:2:0:0:
458,312,74481,2,0,B|402:324|380:272|394:269|383:213|303:218,1,180,2|0,3:2|0:2,0:2:0:0:
208,184,74738,5,0,0:2:0:0:
208,184,74823,6,0,P|239:216|249:259,1,67.5000025749208,2|0,3:2|0:2,0:2:0:0:
340,384,74995,2,0,P|335:371|342:385,1,67.5000025749208,2|0,0:2|0:2,0:2:0:0:
460,237,75166,6,0,P|477:179|504:132,1,90,2|0,3:2|0:2,0:2:0:0:
274,55,75509,6,0,P|284:86|290:115,1,45,6|0,3:2|0:2,0:2:0:0:
356,81,75681,2,0,P|350:59|343:37,1,45,2|0,0:2|0:2,0:2:0:0:
194,56,75852,6,0,P|204:25|210:-4,1,45,2|0,0:2|0:2,0:2:0:0:
437,81,76024,2,0,P|431:102|424:124,1,45,2|0,0:2|0:2,0:2:0:0:
353,161,76195,5,2,0:2:0:0:
79,68,76366,6,0,P|115:94|120:148,1,90,2|0,3:2|0:2,0:2:0:0:
222,293,76538,2,0,P|182:311|141:296,1,90,10|0,0:2|0:2,0:2:0:0:
216,139,76709,2,0,P|211:182|178:211,1,90,2|0,3:2|0:2,0:2:0:0:
82,227,76881,6,0,B|166:218|204:310|204:310|215:302|215:302|242:360|315:344,1,270,6|0,3:2|0:2,0:2:0:0:
480,231,77223,6,0,B|473:206|473:206|406:188|406:188|377:216,1,112.5,10|0,0:2|0:2,0:2:0:0:
290,264,77395,2,0,B|341:253|341:253|349:248|349:248|419:235,1,112.5,2|0,0:2|0:2,0:2:0:0:
416,316,77566,6,0,B|430:261|377:216|361:231|311:193|338:118,1,202.500007724762,2|0,3:2|0:2,0:2:0:0:
382,50,77910,5,8,3:2:0:0:
459,36,78024,1,0,3:2:0:0:
502,99,78138,1,0,3:0:0:0:
429,107,78252,6,0,B|411:78|411:78|253:59,1,180,0|2,3:2|0:2,0:2:0:0:
151,166,78595,5,10,0:2:0:0:
149,197,78680,1,0,0:2:0:0:
163,225,78766,1,0,0:2:0:0:
189,242,78852,1,0,0:2:0:0:
261,225,78938,5,2,3:2:0:0:
278,199,79023,1,0,0:2:0:0:
280,167,79109,1,0,0:2:0:0:
266,140,79195,1,0,0:2:0:0:
196,93,79281,6,0,P|201:71|209:50,1,45,10|2,0:2|0:2,0:2:0:0:
45,165,79452,2,0,P|37:143|31:122,1,45,2|2,0:2|0:2,0:2:0:0:
0,18,79623,6,0,B|80:71|66:172|66:172|18:187|5:246,1,270,2|0,3:2|0:2,0:2:0:0:
103,343,79966,6,0,B|123:288|123:288|67:227,1,112.5,10|0,0:2|0:2,0:2:0:0:
86,248,80138,2,0,B|99:300|99:300|110:310|110:310|122:371,1,112.5,2|0,0:2|0:2,0:2:0:0:
201,261,80309,6,0,P|223:162|256:66,1,202.500007724762,2|0,3:2|0:2,0:2:0:0:
364,7,80653,5,8,3:2:0:0:
410,66,80767,1,0,3:2:0:0:
385,137,80881,1,0,3:2:0:0:
335,79,80995,6,0,B|370:38|425:51|425:51|433:108|477:113,1,180,0|2,3:2|0:2,0:2:0:0:
312,151,81338,5,10,0:2:0:0:
303,194,81423,1,0,0:2:0:0:
322,233,81509,1,0,0:2:0:0:
362,254,81595,1,0,0:2:0:0:
430,224,81681,6,0,B|483:204|518:252|442:313|403:285|361:209|370:205|378:202|353:129|276:129|230:166,1,337.5,2|0,3:2|0:2,0:2:0:0:
225,271,82023,6,0,L|257:263,6,33.7500012874604,10|2|2|2|2|2|2,0:2|0:2|0:2|0:2|0:2|0:2|0:2,0:2:0:0:
278,339,82366,6,0,B|234:225|105:226|105:226|125:242|142:270,1,270,2|0,3:2|0:2,0:2:0:0:
214,384,82709,6,0,B|203:373|203:373|123:362|123:362|98:332,1,112.5,10|0,3:2|0:2,0:2:0:0:
112,349,82881,2,0,B|93:355|93:355|208:331,1,112.5,2|0,0:2|0:2,0:2:0:0:
0,384,83052,6,0,P|16:305|41:155,1,202.500007724762,2|0,3:2|0:2,0:2:0:0:
127,56,83395,5,8,3:2:0:0:
156,125,83509,1,0,3:2:0:0:
112,187,83623,1,0,3:2:0:0:
81,117,83738,6,0,B|159:130|159:130|173:157|173:157|255:171,1,180,0|2,3:2|0:2,0:2:0:0:
376,47,84081,5,10,3:2:0:0:
341,25,84167,1,0,0:2:0:0:
300,25,84253,1,0,0:2:0:0:
265,44,84338,1,0,0:2:0:0:
254,83,84424,2,0,P|290:91|317:115,1,45,0|0,3:2|0:2,0:2:0:0:
458,68,84595,6,0,P|448:88|434:106,1,45,2|0,0:2|0:2,0:2:0:0:
363,160,84767,5,10,3:2:0:0:
367,187,84852,1,0,0:2:0:0:
370,215,84938,1,0,0:2:0:0:
373,243,85024,1,0,0:2:0:0:
413,305,85110,6,0,B|387:274|353:278|353:278|413:232|502:268|518:358,1,270,2|0,3:2|0:2,0:2:0:0:
395,384,85452,2,0,P|297:335|199:297,1,180,10|0,0:2|0:2,0:2:0:0:
179,171,85710,5,0,0:2:0:0:
179,171,85795,6,0,P|190:204|200:239,1,67.5000025749208,2|0,3:2|0:2,0:2:0:0:
140,364,85966,2,0,P|140:325|174:283,1,67.5000025749208,2|0,0:2|0:2,0:2:0:0:
282,238,86138,6,0,P|298:178|322:132,1,90,10|0,0:2|0:2,0:2:0:0:
145,20,86481,6,0,P|137:46|141:85,1,45,6|0,3:2|0:2,0:2:0:0:
68,110,86652,2,0,P|86:129|122:145,1,45,2|0,0:2|0:2,0:2:0:0:
107,221,86823,2,0,P|133:214|165:191,1,45,2|0,0:2|0:2,0:2:0:0:
193,137,86995,1,2,0:2:0:0:
193,137,87081,1,0,0:2:0:0:
193,137,87166,1,2,0:2:0:0:
273,337,87338,6,0,P|320:345|362:300,1,90,2|0,3:2|0:2,0:2:0:0:
382,243,87509,2,0,P|365:198|305:184,1,90,10|0,0:2|0:2,0:2:0:0:
246,195,87681,2,0,P|215:231|233:290,1,90,2|0,3:2|0:2,0:2:0:0:
483,167,87852,6,0,B|421:145|371:201|394:221|360:280|301:262,1,225,6|0,3:2|0:2,0:2:0:0:
293,255,88109,1,2,0:2:0:0:
293,255,88195,2,0,P|333:212|376:222,1,90,10|0,0:2|0:2,0:2:0:0:
508,244,88366,5,2,0:2:0:0:
474,311,88452,2,0,P|462:266|449:212,1,67.5000025749208,2|0,0:2|3:2,0:2:0:0:
363,128,88623,5,2,0:2:0:0:
417,78,88709,2,0,P|409:110|402:144,1,67.5000025749208,2|0,0:2|0:2,0:2:0:0:
261,80,88881,6,0,P|292:47|334:40,1,90,10|0,0:2|0:2,0:2:0:0:
243,168,89052,2,0,L|185:182,2,60,2|2|2,0:2|0:2|0:2,0:2:0:0:
308,225,89223,6,0,B|266:239|229:224|206:183|216:173|224:166|196:128|140:107|75:162,1,225,2|0,3:2|0:2,0:2:0:0:
29,31,89481,2,0,P|90:143|131:262,1,225,2|0,0:2|0:2,0:2:0:0:
0,365,89738,2,0,P|17:311|92:289,1,112.5,2|0,0:2|0:2,0:2:0:0:
224,336,89909,5,2,3:2:0:0:
162,384,89995,2,0,P|118:356|59:376,1,90,2|0,0:2|0:2,0:2:0:0:
10,193,90166,6,0,P|33:206|8:196,1,67.5000025749208,2|8,0:2|0:2,0:2:0:0:
123,234,90338,5,2,0:2:0:0:
123,234,90423,2,0,P|159:211|206:215,1,67.5000025749208,2|0,0:2|0:2,0:2:0:0:
316,301,90595,6,0,B|331:324|367:331|367:331|258:360|232:242,1,225,2|0,3:2|0:2,0:2:0:0:
260,187,90852,1,2,0:2:0:0:
260,187,90938,2,0,P|303:205|352:231,1,90,10|0,0:2|0:2,0:2:0:0:
491,308,91109,5,2,0:2:0:0:
451,368,91195,2,0,L|438:294,1,67.5000025749208,2|0,0:2|3:2,0:2:0:0:
381,163,91366,5,2,0:2:0:0:
421,223,91452,2,0,L|434:149,1,67.5000025749208,2|0,0:2|0:2,0:2:0:0:
457,8,91623,6,0,P|487:49|482:104,1,90,10|0,0:2|0:2,0:2:0:0:
312,61,91795,2,0,L|301:3,2,60,2|2|2,0:2|0:2|0:2,0:2:0:0:
400,77,91966,6,0,B|322:64|288:137|288:137|284:133|284:133|256:177|205:167,1,225,2|0,3:2|0:2,0:2:0:0:
102,40,92223,2,0,B|116:-36|213:-9|203:64|148:129,1,225,2|2,0:2|0:2,0:2:0:0:
126,251,92481,2,0,P|133:229|142:209,1,45,2|2,0:2|0:2,0:2:0:0:
20,39,92652,5,2,3:2:0:0:
56,109,92738,2,0,P|44:153|35:198,1,90,2|0,0:2|0:2,0:2:0:0:
225,168,92909,6,0,P|241:179|219:172,1,67.5000025749208,2|8,0:2|0:2,0:2:0:0:
25,347,93081,5,2,0:2:0:0:
25,347,93166,2,0,P|13:304|6:268,1,67.5000025749208,2|0,0:2|0:2,0:2:0:0:
46,209,93338,6,0,B|110:199|137:271|120:284|166:342|234:311,1,225,6|0,3:2|0:2,0:2:0:0:
293,384,93595,1,2,0:2:0:0:
293,384,93681,2,0,P|301:335|321:274,1,90,10|0,0:2|0:2,0:2:0:0:
376,200,93852,5,2,0:2:0:0:
439,229,93938,2,0,L|359:244,1,67.5000025749208,2|0,0:2|3:2,0:2:0:0:
292,213,94109,5,2,0:2:0:0:
229,184,94195,2,0,L|309:169,1,67.5000025749208,2|0,0:2|0:2,0:2:0:0:
507,274,94367,6,0,P|477:307|419:308,1,90,10|0,0:2|0:2,0:2:0:0:
374,152,94538,2,0,L|364:78,2,60,2|2|2,0:2|0:2|0:2,0:2:0:0:
418,211,94709,6,0,B|431:157|368:105|353:131|280:86|318:-7,1,225,2|0,3:2|0:2,0:2:0:0:
458,0,94966,2,0,B|507:12|517:66|517:66|468:17|356:50,1,225,2|0,0:2|0:2,0:2:0:0:
140,65,95224,2,0,P|180:23|242:33,1,112.5,2|0,0:2|0:2,0:2:0:0:
296,133,95395,5,2,3:2:0:0:
237,191,95481,2,0,P|224:148|200:92,1,90,2|0,0:2|0:2,0:2:0:0:
2,76,95652,6,0,P|19:94|0:79,1,67.5000025749208,2|8,0:2|0:2,0:2:0:0:
142,159,95824,5,2,0:2:0:0:
142,159,95909,2,0,L|76:144,1,67.5000025749208,2|0,0:2|0:2,0:2:0:0:
79,6,96081,6,0,P|102:140|100:254,1,225,2|0,3:2|0:2,0:2:0:0:
36,298,96338,1,2,0:2:0:0:
36,298,96423,2,0,P|84:304|114:334,1,90,10|0,0:2|0:2,0:2:0:0:
236,268,96595,5,2,0:2:0:0:
176,221,96681,2,0,L|196:305,1,67.5000025749208,2|0,0:2|3:2,0:2:0:0:
348,333,96852,5,2,0:2:0:0:
288,380,96938,2,0,L|308:296,1,67.5000025749208,2|0,0:2|0:2,0:2:0:0:
237,146,97109,6,0,L|264:255,1,90,10|0,0:2|0:2,0:2:0:0:
426,313,97281,2,0,P|432:283|441:253,2,60,2|2|2,0:2|0:2|0:2,0:2:0:0:
489,376,97452,6,0,B|495:315|438:268|420:297|355:248|391:154,1,225,2|0,3:2|0:2,0:2:0:0:
435,129,97709,2,0,B|458:68|409:28|409:28|334:49|356:128,1,225,2|2,0:2|0:2,0:2:0:0:
464,207,97966,2,0,L|523:191,1,45,2|2,0:2|0:2,0:2:0:0:
389,371,98138,5,2,3:2:0:0:
323,318,98223,2,0,L|213:307,1,90,2|0,0:2|0:2,0:2:0:0:
145,151,98395,6,0,L|225:163,2,67.5000025749208,2|8|2,0:2|0:2|0:2,0:2:0:0:
302,131,98651,5,2,0:2:0:0:
301,152,98737,1,0,0:2:0:0:
270,235,98823,6,0,B|367:245|367:245|387:278|387:278|494:289,1,225,6|0,3:2|0:2,0:2:0:0:
512,377,99080,1,2,0:2:0:0:
512,377,99166,2,0,P|476:388|426:349,1,90,10|0,0:2|0:2,0:2:0:0:
394,157,99338,5,2,0:2:0:0:
458,201,99423,2,0,L|454:279,1,67.5000025749208,2|0,0:2|3:2,0:2:0:0:
351,364,99595,5,2,0:2:0:0:
285,328,99680,2,0,L|289:250,1,67.5000025749208,2|0,0:2|0:2,0:2:0:0:
433,49,99852,6,0,P|465:81|422:153,1,90,10|0,0:2|0:2,0:2:0:0:
326,191,100023,2,0,L|260:184,2,60,2|2|2,0:2|0:2|0:2,0:2:0:0:
357,280,100195,6,0,B|372:242|353:203|313:177|302:187|295:195|258:165|240:108|299:46,1,225,2|0,3:2|0:2,0:2:0:0:
433,49,100452,2,0,B|496:79|496:79|316:127,1,225,2|0,0:2|0:2,0:2:0:0:
233,25,100709,2,0,P|291:12|340:57,1,112.5,2|0,0:2|0:2,0:2:0:0:
212,207,100880,5,2,3:2:0:0:
140,172,100966,2,0,L|39:197,1,90,2|0,0:2|0:2,0:2:0:0:
133,65,101137,6,0,P|156:78|131:68,1,67.5000025749208,2|8,0:2|0:2,0:2:0:0:
39,44,101309,5,2,0:2:0:0:
39,44,101395,2,0,L|54:136,1,67.5000025749208,2|0,0:2|0:2,0:2:0:0:
0,285,101566,6,0,B|90:262|90:262|123:277|123:277|266:235,1,225,2|0,3:2|0:2,0:2:0:0:
354,350,101823,1,2,0:2:0:0:
354,350,101909,2,0,P|313:351|273:308,1,90,10|0,0:2|0:2,0:2:0:0:
298,228,102080,5,2,0:2:0:0:
348,176,102166,2,0,L|333:267,1,67.5000025749208,2|0,0:2|3:2,0:2:0:0:
464,133,102338,5,2,0:2:0:0:
414,81,102424,2,0,L|429:172,1,67.5000025749208,2|0,0:2|0:2,0:2:0:0:
500,263,102595,6,0,P|465:231|405:235,1,90,10|0,0:2|0:2,0:2:0:0:
177,130,102766,2,0,L|107:149,2,60,2|2|2,0:2|0:2|0:2,0:2:0:0:
348,176,102938,6,0,B|344:88|246:69|246:69|272:94|267:139,1,225,2|0,3:2|0:2,0:2:0:0:
328,0,103195,2,0,P|267:112|226:231,1,225,2|2,0:2|0:2,0:2:0:0:
198,384,103452,2,0,P|184:320|180:309,1,45,2|2,0:2|0:2,0:2:0:0:
110,289,103623,5,2,3:2:0:0:
82,254,103708,1,2,0:2:0:0:
86,210,103794,1,2,0:2:0:0:
119,181,103880,1,2,0:2:0:0:
177,130,103966,5,8,0:2:0:0:
205,95,104051,1,2,0:2:0:0:
201,51,104137,1,2,0:2:0:0:
168,22,104223,1,2,0:2:0:0:
114,86,104309,6,0,B|154:60|213:74|231:130|226:134|219:141|243:190|298:204|368:154,1,270,10|0,3:2|0:2,0:2:0:0:
400,118,104652,2,0,B|423:77|462:71|462:71|395:34|346:98,1,202.500007724762,10|0,0:2|0:2,0:2:0:0:
462,190,104995,6,0,P|475:161|471:128,1,45,10|0,0:2|0:2,0:2:0:0:
394,232,105166,2,0,P|412:257|443:270,1,45,2|0,0:2|0:2,0:2:0:0:
302,211,105338,6,0,P|326:272|337:315,1,90,10|0,0:2|0:2,0:2:0:0:
381,354,105595,1,2,0:2:0:0:
381,354,105681,6,0,P|308:320|239:300,1,135.000005149842,10|0,0:2|0:2,0:2:0:0:
214,226,105938,2,0,P|141:260|72:280,1,135.000005149842,2|0,0:2|0:2,0:2:0:0:
23,338,106195,1,2,0:2:0:0:
67,75,106366,5,10,0:2:0:0:
38,55,106452,2,0,L|58:129,1,67.5000025749208,2|0,0:2|0:2,0:2:0:0:
134,224,106623,2,0,L|122:146,1,67.5000025749208,2|8,0:2|0:2,0:2:0:0:
175,66,106795,1,2,0:2:0:0:
203,43,106881,2,0,L|183:117,1,67.5000025749208,2|0,0:2|0:2,0:2:0:0:
12,213,107052,5,10,0:2:0:0:
53,195,107137,1,8,0:2:0:0:
97,200,107223,1,8,0:2:0:0:
134,224,107309,1,8,0:2:0:0:
156,263,107394,1,8,0:2:0:0:
177,301,107481,1,8,0:2:0:0:
214,326,107567,1,8,0:2:0:0:
259,330,107653,1,8,0:2:0:0:
300,313,107738,5,10,0:2:0:0:
268,281,107823,1,8,0:2:0:0:
257,238,107909,1,8,0:2:0:0:
270,196,107995,1,8,0:2:0:0:
303,166,108080,1,8,0:2:0:0:
347,158,108166,1,8,0:2:0:0:
389,175,108252,1,8,0:2:0:0:
416,210,108338,1,8,0:2:0:0:
420,254,108423,6,0,P|368:271|313:308,1,90,0|0,3:2|0:2,0:2:0:0:
193,316,108681,1,0,0:2:0:0:
193,316,108766,2,0,P|188:345|185:379,1,45,8|0,0:2|0:2,0:2:0:0:
262,375,108938,2,0,P|266:351|270:330,1,45,0|0,0:2|0:2,0:2:0:0:
111,300,109109,1,0,0:2:0:0:
253,100,109281,6,0,P|211:128|202:187,1,90,0|0,3:2|0:2,0:2:0:0:
245,248,109452,6,0,P|158:182|72:203,2,180,8|0|0,0:2|3:2|3:2,0:2:0:0:
256,192,109881,12,0,113909,0:2:0:0:
