osu file format v14

[General]
AudioFilename: audio.mp3
AudioLeadIn: 0
PreviewTime: 50229
Countdown: 0
SampleSet: Soft
StackLeniency: 0.5
Mode: 0
LetterboxInBreaks: 0
WidescreenStoryboard: 1

[Editor]
Bookmarks: 12126,42876,56751,62001
DistanceSpacing: 1
BeatDivisor: 4
GridSize: 4
TimelineZoom: 1

[Metadata]
Title:Artificial Chariot
TitleUnicode:Artificial Chariot
Artist:Riya
ArtistUnicode:Riya
Creator:Fall
Version:Normal
Source:A Dance of Fire and Ice
Tags:hardstyle electronic video game instrumental _tranquility
BeatmapID:2364270
BeatmapSetID:1131887

[Difficulty]
HPDrainRate:4
CircleSize:3
OverallDifficulty:4
ApproachRate:6
SliderMultiplier:1.4
SliderTickRate:1

[Events]
//Background and Video events
0,0,"art char.jpg",0,0
//Break Periods
2,14479,25229
//Storyboard Layer 0 (Background)
//Storyboard Layer 1 (Fail)
//Storyboard Layer 2 (Pass)
//Storyboard Layer 3 (Foreground)
//Storyboard Layer 4 (Overlay)
//Storyboard Sound Samples

[TimingPoints]
779,375,4,2,0,60,1,0
26279,-133.333333333333,4,2,0,70,0,0
37904,-133.333333333333,4,2,0,100,0,0
38279,-100,4,2,0,90,0,0
38747,-100,4,2,0,5,0,0
38841,-100,4,2,0,90,0,0
39497,-100,4,2,0,5,0,0
39591,-100,4,2,0,90,0,0
40247,-100,4,2,0,5,0,0
40341,-100,4,2,0,90,0,0
40997,-100,4,2,0,5,0,0
41091,-100,4,2,0,90,0,0
42779,-100,4,2,0,100,0,0
44279,-100,4,2,0,75,0,0
45029,-100,4,2,0,90,0,0
46247,-100,4,2,0,5,0,0
46341,-100,4,2,0,90,0,0
46622,-100,4,2,0,5,0,0
46716,-100,4,2,0,90,0,0
47279,-100,4,2,0,95,0,0
48029,-100,4,2,0,100,0,0
50279,-100,4,2,0,85,0,0
68277,-100,4,2,0,90,0,0
71279,-100,4,2,0,85,0,0
74279,-100,4,2,0,95,0,1
86279,-133.333333333333,4,2,0,55,0,0

[Colours]
Combo1 : 255,0,0
Combo2 : 117,117,117
Combo3 : 192,192,192
Combo4 : 213,0,0

[HitObjects]
76,122,2279,6,0,P|120:109|216:113,1,140,2|2,0:0|0:0,0:0:0:0:
348,149,3029,1,2,0:0:0:0:
370,287,3404,1,2,0:0:0:0:
254,211,3779,6,0,L|258:355,1,140,2|2,0:0|0:0,0:0:0:0:
123,310,4529,2,0,L|125:178,2,105,2|2|2,0:0|0:0|0:0,0:0:0:0:
70,356,5279,6,0,P|28:332|-3:227,1,140,2|2,0:0|0:0,0:0:0:0:
69,132,6029,1,2,0:0:0:0:
6,6,6404,1,2,0:0:0:0:
141,39,6779,6,0,L|297:35,1,140,2|2,0:0|0:0,0:0:0:0:
325,168,7529,2,0,L|191:170,2,105,2|2|2,0:0|0:0|0:0,0:0:0:0:
392,187,8279,6,0,P|446:123|439:67,1,140,2|0,3:0|0:0,0:0:0:0:
402,50,8841,1,2,0:0:0:0:
402,50,9029,2,0,P|334:41|254:76,1,140,2|2,3:0|3:0,0:0:0:0:
127,23,9779,6,0,P|107:82|111:160,1,140,2|0,3:0|0:0,0:0:0:0:
140,206,10341,1,2,0:0:0:0:
140,206,10529,2,0,P|154:256|150:355,1,140,2|2,3:0|3:0,0:0:0:0:
263,348,11279,6,0,L|336:346,1,70,2|0,3:0|3:0,0:0:0:0:
361,297,11654,2,0,L|434:299,1,70,0|2,3:0|3:0,0:0:0:0:
475,332,12029,1,2,3:0:0:0:
502,223,12404,1,2,3:0:0:0:
448,124,12779,6,0,L|305:126,1,140,2|0,0:0|0:0,0:0:0:0:
200,127,13529,1,2,0:0:0:0:
200,127,13716,2,0,P|178:85|176:56,1,70,2|2,0:0|0:0,0:0:0:0:
78,7,14279,1,4,0:0:0:0:
49,169,26279,6,0,L|51:260,2,78.7500030040742,2|2|2,3:0|0:0|0:0,0:0:0:0:
127,139,27216,1,2,0:0:0:0:
127,139,27404,1,2,0:0:0:0:
202,176,27779,2,0,L|203:254,2,78.7500030040742,2|2|2,3:0|0:0|0:0,0:0:0:0:
280,146,28716,2,0,P|317:138|348:140,1,52.5000020027161,2|2,0:0|0:0,0:0:0:0:
371,151,29091,1,2,0:0:0:0:
371,151,29279,2,0,L|372:229,2,78.7500030040742,2|2|2,3:0|0:0|0:0,0:0:0:0:
426,245,32279,6,0,L|424:336,2,78.7500030040742,2|2|2,3:0|0:0|0:0,0:0:0:0:
348,215,33216,1,2,0:0:0:0:
348,215,33404,1,2,3:0:0:0:
273,252,33779,2,0,L|271:330,2,78.7500030040742,2|2|2,3:0|0:0|0:0,0:0:0:0:
195,222,34716,2,0,P|158:214|127:216,1,52.5000020027161,2|2,0:0|3:0,0:0:0:0:
104,227,35091,1,2,0:0:0:0:
104,227,35279,6,0,L|102:305,2,78.7500030040742,8|8|8,3:2|3:2|3:2,0:0:0:0:
75,196,36029,1,8,3:2:0:0:
49,116,36404,1,8,3:2:0:0:
79,37,36779,5,2,0:0:0:0:
191,93,37341,1,2,0:0:0:0:
310,52,37904,1,2,3:0:0:0:
437,108,38279,6,0,P|450:164|427:258,1,140,8|0,3:0|3:0,0:0:0:0:
311,311,39029,2,0,P|251:299|225:300,2,70,8|0|0,3:0|0:0|3:0,0:0:0:0:
295,171,39779,6,0,B|259:187|259:187|151:140,1,140,8|0,3:0|3:0,0:0:0:0:
290,82,40529,2,0,L|290:12,2,70,8|0|0,3:0|0:0|3:0,0:0:0:0:
299,221,41279,6,0,P|351:208|425:220,1,105,8|0,3:0|0:0,0:0:0:0:
495,166,41841,1,2,0:0:0:0:
495,166,42029,2,0,L|489:80,1,70,8|2,1:0|0:0,0:0:0:0:
480,26,42404,1,2,3:0:0:0:
341,45,42779,6,0,P|287:50|232:38,2,105,2|2|2,3:0|0:0|0:0,0:0:0:0:
342,115,43529,2,0,P|393:163|404:225,2,105,8|2|2,1:0|0:0|0:0,0:0:0:0:
282,152,44279,1,8,2:0:0:0:
204,268,44654,2,0,P|186:233|158:214,1,70,2|2,0:0|0:0,0:0:0:0:
92,201,45029,6,0,L|79:57,1,140,0|0,3:3|0:0,0:0:0:0:
124,10,45591,1,2,0:0:0:0:
124,10,45779,2,0,P|159:30|204:26,1,70,0|2,3:0|0:0,0:0:0:0:
242,74,46154,2,0,P|277:54|322:58,1,70,0|2,3:0|0:0,0:0:0:0:
375,58,46529,1,0,3:0:0:0:
431,185,46904,2,0,L|434:263,1,70,0|2,3:0|0:0,0:0:0:0:
365,269,47279,6,0,P|323:251|255:243,2,105,2|2|2,3:0|0:0|0:0,0:0:0:0:
366,339,48029,2,0,P|324:357|256:365,1,105,8|2,1:0|0:0,0:0:0:0:
183,300,48591,1,2,0:0:0:0:
183,300,48779,2,0,P|170:244|204:158,1,140,2|0,3:0|3:0,0:0:0:0:
256,41,49529,2,0,P|190:15|130:27,1,105,10|2,0:0|0:0,0:0:0:0:
30,133,50279,6,0,L|33:217,1,70,2|0,3:0|0:0,0:0:0:0:
86,247,50654,2,0,L|83:331,1,70,0|2,3:0|0:3,0:0:0:0:
48,378,51029,1,2,3:0:0:0:
180,331,51404,1,2,3:0:0:0:
316,360,51779,6,0,P|366:365|455:333,1,140,2|0,3:0|3:0,0:0:0:0:
481,274,52341,1,2,0:3:0:0:
481,274,52529,2,0,P|465:239|461:199,1,70,0|0,3:0|0:0,0:0:0:0:
492,145,52904,2,0,P|508:110|512:70,1,70,2|0,3:0|0:0,0:0:0:0:
472,21,53279,6,0,L|324:27,1,140,2|0,3:0|3:0,0:0:0:0:
225,117,54029,2,0,L|137:115,1,70,2|2,3:0|0:0,0:0:0:0:
113,58,54404,2,0,L|43:59,1,70,2|0,3:0|0:0,0:0:0:0:
7,120,54779,1,2,3:0:0:0:
119,203,55154,1,0,3:0:0:0:
34,314,55529,2,0,P|78:298|182:325,1,140,0|2,3:0|3:0,0:0:0:0:
241,323,56091,1,0,0:0:0:0:
241,323,56279,6,0,P|252:273|239:182,1,140,2|0,3:0|3:0,0:0:0:0:
227,121,56841,1,2,0:0:0:0:
227,121,57029,2,0,P|270:142|366:154,1,140,2|0,3:0|3:0,0:0:0:0:
433,145,57591,1,2,0:0:0:0:
433,145,57779,5,2,3:0:0:0:
383,14,58154,1,2,3:0:0:0:
240,35,58529,2,0,L|158:39,1,70,2|0,3:0|0:0,0:0:0:0:
126,93,58904,2,0,L|44:89,1,70,0|2,3:0|0:3,0:0:0:0:
21,28,59279,5,2,3:0:0:0:
14,167,59654,2,0,P|41:208|44:233,1,70,0|2,3:0|0:3,0:0:0:0:
39,297,60029,2,0,P|78:333|179:344,1,140,2|0,3:0|3:0,0:0:0:0:
281,260,60779,6,0,L|283:117,1,140,2|2,3:0|3:0,0:0:0:0:
284,50,61341,1,0,0:0:0:0:
284,50,61529,2,0,P|321:39|358:43,1,70,2|0,3:0|0:0,0:0:0:0:
399,92,61904,2,0,P|436:103|473:99,1,70,2|0,3:0|0:0,0:0:0:0:
511,46,62279,5,2,3:0:0:0:
495,186,62654,2,0,P|475:231|478:263,1,70,2|2,3:0|0:0,0:0:0:0:
500,316,63029,2,0,P|441:336|338:320,1,140,2|2,3:0|3:0,0:0:0:0:
306,291,63591,1,2,0:3:0:0:
306,291,63779,5,2,3:0:0:0:
199,200,64154,2,0,P|156:196|120:201,1,70,0|2,3:0|0:3,0:0:0:0:
60,213,64529,2,0,L|64:356,1,140,2|2,3:0|3:0,0:0:0:0:
194,301,65279,5,2,3:0:0:0:
292,202,65654,2,0,L|294:122,1,70,2|2,3:0|0:0,0:0:0:0:
304,62,66029,2,0,P|345:40|447:48,1,140,2|2,3:0|3:0,0:0:0:0:
486,91,66591,1,2,0:3:0:0:
486,91,66779,6,0,L|487:175,1,70,2|0,3:0|0:0,0:0:0:0:
434,207,67154,2,0,L|433:291,1,70,2|0,3:0|0:0,0:0:0:0:
465,339,67529,1,2,3:0:0:0:
335,286,67904,1,2,3:0:0:0:
204,336,68279,6,0,P|218:283|212:216,2,105,2|2|2,3:0|0:0|0:0,0:0:0:0:
136,353,69029,1,10,1:0:0:0:
93,76,69779,6,0,P|79:129|85:196,2,105,2|2|2,3:0|0:0|0:0,0:0:0:0:
161,58,70529,1,10,1:0:0:0:
204,336,71279,6,0,L|128:340,1,70,2|0,3:0|0:0,0:0:0:0:
77,298,71654,2,0,P|96:263|95:219,1,70,2|2,3:0|0:3,0:0:0:0:
66,170,72029,2,0,P|47:135|48:91,1,70,2|0,3:0|0:0,0:0:0:0:
72,40,72404,1,2,3:0:0:0:
209,65,72779,6,0,L|290:62,1,70,2|0,3:0|0:0,0:0:0:0:
333,106,73154,2,0,L|414:109,1,70,2|2,3:0|0:3,0:0:0:0:
469,86,73529,1,2,3:0:0:0:
482,299,74091,1,2,0:3:0:0:
482,299,74279,6,0,P|453:340|373:339,2,105,2|2|2,3:0|0:3|0:3,0:0:0:0:
343,279,75216,1,2,0:3:0:0:
343,279,75404,2,0,P|305:265|247:262,1,70,2|2,3:0|0:0,0:0:0:0:
210,285,75779,1,2,3:0:0:0:
210,285,75966,2,0,P|172:299|114:302,1,70,2|2,0:3|3:0,0:0:0:0:
21,232,76529,2,0,L|24:160,1,70,2|0,3:0|0:0,0:0:0:0:
89,136,76904,2,0,L|86:64,1,70,2|2,3:0|0:0,0:0:0:0:
137,18,77279,6,0,P|192:5|267:19,2,105,2|2|2,3:0|0:3|0:3,0:0:0:0:
247,104,78216,1,2,0:3:0:0:
247,104,78404,2,0,P|288:133|328:127,1,70,2|2,3:0|0:0,0:0:0:0:
375,111,78779,1,2,3:0:0:0:
375,111,78966,2,0,P|416:82|456:88,1,70,2|2,0:3|3:0,0:0:0:0:
468,216,79529,2,0,P|450:255|448:286,1,70,2|0,3:0|0:0,0:0:0:0:
447,351,79904,2,0,L|349:351,1,70,2|2,3:0|0:3,0:0:0:0:
313,320,80279,6,0,L|170:318,1,140,2|0,3:0|3:0,0:0:0:0:
103,314,80841,1,2,0:3:0:0:
103,314,81029,2,0,P|120:268|120:222,1,70,0|0,3:0|0:0,0:0:0:0:
86,186,81404,2,0,P|69:140|69:94,1,70,2|2,3:0|0:0,0:0:0:0:
79,49,81779,6,0,L|221:47,2,140,2|2|2,3:0|3:0|3:0,0:0:0:0:
170,155,82904,1,0,3:0:0:0:
303,113,83279,6,0,P|350:100|382:102,1,70,2|0,3:0|0:0,0:0:0:0:
414,155,83654,2,0,P|457:160|487:156,1,70,2|2,3:0|0:3,0:0:0:0:
508,91,84029,1,2,3:0:0:0:
390,15,84404,2,0,P|343:2|311:4,1,70,2|2,3:0|0:3,0:0:0:0:
258,32,84779,6,0,L|173:34,1,70,2|0,3:0|0:0,0:0:0:0:
129,72,85154,2,0,L|44:70,1,70,2|2,3:0|0:3,0:0:0:0:
12,18,85529,1,10,3:0:0:0:
24,157,85904,1,14,3:0:0:0:
132,221,86279,6,0,L|122:343,2,105.000004005432,2|2|2,0:0|0:0|0:0,0:0:0:0:
237,226,87404,1,2,0:0:0:0:
341,236,87779,2,0,L|333:334,2,78.7500030040742,2|2|2,0:0|0:0|0:0,0:0:0:0:
348,183,88529,1,2,0:0:0:0:
133,152,89279,6,0,L|123:30,2,105.000004005432,2|2|2,0:0|0:0|0:0,0:0:0:0:
237,140,90404,1,2,0:0:0:0:
341,130,90779,2,0,L|333:32,2,78.7500030040742,2|2|2,0:0|0:0|0:0,0:0:0:0:
348,183,91529,1,6,3:0:0:0:
