osu file format v14

[General]
AudioFilename: audio.mp3
AudioLeadIn: 0
PreviewTime: 50229
Countdown: 0
SampleSet: Soft
StackLeniency: 0.2
Mode: 0
LetterboxInBreaks: 0
WidescreenStoryboard: 1

[Editor]
Bookmarks: 56751,62001
DistanceSpacing: 0.5
BeatDivisor: 4
GridSize: 4
TimelineZoom: 1

[Metadata]
Title:Artificial Chariot
TitleUnicode:Artificial Chariot
Artist:Riya
ArtistUnicode:Riya
Creator:Fall
Version:Insane
Source:A Dance of Fire and Ice
Tags:hardstyle electronic video game instrumental _tranquility
BeatmapID:2364269
BeatmapSetID:1131887

[Difficulty]
HPDrainRate:6
CircleSize:4
OverallDifficulty:8
ApproachRate:9
SliderMultiplier:1.4
SliderTickRate:1

[Events]
//Background and Video events
0,0,"art char.jpg",0,0
//Break Periods
2,14479,25491
//Storyboard Layer 0 (Background)
//Storyboard Layer 1 (Fail)
//Storyboard Layer 2 (Pass)
//Storyboard Layer 3 (Foreground)
//Storyboard Layer 4 (Overlay)
//Storyboard Sound Samples

[TimingPoints]
779,375,4,2,0,60,1,0
26279,-133.333333333333,4,2,0,70,0,0
37904,-66.6666666666667,4,2,0,100,0,0
38279,-50,4,2,0,90,0,0
38747,-50,4,2,0,5,0,0
38841,-50,4,2,0,90,0,0
39497,-50,4,2,0,5,0,0
39591,-50,4,2,0,90,0,0
40247,-50,4,2,0,5,0,0
40341,-50,4,2,0,90,0,0
40997,-50,4,2,0,5,0,0
41091,-50,4,2,0,90,0,0
41279,-100,4,2,0,90,0,0
42779,-100,4,2,0,100,0,0
44279,-100,4,2,0,75,0,0
45029,-58.8235294117647,4,2,0,90,0,0
46247,-58.8235294117647,4,2,0,5,0,0
46341,-58.8235294117647,4,2,0,90,0,0
46622,-58.8235294117647,4,2,0,5,0,0
46716,-58.8235294117647,4,2,0,90,0,0
47279,-100,4,2,0,95,0,0
48029,-100,4,2,0,100,0,0
50279,-55.5555555555556,4,2,0,85,0,0
68279,-100,4,2,0,90,0,0
71279,-66.6666666666667,4,2,0,85,0,0
74279,-52.6315789473684,4,2,0,95,0,1
86279,-133.333333333333,4,2,0,55,0,0

[Colours]
Combo1 : 255,0,0
Combo2 : 117,117,117
Combo3 : 192,192,192
Combo4 : 213,0,0

[HitObjects]
40,136,2279,6,0,L|183:126,2,140,2|2|2,0:0|0:0|0:0,0:0:0:0:
29,237,3310,1,2,0:0:0:0:
145,203,3591,1,2,0:0:0:0:
132,296,3779,6,0,P|191:307|273:297,2,140,2|2|2,0:0|0:0|0:0,0:0:0:0:
145,203,4810,1,2,0:0:0:0:
278,176,5091,1,2,0:0:0:0:
257,84,5279,6,0,P|306:73|404:78,2,140,2|2|2,0:0|0:0|0:0,0:0:0:0:
278,176,6310,1,2,0:0:0:0:
347,240,6591,1,2,0:0:0:0:
444,244,6779,6,0,L|448:384,2,140,2|2|2,0:0|0:0|0:0,0:0:0:0:
347,240,7810,1,2,0:0:0:0:
278,176,8091,1,2,0:0:0:0:
377,152,8279,6,0,P|324:153|267:185,1,105,2|2,3:0|0:0,0:0:0:0:
224,247,8841,5,2,0:0:0:0:
142,216,9029,1,2,3:0:0:0:
78,152,9216,1,2,0:0:0:0:
277,175,9404,1,2,3:0:0:0:
65,342,9779,6,0,P|118:341|175:309,1,105,2|2,3:0|0:0,0:0:0:0:
224,247,10341,5,2,0:0:0:0:
306,278,10529,1,2,3:0:0:0:
368,342,10716,1,2,0:0:0:0:
165,319,10904,1,2,3:0:0:0:
224,247,11279,6,0,L|221:149,1,70,2|0,3:0|3:0,0:0:0:0:
161,31,11654,2,0,L|158:129,1,70,0|2,3:0|3:0,0:0:0:0:
86,164,12029,1,2,3:0:0:0:
158,100,12216,1,2,3:0:0:0:
302,166,12404,1,2,3:0:0:0:
303,81,12591,1,0,0:0:0:0:
388,53,12779,5,2,0:0:0:0:
422,52,12872,1,0,0:0:0:0:
453,67,12966,1,0,0:0:0:0:
474,95,13060,1,2,0:0:0:0:
480,129,13154,1,0,0:0:0:0:
480,155,13247,1,0,0:0:0:0:
480,182,13341,1,2,0:0:0:0:
480,208,13435,1,0,0:0:0:0:
479,234,13529,6,0,L|479:289,6,35,2|0|2|0|2|0|0,0:0|0:0|0:0|0:0|0:0|0:0|0:0,0:0:0:0:
478,358,14279,1,4,0:0:0:0:
245,331,26091,5,8,3:0:0:0:
171,271,26279,6,0,L|169:181,2,78.7500030040742,2|2|2,3:0|0:0|0:0,0:0:0:0:
247,165,27216,1,2,0:0:0:0:
247,138,27310,1,2,0:0:0:0:
248,112,27404,1,2,0:0:0:0:
42,97,27779,6,0,P|82:89|131:91,2,78.7500030040742,2|2|2,3:0|0:0|0:0,0:0:0:0:
189,5,28716,1,2,0:0:0:0:
192,30,28810,1,2,0:0:0:0:
192,57,28904,1,2,0:0:0:0:
248,112,29091,1,2,0:0:0:0:
328,68,29279,6,0,P|368:76|417:74,2,78.7500030040742,2|2|2,3:0|0:0|0:0,0:0:0:0:
468,15,30029,6,0,P|488:89|484:135,2,105.000004005432,2|2|2,3:2|3:2|3:2,0:0:0:0:
412,153,31341,2,0,P|406:196|407:315,1,157.500006008148,2|2,3:2|3:2,0:0:0:0:
477,358,32091,1,2,3:2:0:0:
406,309,32279,5,2,3:0:0:0:
311,284,32654,1,2,3:0:0:0:
223,323,33029,1,2,3:0:0:0:
130,281,33404,1,2,3:0:0:0:
181,96,33779,5,2,3:0:0:0:
212,196,34154,1,2,3:0:0:0:
130,281,34529,1,2,3:0:0:0:
99,136,34904,5,2,3:0:0:0:
212,196,35091,1,2,0:0:0:0:
304,141,35279,5,8,3:2:0:0:
412,147,35466,1,2,0:0:0:0:
395,136,35560,1,8,3:2:0:0:
486,232,35747,1,2,0:0:0:0:
481,212,35841,1,8,3:2:0:0:
313,40,36029,5,8,3:2:0:0:
303,64,36122,1,8,3:2:0:0:
298,90,36216,1,8,3:2:0:0:
298,116,36310,1,8,3:2:0:0:
304,141,36404,1,8,3:2:0:0:
310,166,36498,1,8,3:2:0:0:
310,192,36592,1,8,3:2:0:0:
305,218,36686,1,8,3:2:0:0:
127,323,37529,5,0,3:0:0:0:
184,257,37716,1,2,0:0:0:0:
161,224,37810,1,2,0:0:0:0:
159,176,37904,6,0,P|164:137|197:93,1,52.5000020027161,2|2,3:0|0:0,0:0:0:0:
251,50,38091,2,0,P|259:74|261:100,1,52.5000020027161,2|2,0:0|0:0,0:0:0:0:
332,170,38279,6,0,B|314:251|362:298|362:298|464:231|416:96,1,350,8|0,3:0|0:0,0:0:0:0:
380,44,38841,5,2,0:0:0:0:
346,54,38935,1,2,0:0:0:0:
315,36,39029,2,0,B|209:-2|108:23|108:23|196:43|169:125,1,350,8|0,3:0|0:0,0:0:0:0:
161,224,39591,5,2,0:0:0:0:
132,203,39685,1,2,0:0:0:0:
96,202,39779,2,0,B|133:274|86:357|86:357|152:313|206:381|304:337,1,350,8|0,3:0|0:0,0:0:0:0:
366,338,40341,5,2,0:0:0:0:
343,311,40435,1,2,0:0:0:0:
345,275,40529,2,0,B|374:249|447:349|447:349|401:255|437:129,1,350,8|0,3:0|0:0,0:0:0:0:
470,66,41091,5,2,0:0:0:0:
438,51,41185,1,2,0:0:0:0:
403,51,41279,6,0,P|354:76|338:144,1,105,8|2,3:0|0:0,0:0:0:0:
345,275,41841,1,2,0:0:0:0:
246,100,42029,5,8,1:0:0:0:
182,170,42216,2,0,P|177:230|180:265,1,70,2|2,0:0|3:0,0:0:0:0:
177,239,42779,6,0,B|147:242|147:242|130:237|130:237|107:245|107:245|90:241|90:241|67:243,2,105,2|2|2,3:0|0:0|0:0,0:0:0:0:
211,323,43529,2,0,B|236:325|236:325|258:337|258:337|288:326|288:326|304:332|304:332|321:327,2,105,8|2|2,1:0|0:0|0:0,0:0:0:0:
258,249,44279,1,8,2:0:0:0:
320,194,44654,6,0,L|321:139,1,35,2|0,0:0|0:0,0:0:0:0:
387,95,44841,2,0,L|386:40,1,35,2|0,0:0|0:0,0:0:0:0:
311,6,45029,6,0,P|224:4|141:26,1,119.000002269745,0|0,3:3|0:0,0:0:0:0:
121,38,45310,2,0,L|128:151,1,59.5000011348725,2|0,0:0|0:0,0:0:0:0:
50,305,45591,6,0,L|57:186,1,119.000002269745,2|0,0:0|3:0,0:0:0:0:
250,307,45966,6,0,P|171:271|150:188,1,178.500003404617,2|0,0:0|0:0,0:0:0:0:
216,132,46341,2,0,P|294:167|316:251,1,178.500003404617,2|0,0:0|0:0,0:0:0:0:
56,186,46716,2,0,P|78:129|146:93,1,119.000002269745,2|0,0:0|3:0,0:0:0:0:
275,37,47091,1,2,0:0:0:0:
309,48,47185,1,2,0:0:0:0:
340,69,47279,6,0,P|384:111|404:156,2,105,2|2|2,3:0|0:0|0:0,0:0:0:0:
156,29,48029,2,0,B|119:25|105:69|105:69|125:99,2,105,8|2|2,1:0|0:0|0:0,0:0:0:0:
216,132,48779,6,0,P|233:108|232:79,2,35,2|0|0,3:0|0:0|0:0,0:0:0:0:
143,190,49154,1,0,3:0:0:0:
143,190,49529,5,10,0:0:0:0:
136,220,49622,1,2,0:0:0:0:
138,251,49716,1,2,0:0:0:0:
151,279,49810,1,2,0:0:0:0:
173,301,49904,5,2,0:0:0:0:
230,308,49997,2,0,L|259:309,2,23.3333333333333,2|0|2,0:0|0:0|0:0,0:0:0:0:
241,384,50279,6,0,L|444:377,1,188.999994232178,2|0,3:0|0:0,0:0:0:0:
504,367,50654,1,0,3:0:0:0:
445,168,50841,1,2,0:3:0:0:
429,195,50935,1,2,0:3:0:0:
427,226,51029,1,2,3:0:0:0:
504,114,51216,1,2,0:0:0:0:
421,40,51404,2,0,L|232:46,1,188.999994232178,2|0,3:0|0:0,0:0:0:0:
156,52,51779,6,0,P|143:126|152:183,1,125.999996154785,2|0,3:0|0:0,0:0:0:0:
116,331,52154,1,0,3:0:0:0:
38,227,52341,2,0,P|44:164|31:103,1,125.999996154785,2|0,0:3|3:0,0:0:0:0:
126,253,52716,1,0,0:0:0:0:
273,173,52904,2,0,P|183:166|136:181,1,125.999996154785,2|0,3:0|0:0,0:0:0:0:
436,87,53279,6,0,L|423:290,1,188.999994232178,2|0,3:0|0:0,0:0:0:0:
415,353,53654,1,0,3:0:0:0:
273,173,53841,1,2,0:3:0:0:
298,174,53935,1,2,0:3:0:0:
322,169,54029,1,2,3:0:0:0:
423,275,54216,1,2,0:0:0:0:
282,89,54404,2,0,P|202:84|91:103,1,188.999994232178,2|0,3:0|0:0,0:0:0:0:
36,150,54779,6,0,L|39:276,1,125.999996154785,2|0,3:0|0:0,0:0:0:0:
276,291,55154,1,0,3:0:0:0:
282,89,55341,2,0,L|279:215,1,125.999996154785,2|0,0:3|3:0,0:0:0:0:
115,174,55716,1,0,0:0:0:0:
362,73,55904,2,0,L|365:199,1,125.999996154785,2|0,3:0|0:0,0:0:0:0:
17,30,56279,6,0,L|212:23,1,188.999994232178,2|0,3:0|0:0,0:0:0:0:
281,17,56654,1,0,3:0:0:0:
435,54,56841,6,0,L|429:107,1,31.4999990386963,2|0,0:0|0:0,0:0:0:0:
454,58,56935,2,0,L|451:90,1,31.4999990386963,2|0,0:0|0:0,0:0:0:0:
479,63,57029,2,0,L|466:258,1,188.999994232178,2|0,3:0|0:0,0:0:0:0:
447,325,57404,1,0,3:0:0:0:
210,288,57591,6,0,L|213:256,1,31.4999990386963,2|0,0:0|0:0,0:0:0:0:
191,284,57685,2,0,L|195:253,1,31.4999990386963,2|0,0:0|0:0,0:0:0:0:
171,279,57779,2,0,L|183:90,1,188.999994232178,2|0,3:0|0:0,0:0:0:0:
189,14,58154,1,2,3:0:0:0:
79,154,58341,1,0,0:0:0:0:
210,288,58529,6,0,P|272:252|328:252,1,125.999996154785,2|0,3:0|0:0,0:0:0:0:
155,362,58904,2,0,P|93:326|37:326,1,125.999996154785,0|2,3:0|0:3,0:0:0:0:
10,336,59185,1,2,0:3:0:0:
10,336,59279,5,2,3:0:0:0:
131,238,59466,1,0,0:0:0:0:
79,154,59654,1,0,3:0:0:0:
210,288,59841,1,2,0:3:0:0:
231,310,59935,1,2,0:3:0:0:
252,331,60029,6,0,P|318:349|386:336,1,125.999996154785,2|0,3:0|0:0,0:0:0:0:
485,186,60404,1,0,3:0:0:0:
403,245,60591,1,2,0:3:0:0:
252,331,60779,6,0,L|233:136,1,188.999994232178,2|0,3:0|0:0,0:0:0:0:
152,99,61154,2,0,L|133:287,1,188.999994232178,2|0,3:0|0:0,0:0:0:0:
116,361,61529,1,2,3:0:0:0:
47,248,61716,1,0,0:0:0:0:
45,216,61810,1,2,0:3:0:0:
44,184,61904,1,2,3:0:0:0:
133,287,62091,1,0,0:0:0:0:
233,142,62279,6,0,P|320:115|423:123,1,188.999994232178,2|2,3:0|0:3,0:0:0:0:
477,166,62654,1,2,3:0:0:0:
341,243,62841,1,2,0:0:0:0:
142,106,63029,6,0,P|114:185|136:293,1,188.999994232178,2|2,3:0|0:3,0:0:0:0:
180,345,63404,2,0,L|320:340,1,125.999996154785,2|2,3:0|0:3,0:0:0:0:
466,247,63779,6,0,L|326:242,1,125.999996154785,2|0,3:0|0:0,0:0:0:0:
264,233,64060,1,0,0:0:0:0:
264,233,64154,1,0,3:0:0:0:
402,333,64341,1,2,0:3:0:0:
477,166,64529,6,0,P|484:95|469:34,1,125.999996154785,2|0,3:0|0:0,0:0:0:0:
297,24,64904,2,0,P|290:95|305:156,1,125.999996154785,2|0,3:0|0:0,0:0:0:0:
132,286,65279,6,0,P|151:194|122:105,1,188.999994232178,2|2,3:0|0:3,0:0:0:0:
60,61,65654,1,2,3:0:0:0:
206,28,65841,1,2,0:0:0:0:
53,142,66029,2,0,P|41:212|56:280,1,125.999996154785,2|2,3:0|0:0,0:0:0:0:
257,281,66404,2,0,L|126:286,1,125.999996154785,2|2,3:0|0:3,0:0:0:0:
298,354,66779,6,0,L|490:348,1,188.999994232178,2|0,3:0|0:0,0:0:0:0:
445,275,67154,2,0,L|256:280,1,188.999994232178,2|0,3:0|0:0,0:0:0:0:
225,211,67529,1,2,3:0:0:0:
345,75,67716,1,0,0:0:0:0:
353,98,67810,1,2,0:0:0:0:
355,123,67904,1,2,3:0:0:0:
285,13,68091,1,0,0:0:0:0:
440,134,68279,6,0,P|411:192|368:211,1,105,2|2,3:0|0:0,0:0:0:0:
170,142,68841,1,2,0:0:0:0:
195,137,68935,1,2,0:0:0:0:
221,141,69029,2,0,L|225:214,1,70,10|0,1:0|0:0,0:0:0:0:
157,277,69404,1,2,0:0:0:0:
83,232,69591,1,2,0:0:0:0:
83,232,69779,6,0,L|89:118,1,105,2|2,3:0|0:0,0:0:0:0:
300,46,70341,1,2,0:0:0:0:
276,48,70435,1,2,0:0:0:0:
252,50,70529,2,0,L|143:55,1,105,10|0,1:0|3:0,0:0:0:0:
461,283,71279,6,0,P|430:198|446:118,1,157.500006008148,2|2,3:0|0:3,0:0:0:0:
491,73,71654,2,0,P|455:47|355:55,1,105.000004005432,2|2,3:0|0:3,0:0:0:0:
340,95,71935,1,2,0:3:0:0:
340,95,72029,6,0,P|292:157|186:176,1,157.500006008148,2|2,3:0|0:3,0:0:0:0:
140,179,72404,2,0,P|126:244|140:309,1,105.000004005432,2|2,3:0|0:3,0:0:0:0:
160,354,72685,1,2,0:3:0:0:
160,354,72779,6,0,L|323:335,1,157.500006008148,2|2,3:0|0:3,0:0:0:0:
393,319,73154,1,2,3:0:0:0:
219,168,73341,1,2,0:3:0:0:
184,114,73435,1,2,0:3:0:0:
199,86,73529,5,2,3:0:0:0:
206,55,73622,1,2,0:0:0:0:
203,23,73716,1,2,0:0:0:0:
176,40,73810,1,2,0:0:0:0:
145,46,73904,2,0,P|116:51|84:45,2,52.5000020027161,2|2|2,3:0|0:0|0:3,0:0:0:0:
19,175,74279,6,0,L|240:167,1,199.499994672775,2|2,3:0|0:3,0:0:0:0:
288,128,74654,2,0,L|426:129,1,132.999996448517,2|2,3:0|0:3,0:0:0:0:
294,318,75029,1,0,3:0:0:0:
419,223,75216,1,2,0:3:0:0:
446,220,75310,1,2,0:3:0:0:
473,218,75404,1,2,3:0:0:0:
420,128,75591,1,2,0:0:0:0:
327,233,75779,5,2,3:0:0:0:
218,167,75966,1,2,0:3:0:0:
199,165,76060,1,2,0:3:0:0:
181,163,76154,1,2,3:0:0:0:
241,247,76341,1,2,0:0:0:0:
170,72,76529,6,0,P|106:124|118:232,1,199.499994672775,2|2,3:0|0:3,0:0:0:0:
167,295,76904,2,0,P|98:323|22:282,1,132.999996448517,2|2,3:0|0:0,0:0:0:0:
241,247,77279,6,0,L|386:239,1,132.999996448517,2|0,3:0|0:0,0:0:0:0:
170,72,77654,2,0,L|25:64,1,132.999996448517,2|2,3:0|0:3,0:0:0:0:
117,231,78029,1,0,3:0:0:0:
268,134,78216,1,2,0:3:0:0:
290,119,78310,1,2,0:3:0:0:
306,97,78404,1,2,3:0:0:0:
170,72,78591,1,2,0:0:0:0:
252,14,78779,6,0,P|346:10|404:76,1,132.999996448517,2|2,3:0|0:3,0:0:0:0:
421,94,79060,1,2,0:3:0:0:
421,94,79154,1,2,3:0:0:0:
268,134,79341,1,2,0:0:0:0:
440,237,79529,6,0,L|238:247,1,199.499994672775,2|2,3:0|0:0,0:0:0:0:
161,257,79904,2,0,P|157:326|188:383,1,132.999996448517,2|2,3:0|0:3,0:0:0:0:
193,187,80279,6,0,P|109:164|42:197,1,132.999996448517,2|0,3:0|0:0,0:0:0:0:
240,246,80654,2,0,P|324:269|391:236,1,132.999996448517,0|2,3:0|0:3,0:0:0:0:
76,263,81029,1,0,3:0:0:0:
19,105,81216,1,0,0:0:0:0:
22,85,81310,1,0,0:0:0:0:
26,65,81404,6,0,L|162:59,1,132.999996448517,2|2,3:0|0:0,0:0:0:0:
311,142,81779,1,2,3:0:0:0:
281,17,81966,1,2,0:0:0:0:
272,34,82060,1,2,0:0:0:0:
265,52,82154,2,0,L|405:54,1,132.999996448517,2|2,3:0|0:3,0:0:0:0:
477,56,82435,1,2,0:3:0:0:
477,56,82529,6,0,P|460:140|466:259,1,199.499994672775,2|0,3:0|0:0,0:0:0:0:
487,330,82904,2,0,L|325:334,1,132.999996448517,0|2,3:0|0:3,0:0:0:0:
167,338,83279,6,0,P|195:272|169:126,1,199.499994672775,2|2,3:0|0:0,0:0:0:0:
124,91,83654,2,0,P|78:158|75:227,1,132.999996448517,2|2,3:0|0:3,0:0:0:0:
302,255,84029,6,0,P|274:189|300:43,1,199.499994672775,2|0,3:0|0:0,0:0:0:0:
345,8,84404,2,0,P|391:75|394:144,1,132.999996448517,2|2,3:0|0:3,0:0:0:0:
180,147,84779,5,2,3:0:0:0:
396,124,84966,1,0,0:0:0:0:
288,64,85154,1,2,3:0:0:0:
291,276,85341,1,2,0:3:0:0:
306,305,85435,1,2,0:3:0:0:
311,337,85529,5,10,3:0:0:0:
358,314,85622,1,10,0:0:0:0:
409,301,85716,1,10,0:0:0:0:
462,306,85810,1,10,0:0:0:0:
511,326,85904,1,14,3:0:0:0:
311,337,86091,1,2,0:0:0:0:
180,147,86279,6,0,L|54:137,1,105.000004005432,2|2,0:0|0:0,0:0:0:0:
186,284,86841,2,0,L|290:275,1,105.000004005432,2|0,0:0|0:0,0:0:0:0:
108,292,87404,1,2,0:0:0:0:
258,153,87779,6,0,L|157:145,1,78.7500030040742,2|2,0:0|0:0,0:0:0:0:
375,76,88341,1,2,0:0:0:0:
300,84,88529,1,2,0:0:0:0:
368,208,89279,6,0,L|494:198,1,105.000004005432,2|2,0:0|0:0,0:0:0:0:
362,345,89841,2,0,L|258:336,1,105.000004005432,2|0,0:0|0:0,0:0:0:0:
440,353,90404,1,2,0:0:0:0:
290,214,90779,6,0,L|391:206,1,78.7500030040742,2|2,0:0|0:0,0:0:0:0:
179,146,91341,1,2,0:0:0:0:
290,214,91529,1,6,3:0:0:0:
