osu file format v14

[General]
AudioFilename: audio.mp3
AudioLeadIn: 0
PreviewTime: 50229
Countdown: 0
SampleSet: Soft
StackLeniency: 0.5
Mode: 0
LetterboxInBreaks: 0
WidescreenStoryboard: 1

[Editor]
Bookmarks: 56751,62001
DistanceSpacing: 1.2
BeatDivisor: 4
GridSize: 4
TimelineZoom: 1

[Metadata]
Title:Artificial Chariot
TitleUnicode:Artificial Chariot
Artist:Riya
ArtistUnicode:Riya
Creator:Fall
Version:Hard
Source:A Dance of Fire and Ice
Tags:hardstyle electronic video game instrumental _tranquility
BeatmapID:2364268
BeatmapSetID:1131887

[Difficulty]
HPDrainRate:5
CircleSize:3.5
OverallDifficulty:6.5
ApproachRate:8
SliderMultiplier:1.4
SliderTickRate:1

[Events]
//Background and Video events
0,0,"art char.jpg",0,0
//Break Periods
2,14479,25529
//Storyboard Layer 0 (Background)
//Storyboard Layer 1 (Fail)
//Storyboard Layer 2 (Pass)
//Storyboard Layer 3 (Foreground)
//Storyboard Layer 4 (Overlay)
//Storyboard Sound Samples

[TimingPoints]
779,375,4,2,0,60,1,0
26279,-133.333333333333,4,2,0,70,0,0
37904,-133.333333333333,4,2,0,100,0,0
38279,-100,4,2,0,90,0,0
38747,-100,4,2,0,5,0,0
38841,-100,4,2,0,90,0,0
39497,-100,4,2,0,5,0,0
39591,-100,4,2,0,90,0,0
40247,-100,4,2,0,5,0,0
40341,-100,4,2,0,90,0,0
40997,-100,4,2,0,5,0,0
41091,-100,4,2,0,90,0,0
42779,-100,4,2,0,100,0,0
44279,-100,4,2,0,75,0,0
45029,-100,4,2,0,90,0,0
46247,-100,4,2,0,5,0,0
46341,-100,4,2,0,90,0,0
46622,-100,4,2,0,5,0,0
46716,-100,4,2,0,90,0,0
47279,-100,4,2,0,95,0,0
48029,-100,4,2,0,100,0,0
50279,-83.3333333333333,4,2,0,85,0,0
68277,-83.3333333333333,4,2,0,90,0,0
71279,-83.3333333333333,4,2,0,85,0,0
74279,-83.3333333333333,4,2,0,95,0,1
86279,-133.333333333333,4,2,0,55,0,0

[Colours]
Combo1 : 255,0,0
Combo2 : 117,117,117
Combo3 : 192,192,192
Combo4 : 213,0,0

[HitObjects]
81,136,2279,6,0,L|224:129,1,140,2|2,0:0|0:0,0:0:0:0:
388,199,3029,2,0,L|523:205,2,105,2|2|2,0:0|0:0|0:0,0:0:0:0:
301,226,3779,6,0,P|297:294|325:369,1,140,2|2,0:0|0:0,0:0:0:0:
139,336,4529,2,0,P|142:282|125:227,2,105,2|2|2,0:0|0:0|0:0,0:0:0:0:
60,382,5279,5,2,0:0:0:0:
119,210,5654,1,2,0:0:0:0:
29,103,6029,2,0,P|6:40|3:0,2,105,2|2|2,0:0|0:0|0:0,0:0:0:0:
119,116,6779,5,2,0:0:0:0:
291,58,7154,1,2,0:0:0:0:
385,161,7529,2,0,P|408:224|411:264,2,105,2|2|2,0:0|0:0|0:0,0:0:0:0:
294,146,8279,6,0,P|241:150|191:165,1,105,2|2,3:0|0:0,0:0:0:0:
235,294,8841,1,2,0:0:0:0:
156,248,9029,1,2,3:0:0:0:
191,165,9216,1,2,0:0:0:0:
119,108,9404,1,2,3:0:0:0:
240,47,9779,6,0,P|294:32|346:28,1,105,2|2,3:0|0:0,0:0:0:0:
447,22,10341,2,0,P|434:54|431:96,1,70,2|2,0:0|3:0,0:0:0:0:
472,171,10716,2,0,P|485:203|489:245,1,70,2|2,0:0|3:0,0:0:0:0:
341,330,11279,6,0,L|215:333,1,105,2|2,3:0|0:0,0:0:0:0:
132,336,11841,1,2,3:0:0:0:
156,248,12029,1,2,3:0:0:0:
86,191,12216,2,0,L|78:115,1,70,2|2,3:0|3:0,0:0:0:0:
250,52,12779,6,0,P|228:45|212:47,3,35,2|0|0|2,0:0|0:0|0:0|0:0,0:0:0:0:
173,62,13154,2,0,P|151:69|135:67,3,35,0|0|2|0,0:0|0:0|0:0|0:0,0:0:0:0:
98,47,13529,2,0,P|76:40|60:42,3,35,2|0|2|0,0:0|0:0|0:0|0:0,0:0:0:0:
32,73,13904,2,0,L|44:106,2,35,2|0|0,0:0|0:0|0:0,0:0:0:0:
86,191,14279,5,4,0:0:0:0:
122,272,26279,6,0,P|143:216|137:179,2,78.7500030040742,2|2|2,3:0|0:0|0:0,0:0:0:0:
50,195,27216,2,0,P|39:171|37:155,2,26.2500010013581,2|2|2,0:0|0:0|0:0,0:0:0:0:
160,161,27779,6,0,P|139:105|145:68,2,78.7500030040742,2|2|2,3:0|0:0|0:0,0:0:0:0:
232,84,28716,2,0,P|243:60|245:44,2,26.2500010013581,2|2|2,0:0|0:0|0:0,0:0:0:0:
256,159,29091,1,2,0:0:0:0:
330,132,29279,6,0,P|366:127|419:124,2,78.7500030040742,2|2|2,3:0|0:0|0:0,0:0:0:0:
407,209,32279,6,0,L|404:322,2,105.000004005432,2|2|2,3:0|3:0|3:0,0:0:0:0:
407,130,33216,1,2,0:0:0:0:
407,130,33310,1,2,0:0:0:0:
407,130,33404,1,2,3:0:0:0:
250,145,33779,6,0,L|253:32,2,105.000004005432,2|2|2,3:0|3:0|3:0,0:0:0:0:
249,231,34716,1,2,0:0:0:0:
249,231,34810,1,2,0:0:0:0:
249,231,34904,2,0,P|214:267|192:270,1,52.5000020027161,2|2,3:0|0:0,0:0:0:0:
139,236,35279,5,8,3:2:0:0:
91,298,35466,1,2,0:0:0:0:
91,298,35560,2,0,P|50:298|15:279,1,78.7500030040742,8|8,3:2|3:2,0:0:0:0:
1,195,36029,6,0,P|36:188|49:189,3,26.2500010013581,8|8|8|8,3:2|3:2|3:2|3:2,0:0:0:0:
47,161,36404,2,0,P|82:168|95:167,3,26.2500010013581,8|8|8|8,3:2|3:2|3:2|3:2,0:0:0:0:
435,170,37529,5,0,3:0:0:0:
379,114,37716,2,0,L|342:116,1,26.2500010013581,2|2,0:0|0:0,0:0:0:0:
317,96,37904,2,0,P|297:94|269:93,3,26.2500010013581,2|2|2|2,3:0|0:0|0:0|0:0,0:0:0:0:
244,117,38279,6,0,P|179:127|145:125,1,70,8|0,3:0|0:0,0:0:0:0:
148,228,38654,2,0,P|83:218|49:220,1,70,0|2,3:0|0:0,0:0:0:0:
30,223,38935,1,2,0:0:0:0:
30,223,39029,2,0,P|55:297|129:331,1,140,8|0,3:0|3:0,0:0:0:0:
216,318,39591,1,2,0:0:0:0:
216,318,39685,1,2,0:0:0:0:
216,318,39779,6,0,P|259:304|354:312,1,140,8|0,3:0|3:0,0:0:0:0:
430,241,40341,2,0,L|427:202,1,35,2|2,0:0|0:0,0:0:0:0:
418,153,40529,6,0,P|382:137|278:144,1,140,8|0,3:0|3:0,0:0:0:0:
221,57,41091,2,0,L|218:96,1,35,2|2,0:0|0:0,0:0:0:0:
204,143,41279,6,0,L|80:146,2,105,8|2|2,3:0|0:0|0:0,0:0:0:0:
138,63,42029,1,8,1:0:0:0:
34,75,42216,1,2,0:0:0:0:
16,178,42404,1,2,3:0:0:0:
206,265,42779,6,0,L|96:269,2,105,2|2|2,3:0|0:0|0:0,0:0:0:0:
269,342,43529,2,0,L|379:346,2,105,8|2|2,1:0|0:0|0:0,0:0:0:0:
296,240,44279,1,8,2:0:0:0:
296,240,45029,6,0,P|346:225|417:275,1,140,0|0,3:3|0:0,0:0:0:0:
503,215,45591,1,2,0:0:0:0:
503,215,45779,2,0,P|494:166|497:121,1,70,0|2,3:0|0:0,0:0:0:0:
397,101,46154,2,0,P|406:52|403:7,1,70,0|2,3:0|0:0,0:0:0:0:
301,20,46529,2,0,P|293:54|292:89,1,70,0|2,3:0|0:0,0:0:0:0:
186,90,46904,1,0,3:0:0:0:
121,172,47091,1,2,0:0:0:0:
141,275,47279,6,0,P|175:286|253:279,2,105,2|2|2,3:0|0:0|0:0,0:0:0:0:
121,172,48029,2,0,P|87:161|9:168,2,105,8|2|2,1:0|0:0|0:0,0:0:0:0:
186,90,48779,1,2,3:0:0:0:
345,226,49154,1,0,3:0:0:0:
141,275,49529,2,0,P|135:322|140:381,1,105,10|2,0:0|0:0,0:0:0:0:
345,226,50279,6,0,P|357:192|355:132,1,83.9999974365235,2|0,3:0|0:0,0:0:0:0:
278,81,50654,1,0,3:0:0:0:
177,84,50841,1,2,0:3:0:0:
177,84,50935,1,2,0:3:0:0:
177,84,51029,2,0,L|71:88,1,83.9999974365235,2|2,3:0|0:0,0:0:0:0:
59,182,51404,2,0,L|165:186,1,83.9999974365235,2|0,3:0|0:0,0:0:0:0:
240,211,51779,6,0,P|246:273|237:382,1,167.999994873047,2|0,3:0|3:0,0:0:0:0:
137,367,52341,1,2,0:3:0:0:
37,345,52529,6,0,L|41:249,1,83.9999974365235,0|0,3:0|0:0,0:0:0:0:
146,269,52904,2,0,L|142:173,1,83.9999974365235,2|0,3:0|0:0,0:0:0:0:
93,96,53279,5,2,3:0:0:0:
283,29,53654,1,0,3:0:0:0:
365,85,53841,2,0,L|410:83,2,41.9999987182618,2|2|2,0:3|0:3|3:0,0:0:0:0:
296,159,54216,1,2,0:0:0:0:
374,223,54404,2,0,P|377:292|367:322,1,83.9999974365235,2|0,3:0|0:0,0:0:0:0:
474,304,54779,6,0,P|480:262|474:221,1,83.9999974365235,2|0,3:0|0:0,0:0:0:0:
416,138,55154,1,0,0:0:0:0:
482,62,55341,2,0,B|442:42|442:42|305:61,1,167.999994873047,2|0,3:0|0:0,0:0:0:0:
223,89,55904,2,0,L|140:87,1,83.9999974365235,2|0,3:0|0:0,0:0:0:0:
55,29,56279,5,2,3:0:0:0:
9,119,56466,1,2,0:0:0:0:
90,178,56654,1,0,3:0:0:0:
49,270,56841,2,0,P|57:311|53:336,2,41.9999987182618,2|2|2,0:0|0:0|3:0,0:0:0:0:
137,318,57216,5,2,0:0:0:0:
230,357,57404,1,2,3:0:0:0:
291,277,57591,2,0,P|316:275|343:279,2,41.9999987182618,2|2|2,0:0|0:0|3:0,0:0:0:0:
342,190,57966,5,2,0:3:0:0:
342,190,58154,2,0,P|400:201|507:173,2,167.999994873047,2|2|0,3:0|3:0|3:0,0:0:0:0:
244,216,59091,1,2,0:3:0:0:
238,115,59279,6,0,L|244:30,1,83.9999974365235,2|0,3:0|0:0,0:0:0:0:
145,6,59654,1,0,3:0:0:0:
88,91,59841,1,2,0:3:0:0:
88,91,59935,1,2,0:3:0:0:
88,91,60029,6,0,P|34:79|-17:83,1,83.9999974365235,2|0,3:0|0:0,0:0:0:0:
3,180,60404,2,0,P|43:190|85:191,1,83.9999974365235,0|2,3:0|0:3,0:0:0:0:
173,242,60779,6,0,L|167:325,1,83.9999974365235,2|0,3:0|0:0,0:0:0:0:
264,354,61154,2,0,L|269:270,1,83.9999974365235,2|0,3:0|0:0,0:0:0:0:
368,290,61529,2,0,L|362:373,1,83.9999974365235,2|0,3:0|0:0,0:0:0:0:
460,352,61904,1,2,3:0:0:0:
501,260,62091,1,0,0:0:0:0:
423,195,62279,6,0,P|412:133|440:27,1,167.999994873047,2|2,3:0|3:0,0:0:0:0:
338,50,62841,1,2,0:0:0:0:
238,34,63029,2,0,P|159:22|57:47,1,167.999994873047,2|2,3:0|3:0,0:0:0:0:
28,130,63591,1,2,0:3:0:0:
112,185,63779,6,0,L|114:278,1,83.9999974365235,2|0,3:0|0:0,0:0:0:0:
22,312,64154,2,0,L|24:219,1,83.9999974365235,0|2,3:0|0:3,0:0:0:0:
112,185,64529,1,2,3:0:0:0:
207,216,64716,1,0,0:0:0:0:
207,216,64904,2,0,P|266:194|305:199,1,83.9999974365235,2|0,3:0|0:0,0:0:0:0:
361,261,65279,6,0,P|327:302|185:305,1,167.999994873047,2|2,3:0|3:0,0:0:0:0:
124,285,65841,1,2,0:0:0:0:
112,185,66029,2,0,L|120:17,1,167.999994873047,2|2,3:0|3:0,0:0:0:0:
218,35,66591,1,2,0:3:0:0:
317,51,66779,6,0,P|378:56|437:48,1,83.9999974365235,2|0,3:0|0:0,0:0:0:0:
452,140,67154,2,0,P|391:145|332:137,1,83.9999974365235,2|0,3:0|0:0,0:0:0:0:
267,136,67529,1,2,3:0:0:0:
309,227,67716,1,0,0:0:0:0:
259,315,67904,2,0,P|218:307|162:306,1,83.9999974365235,2|0,3:0|0:0,0:0:0:0:
82,343,68279,6,0,P|99:291|93:194,1,125.999996154785,2|2,3:0|0:0,0:0:0:0:
22,90,68841,1,2,0:0:0:0:
22,90,68935,1,2,0:0:0:0:
22,90,69029,2,0,L|194:89,1,167.999994873047,10|2,1:0|0:0,0:0:0:0:
285,57,69591,1,0,3:0:0:0:
380,22,69779,6,0,P|397:74|391:171,1,125.999996154785,2|2,3:0|0:0,0:0:0:0:
320,275,70341,1,2,0:0:0:0:
320,275,70435,1,2,0:0:0:0:
320,275,70529,2,0,L|467:275,1,125.999996154785,10|0,1:0|3:0,0:0:0:0:
199,221,71279,6,0,P|188:296|199:338,1,83.9999974365235,2|0,3:0|0:0,0:0:0:0:
94,338,71654,2,0,P|94:296|83:255,1,83.9999974365235,2|2,3:0|0:3,0:0:0:0:
59,211,71935,1,2,0:3:0:0:
59,211,72029,1,2,3:0:0:0:
136,147,72216,1,0,0:0:0:0:
62,77,72404,2,0,P|101:56|153:51,1,83.9999974365235,2|2,3:0|0:3,0:0:0:0:
188,65,72685,1,2,0:3:0:0:
188,65,72779,6,0,P|238:82|357:64,1,167.999994873047,2|2,3:0|3:0,0:0:0:0:
442,26,73341,2,0,L|447:81,1,41.9999987182618,2|2,0:3|0:3,0:0:0:0:
422,118,73529,2,0,L|419:165,3,41.9999987182618,2|2|2|2,3:0|0:0|0:0|0:0,0:0:0:0:
454,202,73904,2,0,L|457:247,2,41.9999987182618,2|2|2,3:0|0:0|0:3,0:0:0:0:
392,359,74279,6,0,L|208:362,1,167.999994873047,2|2,3:0|3:0,0:0:0:0:
129,327,74841,1,2,0:3:0:0:
68,246,75029,1,0,3:0:0:0:
123,162,75216,1,2,0:3:0:0:
123,162,75310,1,2,0:3:0:0:
123,162,75404,2,0,L|126:75,1,83.9999974365235,2|2,3:0|0:0,0:0:0:0:
218,37,75779,5,2,3:0:0:0:
319,80,75966,1,2,0:3:0:0:
319,80,76060,1,2,0:3:0:0:
319,80,76154,2,0,P|372:60|415:72,1,83.9999974365235,2|2,3:0|0:0,0:0:0:0:
426,161,76529,2,0,P|388:179|347:176,1,83.9999974365235,2|0,3:0|0:0,0:0:0:0:
248,155,76904,2,0,P|210:136|169:139,1,83.9999974365235,2|2,3:0|0:0,0:0:0:0:
99,211,77279,6,0,L|101:309,1,83.9999974365235,2|0,3:0|0:0,0:0:0:0:
198,321,77654,2,0,L|196:223,1,83.9999974365235,2|2,3:0|0:3,0:0:0:0:
169,138,78029,1,0,3:0:0:0:
97,84,78216,1,2,0:3:0:0:
97,84,78310,1,2,0:3:0:0:
97,84,78404,2,0,P|143:53|204:57,1,83.9999974365235,2|2,3:0|0:0,0:0:0:0:
262,91,78779,1,2,3:0:0:0:
354,50,78966,2,0,L|414:47,1,41.9999987182618,2|2,0:3|0:3,0:0:0:0:
413,87,79154,2,0,L|503:90,1,83.9999974365235,2|2,3:0|0:0,0:0:0:0:
464,185,79529,6,0,P|452:267|457:290,1,83.9999974365235,2|0,3:0|0:0,0:0:0:0:
390,347,79904,2,0,P|342:323|287:332,1,83.9999974365235,2|2,3:0|0:3,0:0:0:0:
216,354,80279,6,0,P|147:364|48:329,2,167.999994873047,2|0|0,3:0|3:0|3:0,0:0:0:0:
251,259,81216,1,0,0:0:0:0:
197,173,81404,2,0,P|180:125|184:82,1,83.9999974365235,2|2,3:0|0:0,0:0:0:0:
281,75,81779,6,0,P|296:113|296:155,1,83.9999974365235,2|2,3:0|0:0,0:0:0:0:
197,173,82154,1,2,3:0:0:0:
123,242,82341,1,2,0:3:0:0:
123,242,82435,1,2,0:3:0:0:
123,242,82529,2,0,L|23:245,1,83.9999974365235,2|0,3:0|0:0,0:0:0:0:
17,145,82904,2,0,L|100:147,1,83.9999974365235,0|2,3:0|0:3,0:0:0:0:
198,174,83279,6,0,L|376:172,1,167.999994873047,2|2,3:0|3:0,0:0:0:0:
432,247,83841,1,2,0:3:0:0:
488,162,84029,2,0,P|472:108|476:70,1,83.9999974365235,2|0,3:0|0:0,0:0:0:0:
401,9,84404,2,0,P|385:63|389:101,1,83.9999974365235,2|2,3:0|0:3,0:0:0:0:
365,172,84779,6,0,L|198:174,1,167.999994873047,2|2,3:0|3:0,0:0:0:0:
104,135,85341,1,2,0:3:0:0:
122,233,85529,6,0,P|126:277|123:303,1,41.9999987182618,10|10,3:0|0:0,0:0:0:0:
96,321,85716,2,0,P|92:364|95:390,2,41.9999987182618,10|10|14,0:0|0:0|3:0,0:0:0:0:
189,361,86091,1,2,0:0:0:0:
269,299,86279,6,0,L|387:296,1,105.000004005432,2|2,0:0|0:0,0:0:0:0:
426,296,86841,2,0,P|410:244|406:131,1,157.500006008148,2|2,0:0|0:0,0:0:0:0:
458,50,87779,6,0,P|417:27|364:22,2,78.7500030040742,2|2|2,0:0|0:0|0:0,0:0:0:0:
502,78,88529,1,2,0:0:0:0:
292,92,89279,6,0,L|174:95,1,105.000004005432,2|2,0:0|0:0,0:0:0:0:
135,95,89841,2,0,P|151:147|155:260,1,157.500006008148,2|2,0:0|0:0,0:0:0:0:
103,341,90779,6,0,P|144:364|197:369,2,78.7500030040742,2|2|2,0:0|0:0|0:0,0:0:0:0:
44,290,91529,1,6,3:0:0:0:
