osu file format v14

[General]
AudioFilename: audio.mp3
AudioLeadIn: 0
PreviewTime: 50229
Countdown: 0
SampleSet: Soft
StackLeniency: 0.2
Mode: 0
LetterboxInBreaks: 0
WidescreenStoryboard: 0

[Editor]
Bookmarks: 56751,62001
DistanceSpacing: 1.1
BeatDivisor: 4
GridSize: 4
TimelineZoom: 1.9

[Metadata]
Title:Artificial Chariot
TitleUnicode:Artificial Chariot
Artist:Riya
ArtistUnicode:Riya
Creator:Fall
Version:Expert
Source:A Dance of Fire and Ice
Tags:hardstyle electronic video game instrumental _tranquility
BeatmapID:2364267
BeatmapSetID:1131887

[Difficulty]
HPDrainRate:7
CircleSize:4.2
OverallDifficulty:8.4
ApproachRate:9.4
SliderMultiplier:1.4
SliderTickRate:1

[Events]
//Background and Video events
0,0,"art char.jpg",0,0
//Break Periods
2,14479,25551
//Storyboard Layer 0 (Background)
//Storyboard Layer 1 (Fail)
//Storyboard Layer 2 (Pass)
//Storyboard Layer 3 (Foreground)
//Storyboard Layer 4 (Overlay)
//Storyboard Sound Samples

[TimingPoints]
779,375,4,2,0,60,1,0
26279,-133.333333333333,4,2,0,70,0,0
37904,-50,4,2,0,100,0,0
38279,-43.4782608695652,4,2,0,90,0,0
38747,-43.4782608695652,4,2,0,5,0,0
38841,-43.4782608695652,4,2,0,90,0,0
39497,-43.4782608695652,4,2,0,5,0,0
39591,-43.4782608695652,4,2,0,90,0,0
40247,-43.4782608695652,4,2,0,5,0,0
40341,-43.4782608695652,4,2,0,90,0,0
40997,-43.4782608695652,4,2,0,5,0,0
41091,-43.4782608695652,4,2,0,90,0,0
41279,-133.333333333333,4,2,0,90,0,0
42029,-66.6666666666667,4,2,0,90,0,0
42404,-200,4,2,0,90,0,0
42779,-40,4,2,0,100,0,0
43529,-50,4,2,0,100,0,0
44279,-66.6666666666667,4,2,0,75,0,0
45029,-50,4,2,0,90,0,0
45310,-29.4117647058824,4,2,0,90,0,0
45591,-27.027027027027,4,2,0,90,0,0
45966,-33.3333333333333,4,2,0,90,0,0
46247,-33.3333333333333,4,2,0,5,0,0
46341,-33.3333333333333,4,2,0,90,0,0
46622,-33.3333333333333,4,2,0,5,0,0
46716,-33.3333333333333,4,2,0,90,0,0
46997,-33.3333333333333,4,2,0,90,0,0
47091,-33.3333333333333,4,2,0,90,0,0
47279,-28.5714285714286,4,2,0,95,0,0
48029,-25,4,2,0,100,0,0
50279,-58.8235294117647,4,2,0,85,0,0
60779,-55.5555555555556,4,2,0,85,0,0
68277,-133.333333333333,4,2,0,90,0,0
71279,-55.5555555555556,4,2,0,85,0,0
74279,-47.6190476190476,4,2,0,95,0,1
86279,-100,4,2,0,55,0,0

[Colours]
Combo1 : 255,0,0
Combo2 : 117,117,117
Combo3 : 192,192,192
Combo4 : 213,0,0

[HitObjects]
122,73,2279,5,2,0:0:0:0:
118,146,2654,1,2,0:0:0:0:
114,219,3029,5,2,0:0:0:0:
118,146,3310,1,2,0:0:0:0:
122,73,3591,1,2,0:0:0:0:
210,113,3779,37,2,0:0:0:0:
206,186,4154,1,2,0:0:0:0:
202,259,4529,5,2,0:0:0:0:
206,186,4810,1,2,0:0:0:0:
210,113,5091,1,2,0:0:0:0:
337,299,5279,37,2,0:0:0:0:
279,248,5654,1,2,0:0:0:0:
202,259,6029,5,2,0:0:0:0:
279,248,6310,1,2,0:0:0:0:
337,299,6591,1,2,0:0:0:0:
345,73,6779,37,2,0:0:0:0:
287,124,7154,1,2,0:0:0:0:
210,113,7529,5,2,0:0:0:0:
287,124,7810,1,2,0:0:0:0:
345,73,8091,1,2,0:0:0:0:
360,379,8279,38,0,L|492:375,1,105,2|2,3:0|0:0,0:0:0:0:
337,299,8841,5,2,0:0:0:0:
421,294,9029,1,2,3:0:0:0:
504,289,9216,1,2,0:0:0:0:
375,226,9404,1,2,3:0:0:0:
207,66,9779,38,0,L|75:70,1,105,2|2,3:0|0:0,0:0:0:0:
230,146,10341,5,2,0:0:0:0:
146,151,10529,1,2,3:0:0:0:
63,156,10716,1,2,0:0:0:0:
192,219,10904,1,2,3:0:0:0:
63,156,11279,37,2,3:0:0:0:
146,151,11466,1,0,3:0:0:0:
230,146,11654,1,0,3:0:0:0:
291,283,11841,1,2,3:0:0:0:
230,146,12029,5,2,3:0:0:0:
169,283,12216,1,2,3:0:0:0:
63,156,12404,1,2,3:0:0:0:
146,151,12591,1,0,0:0:0:0:
291,283,12779,37,2,0:0:0:0:
302,294,12872,1,0,0:0:0:0:
317,304,12966,1,0,0:0:0:0:
334,311,13060,1,2,0:0:0:0:
351,314,13154,1,0,0:0:0:0:
368,315,13247,1,0,0:0:0:0:
385,311,13341,1,2,0:0:0:0:
401,305,13435,1,0,0:0:0:0:
415,296,13529,5,2,0:0:0:0:
421,260,13622,1,0,0:0:0:0:
416,226,13716,1,2,0:0:0:0:
404,193,13810,1,0,0:0:0:0:
386,162,13904,1,2,0:0:0:0:
364,136,13997,1,0,0:0:0:0:
337,114,14091,1,0,0:0:0:0:
306,95,14185,1,0,0:0:0:0:
273,84,14279,1,4,0:0:0:0:
144,93,26091,37,8,3:0:0:0:
233,32,26279,6,0,L|321:29,2,78.7500030040742,2|2|2,3:0|0:0|0:0,0:0:0:0:
138,128,27216,1,2,0:0:0:0:
138,110,27310,1,2,0:0:0:0:
144,93,27404,1,2,0:0:0:0:
227,266,27779,38,0,P|233:228|233:185,2,78.7500030040742,2|2|2,3:0|0:0|0:0,0:0:0:0:
109,329,28716,1,2,0:0:0:0:
130,330,28810,1,2,0:0:0:0:
151,322,28904,1,2,0:0:0:0:
227,266,29091,1,2,0:0:0:0:
319,255,29279,6,0,P|358:243|397:243,2,78.7500030040742,2|2|2,3:0|0:0|0:0,0:0:0:0:
372,325,30029,37,2,3:2:0:0:
469,290,30404,1,2,3:2:0:0:
319,255,30779,1,2,3:2:0:0:
372,325,31341,5,2,3:2:0:0:
319,255,31904,1,2,3:2:0:0:
390,139,32091,1,2,3:2:0:0:
275,183,32279,37,2,3:0:0:0:
390,139,32654,1,2,3:0:0:0:
204,299,33029,1,2,3:0:0:0:
319,255,33404,1,2,3:0:0:0:
160,227,33779,5,2,3:0:0:0:
275,183,34154,1,2,3:0:0:0:
89,343,34529,1,2,3:0:0:0:
204,299,34904,1,2,3:0:0:0:
160,227,35091,1,2,0:0:0:0:
289,322,35279,37,8,3:2:0:0:
275,183,35466,1,2,0:0:0:0:
275,183,35560,1,8,3:2:0:0:
425,240,35747,1,2,0:0:0:0:
425,240,35841,1,8,3:2:0:0:
361,114,36029,5,8,3:2:0:0:
345,92,36122,1,8,3:2:0:0:
326,74,36216,1,8,3:2:0:0:
304,60,36310,1,8,3:2:0:0:
280,50,36404,1,8,3:2:0:0:
254,44,36497,1,8,3:2:0:0:
228,43,36591,1,8,3:2:0:0:
202,47,36685,1,8,3:2:0:0:
202,47,37529,37,0,3:0:0:0:
26,11,37716,1,2,0:0:0:0:
21,53,37810,1,2,0:0:0:0:
108,158,37904,5,2,3:0:0:0:
61,232,37997,1,2,0:0:0:0:
107,297,38091,1,2,0:0:0:0:
90,368,38185,1,2,0:0:0:0:
90,368,38279,6,0,B|212:385|163:298|384:306|384:306|353:351|291:348,1,402.500007677078,8|0,3:0|0:0,0:0:0:0:
196,257,38841,5,2,0:0:0:0:
310,217,38935,1,2,0:0:0:0:
428,239,39029,2,0,B|474:278|458:354|458:354|504:284|443:161|485:76,1,402.500007677078,8|0,3:0|0:0,0:0:0:0:
388,152,39591,37,2,0:0:0:0:
305,74,39685,1,2,0:0:0:0:
192,78,39779,2,0,B|99:150|24:82|24:82|94:152|-23:195|27:327,1,402.500007677078,8|0,3:0|0:0,0:0:0:0:
90,368,40341,5,2,0:0:0:0:
194,359,40435,1,2,0:0:0:0:
302,348,40529,2,0,B|353:335|417:380|473:343|473:343|413:359|361:335|348:269|223:265,1,402.500007677078,8|0,3:0|0:0,0:0:0:0:
133,282,41091,37,2,0:0:0:0:
194,196,41185,1,2,0:0:0:0:
264,269,41279,22,0,P|305:281|340:301,1,78.7500030040742,8|2,3:0|0:0,0:0:0:0:
299,120,41841,1,2,0:0:0:0:
133,282,42029,2,0,P|99:215|86:177,1,105.000004005432,8|2,1:0|0:0,0:0:0:0:
379,182,42404,6,0,P|388:211|389:249,1,52.5,2|0,3:0|0:0,0:0:0:0:
299,120,42779,38,0,B|274:105|274:105|263:108|263:108|230:100|230:100|220:104|220:104|189:98|189:98|179:102|179:102|149:111|149:111|143:124|143:124|104:149|104:149|105:162|105:162|86:190|86:190,2,262.5,2|2|2,3:0|0:0|0:0,0:0:0:0:
471,286,43529,6,0,B|482:276|482:276|488:270|488:270|497:258|497:258|504:251|504:251|506:227|506:227|515:220|515:220|506:184|506:184|510:173|510:173|498:151|498:151|495:143|495:143|474:129|474:129|471:122|471:122|448:108|448:108|444:100|444:100|420:95,2,210,8|2|2,1:0|0:0|0:0,0:0:0:0:
379,182,44279,37,8,2:0:0:0:
180,302,44654,6,0,B|152:310|116:293,1,52.5000020027161,2|0,0:0|0:0,0:0:0:0:
292,243,44841,2,0,B|264:247|264:247|220:229,1,52.5000020027161,2|0,0:0|0:0,0:0:0:0:
72,162,45029,6,0,P|26:118|79:11,1,140,0|0,3:3|0:0,0:0:0:0:
201,80,45310,6,0,B|156:63|99:88|99:88|169:81|230:110,1,238.00000453949,2|0,0:0|0:0,0:0:0:0:
380,252,45591,38,0,B|383:236|383:236|372:220|382:204|382:204|374:192|379:173|379:173|370:154|377:140|377:140|374:126,1,129.499999505997,2|0,0:0|0:0,0:0:0:0:
302,50,45779,1,0,3:0:0:0:
462,292,45966,6,0,B|384:367|294:294|294:294|337:349|410:347,1,315.000012016297,2|0,0:0|0:0,0:0:0:0:
249,367,46341,2,0,B|198:333|184:263|231:203|300:210|300:210|256:183|213:192,1,315.000012016297,2|0,0:0|0:0,0:0:0:0:
5,179,46716,2,0,B|57:230|147:211|147:211|102:282|149:377,1,315.000012016297,2|2,0:0|0:0,0:0:0:0:
404,347,47091,1,2,0:0:0:0:
462,292,47185,1,2,0:0:0:0:
434,210,47279,38,0,B|429:189|429:189|421:190|421:190|414:169|414:169|406:166|406:166|394:155|394:155|387:148|387:148|376:131|376:131|367:130|367:130|359:124|359:124|346:123|346:123|327:108|327:108|314:106|314:106|294:95|294:95|279:95|279:95|251:81|251:81|241:86|241:86|216:72|216:72|206:78|206:78|190:69|190:69|186:77|186:77|168:67|168:67|126:64,2,367.500003504753,2|2|2,3:0|0:0|0:0,0:0:0:0:
79,161,48029,6,0,B|102:164|102:164|106:161|106:161|116:164|116:164|125:162|125:162|136:168|136:168|144:166|144:166|150:168|150:168|160:174|160:174|168:169|168:169|181:175|181:175|192:176|192:176|204:182|204:182|210:177|210:177|234:188|234:188|243:187|243:187|264:192|264:192|274:201|274:201|289:200|289:200|313:232|313:232|324:235|324:235|348:273|348:273|361:278|361:278|374:309|374:309|380:313|380:313|409:355,2,420,8|2|2,1:0|0:0|0:0,0:0:0:0:
46,42,48779,38,0,P|55:64|41:44,6,70,2|0|0|0|0|0|0,3:0|0:0|0:0|0:0|0:0|0:0|0:0,0:0:0:0:
46,42,49154,6,0,B|-8:94|-33:165|-3:250|59:283|59:283|145:287|219:287,1,420,0|0,3:0|0:0,0:0:0:0:
434,210,49529,37,10,0:0:0:0:
424,168,49622,1,2,0:0:0:0:
378,115,49716,1,2,0:0:0:0:
298,89,49810,1,2,0:0:0:0:
187,112,49904,5,2,0:0:0:0:
312,60,49997,6,0,L|379:43,5,46.6666666666667,2|0|2|0|2|0,0:0|0:0|0:0|0:0|0:0|0:0,0:0:0:0:
257,159,50216,1,2,0:0:0:0:
257,159,50279,22,0,P|283:227|325:275,1,119.000002269745,2|0,3:0|0:0,0:0:0:0:
50,329,50654,2,0,P|80:262|84:198,1,119.000002269745,0|2,3:0|0:3,0:0:0:0:
58,144,50935,1,2,0:3:0:0:
5,87,51029,1,2,3:0:0:0:
85,217,51216,1,2,0:0:0:0:
188,323,51404,2,0,P|278:338|344:331,1,119.000002269745,2|0,3:0|0:0,0:0:0:0:
425,202,51779,6,0,B|402:162|402:162|375:291,1,178.500003404617,2|0,3:0|0:0,0:0:0:0:
506,194,52154,1,0,3:0:0:0:
336,108,52341,2,0,P|396:81|449:93,1,119.000002269745,2|0,0:3|3:0,0:0:0:0:
269,181,52716,1,0,0:0:0:0:
220,48,52904,2,0,L|166:154,1,119.000002269745,2|0,3:0|0:0,0:0:0:0:
183,373,53279,38,0,L|101:215,1,178.500003404617,2|0,3:0|0:0,0:0:0:0:
372,254,53654,2,0,P|311:277|295:332,1,119.000002269745,0|2,3:0|0:3,0:0:0:0:
350,377,53935,1,2,0:3:0:0:
425,358,54029,1,2,3:0:0:0:
294,324,54216,1,2,0:0:0:0:
182,373,54404,2,0,P|106:374|44:348,1,119.000002269745,2|0,3:0|0:0,0:0:0:0:
372,254,54779,6,0,L|383:65,1,178.500003404617,2|0,3:0|0:0,0:0:0:0:
282,11,55154,1,0,3:0:0:0:
18,114,55341,2,0,P|94:113|131:153,1,119.000002269745,2|0,0:3|3:0,0:0:0:0:
42,257,55716,1,0,0:0:0:0:
204,98,55904,2,0,L|195:244,1,119.000002269745,2|0,3:0|0:0,0:0:0:0:
126,50,56279,38,0,P|179:3|286:13,1,178.500003404617,2|0,3:0|0:0,0:0:0:0:
382,75,56654,1,0,3:0:0:0:
288,129,56841,6,0,L|286:160,1,29.7500005674362,2|0,0:0|0:0,0:0:0:0:
361,190,56935,2,0,L|359:221,1,29.7500005674362,2|0,0:0|0:0,0:0:0:0:
436,245,57029,2,0,L|440:377,1,119.000002269745,2|0,3:0|0:0,0:0:0:0:
151,354,57404,1,0,3:0:0:0:
259,281,57591,38,0,L|261:250,1,29.7500005674362,2|0,0:0|0:0,0:0:0:0:
186,220,57685,2,0,L|188:189,1,29.7500005674362,2|0,0:0|0:0,0:0:0:0:
111,165,57779,2,0,L|107:33,1,119.000002269745,2|2,3:0|0:3,0:0:0:0:
37,218,58154,2,0,L|41:350,1,119.000002269745,2|0,3:0|0:0,0:0:0:0:
369,101,58529,6,0,P|305:78|193:116,1,178.500003404617,2|0,3:0|0:0,0:0:0:0:
187,190,58904,2,0,P|251:213|352:183,1,119.000002269745,0|2,3:0|0:3,0:0:0:0:
367,183,59185,1,2,0:3:0:0:
431,151,59279,38,0,P|453:214|448:270,1,119.000002269745,2|0,3:0|0:0,0:0:0:0:
167,373,59654,2,0,P|145:310|150:254,1,119.000002269745,0|2,3:0|0:3,0:0:0:0:
187,190,59935,1,2,0:3:0:0:
132,134,60029,2,0,P|154:71|149:15,1,119.000002269745,2|0,3:0|0:0,0:0:0:0:
84,203,60404,2,0,P|63:258|65:317,1,119.000002269745,0|2,3:0|0:3,0:0:0:0:
445,267,60779,6,0,L|251:274,1,188.999994232178,2|0,3:0|0:0,0:0:0:0:
132,134,61154,2,0,L|326:141,1,188.999994232178,2|0,3:0|0:0,0:0:0:0:
421,147,61529,1,2,3:0:0:0:
96,44,61716,1,0,0:0:0:0:
73,56,61810,1,2,0:3:0:0:
60,77,61904,2,0,P|46:160|66:205,1,125.999996154785,2|0,3:0|0:0,0:0:0:0:
311,354,62279,38,0,P|209:330|155:207,1,188.999994232178,2|2,3:0|0:3,0:0:0:0:
165,152,62654,1,2,3:0:0:0:
288,215,62841,2,0,L|296:279,1,62.9999980773926,2|0,0:0|0:0,0:0:0:0:
370,301,63029,1,2,3:0:0:0:
431,151,63216,1,2,0:0:0:0:
414,110,63310,1,2,0:3:0:0:
423,66,63404,2,0,P|475:103|457:180,1,125.999996154785,2|2,3:0|0:3,0:0:0:0:
311,354,63779,6,0,L|108:362,1,188.999994232178,2|0,3:0|0:0,0:0:0:0:
40,278,64154,1,0,3:0:0:0:
132,102,64341,2,0,P|151:174|138:242,1,125.999996154785,2|2,0:3|3:0,0:0:0:0:
14,133,64716,1,0,0:0:0:0:
0,91,64810,1,0,0:0:0:0:
14,50,64904,1,2,3:0:0:0:
132,102,65091,1,0,0:0:0:0:
336,72,65279,38,0,L|527:59,1,188.999994232178,2|2,3:0|0:3,0:0:0:0:
503,192,65654,1,2,3:0:0:0:
256,31,65841,2,0,P|249:86|255:112,1,62.9999980773926,2|0,0:0|0:0,0:0:0:0:
306,150,66029,1,2,3:0:0:0:
132,329,66216,1,2,0:0:0:0:
177,331,66310,1,2,0:3:0:0:
222,331,66404,2,0,L|358:336,1,125.999996154785,2|2,3:0|0:3,0:0:0:0:
35,116,66779,6,0,L|171:111,1,125.999996154785,2|0,3:0|0:0,0:0:0:0:
369,246,67154,2,0,L|233:241,1,125.999996154785,2|0,3:0|0:0,0:0:0:0:
349,65,67529,2,0,P|309:130|239:150,1,125.999996154785,2|0,3:0|0:0,0:0:0:0:
229,81,67810,1,2,0:3:0:0:
279,24,67904,1,2,3:0:0:0:
265,148,68091,1,0,0:0:0:0:
369,323,68279,6,0,P|374:281|364:230,1,78.7500030040742,2|2,3:0|0:0,0:0:0:0:
183,368,68841,6,0,L|208:366,1,13.125000500679,2|0,0:0|0:0,0:0:0:0:
165,354,68935,2,0,L|140:352,1,13.125000500679,2|0,0:0|0:0,0:0:0:0:
176,341,69029,38,0,L|258:330,1,78.7500030040742,10|0,1:0|0:0,0:0:0:0:
279,256,69404,1,2,0:0:0:0:
189,265,69591,1,2,0:0:0:0:
111,138,69779,6,0,P|139:165|145:217,1,78.7500030040742,2|2,3:0|0:0,0:0:0:0:
35,109,70341,38,0,P|40:98|49:92,1,13.125000500679,2|0,0:0|0:0,0:0:0:0:
47,66,70435,2,0,P|58:61|68:63,1,13.125000500679,2|0,0:0|0:0,0:0:0:0:
79,44,70529,2,0,P|118:47|159:68,1,78.7500030040742,10|0,1:0|3:0,0:0:0:0:
451,175,71279,22,0,L|241:191,1,188.999994232178,2|2,3:0|0:3,0:0:0:0:
184,379,71654,2,0,P|220:298|209:221,1,125.999996154785,2|2,3:0|0:3,0:0:0:0:
182,177,71935,1,2,0:3:0:0:
125,98,72029,6,0,L|335:114,1,188.999994232178,2|2,3:0|0:3,0:0:0:0:
392,302,72404,2,0,P|356:221|367:144,1,125.999996154785,2|2,3:0|0:3,0:0:0:0:
406,112,72685,1,2,0:3:0:0:
357,41,72779,38,0,L|168:26,1,188.999994232178,2|2,3:0|0:3,0:0:0:0:
32,86,73154,2,0,P|53:165|59:225,1,125.999996154785,2|2,3:0|0:3,0:0:0:0:
26,291,73435,1,2,0:3:0:0:
63,371,73529,5,2,3:0:0:0:
111,369,73622,1,2,0:0:0:0:
146,355,73716,1,2,0:0:0:0:
171,326,73810,1,2,0:0:0:0:
162,302,73904,1,2,3:0:0:0:
143,285,73997,1,2,0:0:0:0:
138,289,74091,1,2,0:3:0:0:
138,295,74185,1,2,0:0:0:0:
142,301,74279,38,0,L|377:291,1,220.499993270874,2|2,3:0|0:3,0:0:0:0:
512,292,74654,1,2,3:0:0:0:
58,208,74841,2,0,L|210:210,1,146.999995513916,2|0,0:3|3:0,0:0:0:0:
447,223,75216,1,2,0:3:0:0:
427,143,75310,1,2,0:3:0:0:
347,128,75404,2,0,P|268:87|252:50,2,73.4999977569581,2|0|2,3:0|0:0|0:0,0:0:0:0:
44,344,75779,6,0,P|17:260|32:222,1,73.4999977569581,2|0,3:0|0:0,0:0:0:0:
58,208,75966,1,2,0:3:0:0:
16,138,76060,1,2,0:3:0:0:
62,71,76154,2,0,P|89:-13|74:-51,2,73.4999977569581,2|0|2,3:0|0:0|0:0,0:0:0:0:
149,207,76529,38,0,P|229:190|367:205,1,220.499993270874,2|2,3:0|0:3,0:0:0:0:
369,67,76904,2,0,P|289:84|151:69,1,220.499993270874,2|0,3:0|0:0,0:0:0:0:
107,137,77279,6,0,P|76:220|103:281,1,146.999995513916,2|0,3:0|0:0,0:0:0:0:
415,277,77654,1,2,3:0:0:0:
146,351,77841,2,0,L|297:354,1,146.999995513916,2|0,0:3|3:0,0:0:0:0:
396,40,78216,1,2,0:3:0:0:
369,125,78310,1,2,0:3:0:0:
339,208,78404,38,0,L|512:188,1,146.999995513916,2|2,3:0|0:0,0:0:0:0:
221,120,78779,1,2,3:0:0:0:
292,353,78966,1,2,0:3:0:0:
315,281,79060,1,2,0:3:0:0:
339,208,79154,6,0,L|192:224,1,146.999995513916,2|2,3:0|0:0,0:0:0:0:
66,55,79529,2,0,P|37:165|51:287,1,220.499993270874,2|2,3:0|0:0,0:0:0:0:
166,384,79904,2,0,P|128:304|121:238,1,146.999995513916,2|2,3:0|0:3,0:0:0:0:
333,61,80279,37,2,3:0:0:0:
435,327,80466,1,0,0:0:0:0:
404,294,80560,1,0,0:0:0:0:
359,294,80654,1,0,3:0:0:0:
501,222,80841,1,2,0:3:0:0:
440,64,81029,5,0,3:0:0:0:
139,221,81216,1,0,0:0:0:0:
170,254,81310,1,0,0:0:0:0:
215,254,81404,1,2,3:0:0:0:
96,131,81591,1,2,0:0:0:0:
311,217,81779,37,2,3:0:0:0:
158,71,81966,1,2,0:0:0:0:
120,47,82060,1,2,0:0:0:0:
75,45,82154,2,0,L|-11:48,1,73.4999977569581,2|0,3:0|0:0,0:0:0:0:
80,155,82341,5,2,0:3:0:0:
89,144,82435,1,2,0:3:0:0:
96,131,82529,2,0,P|56:139|25:230,1,146.999995513916,2|0,3:0|0:0,0:0:0:0:
304,280,82904,1,0,3:0:0:0:
96,131,83091,1,2,0:3:0:0:
40,352,83279,38,0,L|239:244,1,220.499993270874,2|2,3:0|0:0,0:0:0:0:
302,204,83654,1,2,3:0:0:0:
437,368,83841,1,2,0:3:0:0:
400,45,84029,6,0,L|206:150,1,220.499993270874,2|0,3:0|0:0,0:0:0:0:
138,193,84404,1,2,3:0:0:0:
479,0,84591,1,2,0:3:0:0:
79,59,84779,38,0,P|130:159|140:224,1,146.999995513916,2|0,3:0|0:0,0:0:0:0:
486,152,85154,2,0,P|448:214|427:285,1,146.999995513916,2|2,3:0|0:3,0:0:0:0:
437,368,85435,1,2,0:3:0:0:
363,332,85529,5,10,3:0:0:0:
284,317,85622,1,10,0:0:0:0:
210,323,85716,37,10,0:0:0:0:
140,348,85810,1,10,0:0:0:0:
46,327,85904,1,14,3:0:0:0:
210,323,86091,1,2,0:0:0:0:
285,83,86279,21,2,0:0:0:0:
333,158,86654,1,2,0:0:0:0:
237,158,87029,1,2,0:0:0:0:
285,83,87404,1,2,0:0:0:0:
285,83,87779,5,2,0:0:0:0:
237,158,88060,1,2,0:0:0:0:
333,158,88341,37,2,0:0:0:0:
285,83,88529,1,2,0:0:0:0:
237,158,88904,1,2,0:0:0:0:
189,233,89091,1,0,0:0:0:0:
141,308,89279,5,2,0:0:0:0:
189,233,89654,1,2,0:0:0:0:
93,233,90029,1,2,0:0:0:0:
141,308,90404,1,2,0:0:0:0:
141,308,90779,37,2,0:0:0:0:
93,233,91060,1,2,0:0:0:0:
189,233,91341,1,2,0:0:0:0:
285,83,91529,5,6,3:0:0:0:
