osu file format v14

[General]
AudioFilename: audio.mp3
AudioLeadIn: 0
PreviewTime: -1
Countdown: 0
SampleSet: Soft
StackLeniency: 0.7
Mode: 0
LetterboxInBreaks: 0
WidescreenStoryboard: 0

[Editor]
DistanceSpacing: 2.6
BeatDivisor: 4
GridSize: 4
TimelineZoom: 2.2

[Metadata]
Title:Reimu Fire
TitleUnicode:Reimu Fire
Artist:Riverside
ArtistUnicode:秣本瑳羅
Creator:truonant
Version:non-rank
Source:東方Project
Tags:幻想郷ライフシンドローム 秣本 瑳羅 すのうまん 東方永夜抄 Hakurei theme 少女綺想曲 Dream Battle Maiden's Capriccio Dream Battle
BeatmapID:984758
BeatmapSetID:459696

[Difficulty]
HPDrainRate:7
CircleSize:4
OverallDifficulty:8
ApproachRate:9
SliderMultiplier:1.4
SliderTickRate:1

[Events]
//Background and Video events
0,0,"reimu.jpg",0,0
//Break Periods
2,89004,93256
//Storyboard Layer 0 (Background)
//Storyboard Layer 1 (Fail)
//Storyboard Layer 2 (Pass)
//Storyboard Layer 3 (Foreground)
//Storyboard Sound Samples

[TimingPoints]
383,315.789473684211,4,2,1,70,1,0
45856,-100,4,2,1,70,0,0
66067,-100,4,2,1,70,0,0
68593,-83.3333333333333,4,2,1,80,0,1
88804,-83.3333333333333,4,2,1,70,0,0
98909,-100,4,2,1,70,0,0

[HitObjects]
92,288,383,6,0,P|92:248|124:200,1,70,2|0,0:0|0:0,0:0:0:0:
196,104,698,2,0,L|188:180,1,70,8|0,0:0|0:0,0:0:0:0:
356,212,1014,2,0,L|286:212,1,70,2|0,0:0|0:0,0:0:0:0:
324,312,1330,1,8,0:0:0:0:
452,204,1488,1,0,0:0:0:0:
320,120,1646,6,0,L|320:32,1,70,2|0,0:0|0:0,0:0:0:0:
188,172,1961,2,0,L|188:248,1,70,8|0,0:0|0:0,0:0:0:0:
48,88,2277,2,0,L|132:88,1,70,2|0,0:0|0:0,0:0:0:0:
228,80,2593,1,8,0:0:0:0:
76,184,2751,1,0,0:0:0:0:
152,332,2909,6,0,P|184:340|232:328,1,70,2|0,0:0|0:0,0:0:0:0:
344,232,3225,2,0,L|336:308,1,70,8|0,0:0|0:0,0:0:0:0:
468,184,3540,2,0,L|476:104,1,70,2|0,0:0|0:0,0:0:0:0:
380,152,3856,1,8,0:0:0:0:
460,276,4014,1,0,0:0:0:0:
488,88,4172,6,0,P|456:72|400:64,1,70,2|0,0:0|0:0,0:0:0:0:
272,132,4487,2,0,L|264:208,1,70,8|0,0:0|0:0,0:0:0:0:
304,40,4804,2,0,P|268:32|234:40,1,70,2|0,0:0|0:0,0:0:0:0:
152,184,5119,1,8,0:0:0:0:
252,328,5277,1,0,0:0:0:0:
400,220,5435,6,0,L|400:312,1,70,2|0,0:0|0:0,0:0:0:0:
484,136,5751,2,0,L|484:216,1,70,8|0,0:0|0:0,0:0:0:0:
228,252,6067,1,0,0:0:0:0:
312,252,6225,1,2,0:0:0:0:
144,252,6383,2,0,L|56:252,1,70,8|0,0:0|0:0,0:0:0:0:
184,116,6698,6,0,L|184:208,1,70,2|0,0:0|0:0,0:0:0:0:
100,32,7014,2,0,L|100:112,1,70,8|0,0:0|0:0,0:0:0:0:
364,56,7330,1,0,0:0:0:0:
268,152,7488,1,2,0:0:0:0:
436,156,7646,2,0,L|524:156,1,70,8|0,0:0|0:0,0:0:0:0:
364,56,7961,6,0,P|328:48|296:48,1,70,2|0,0:0|0:0,0:0:0:0:
236,216,8277,2,0,P|260:188|268:144,1,70,8|0,0:0|0:0,0:0:0:0:
72,124,8593,1,0,0:0:0:0:
148,28,8751,1,2,0:0:0:0:
148,196,8909,2,0,L|148:284,1,70,8|0,0:0|0:0,0:0:0:0:
319,199,9225,6,0,P|299:171|262:155,1,70,2|0,0:0|0:0,0:0:0:0:
78,266,9541,2,0,L|150:266,1,70,8|0,0:0|0:0,0:0:0:0:
360,276,9856,1,0,0:0:0:0:
256,320,10014,1,2,0:0:0:0:
460,220,10172,2,0,L|460:132,1,70,8|0,0:0|0:0,0:0:0:0:
256,40,10488,6,0,L|256:136,1,70,2|0,0:0|0:0,0:0:0:0:
360,276,10804,2,0,P|324:269|298:246,1,70,8|0,0:0|0:0,0:0:0:0:
380,144,11120,1,2,0:0:0:0:
400,40,11278,1,0,0:0:0:0:
356,244,11435,2,0,P|320:237|294:214,1,70,8|0,0:0|0:0,0:0:0:0:
256,40,11751,6,0,L|256:136,1,70,2|0,0:0|0:0,0:0:0:0:
152,276,12067,2,0,P|187:269|213:246,1,70,8|0,0:0|0:0,0:0:0:0:
132,144,12383,1,2,0:0:0:0:
112,40,12541,1,0,0:0:0:0:
156,244,12698,2,0,P|191:237|217:214,1,70,8|0,0:0|0:0,0:0:0:0:
256,40,13014,6,0,P|296:34|324:38,1,70,2|0,0:0|0:0,0:0:0:0:
400,216,13330,2,0,P|440:221|468:217,1,70,8|0,0:0|0:0,0:0:0:0:
304,180,13646,1,0,0:0:0:0:
215,128,13804,1,2,0:0:0:0:
400,216,13961,2,0,P|428:188|436:156,1,70,8|0,0:0|0:0,0:0:0:0:
324,40,14277,6,0,L|309:108,1,70,2|0,0:0|0:0,0:0:0:0:
356,328,14593,2,0,L|370:259,1,70,8|0,0:0|0:0,0:0:0:0:
182,169,14909,2,0,L|250:183,1,70,2|0,0:0|0:0,0:0:0:0:
486,181,15225,2,0,L|417:166,1,70,8|0,0:0|0:0,0:0:0:0:
126,251,15540,6,0,P|168:217|177:139,1,105,2|0,0:0|0:0,0:0:0:0:
253,25,15856,2,0,P|244:88|264:148,1,105,8|0,0:0|0:0,0:0:0:0:
388,76,16172,2,0,L|344:76,1,35,2|0,0:0|0:0,0:0:0:0:
456,160,16330,2,0,L|491:160,1,35,2|0,0:0|0:0,0:0:0:0:
484,52,16488,1,8,0:0:0:0:
456,248,16646,2,0,L|452:344,1,70
160,324,16961,5,2,0:0:0:0:
164,316,17119,2,0,L|172:224,1,70,8|0,0:0|0:0,0:0:0:0:
388,76,17435,2,0,L|384:164,1,70,2|0,0:0|0:0,0:0:0:0:
232,120,17672,2,0,L|197:120,1,35,2|8,0:0|0:0,0:0:0:0:
384,248,17909,2,0,L|436:248,1,35,2|0,0:0|0:0,0:0:0:0:
288,332,18067,6,0,L|296:196,1,105,4|0,0:0|0:0,0:0:0:0:
292,220,18383,1,8,0:0:0:0:
32,144,18698,2,0,L|84:144,1,35,2|0,0:0|0:0,0:0:0:0:
124,248,18856,2,0,L|164:248,1,35,2|0,0:0|0:0,0:0:0:0:
256,128,19014,1,8,0:0:0:0:
162,252,19172,2,0,P|146:308|174:364,1,105,2|0,0:0|0:0,0:0:0:0:
256,163,19488,6,0,L|256:99,1,35,2|0,0:0|0:0,0:0:0:0:
364,36,19646,2,0,L|364:136,1,70,8|0,0:0|0:0,0:0:0:0:
112,56,19961,2,0,P|164:40|212:56,1,105,2|0,0:0|0:0,0:0:0:0:
160,284,20277,2,0,L|160:168,1,105,8|0,0:0|0:0,0:0:0:0:
164,172,20593,5,4,0:0:0:0:
240,372,20909,2,0,P|276:320|260:256,1,105,8|0,0:0|0:0,0:0:0:0:
167,166,21225,1,2,0:0:0:0:
296,88,21383,1,2,0:0:0:0:
170,158,21540,1,8,0:0:0:0:
273,280,21698,2,0,L|261:148,1,105,2|0,0:0|0:0,0:0:0:0:
352,132,22014,6,0,L|360:48,1,70,2|8,0:0|0:0,0:0:0:0:
456,108,22330,1,2,0:0:0:0:
264,48,22488,2,0,L|172:40,1,70,2|0,0:0|0:0,0:0:0:0:
40,92,22725,2,0,L|75:92,1,35,2|8,0:0|0:0,0:0:0:0:
193,169,22883,2,0,L|282:176,1,70,2|0,0:0|0:0,0:0:0:0:
352,312,23119,2,0,B|356:248|388:252|388:252|372:188|384:180|384:180|380:120|308:100,1,245,2|0,0:0|0:0,0:0:0:0:
196,40,23751,1,2,0:0:0:0:
204,108,23909,1,0,0:0:0:0:
208,176,24067,1,8,0:0:0:0:
152,216,24225,1,0,0:0:0:0:
220,208,24383,5,2,0:0:0:0:
288,228,24541,1,0,0:0:0:0:
340,276,24698,1,8,0:0:0:0:
276,300,24856,5,0,0:0:0:0:
360,200,25014,1,2,0:0:0:0:
396,328,25172,1,0,0:0:0:0:
232,176,25330,1,8,0:0:0:0:
396,328,25646,6,0,P|438:294|447:216,1,105,6|0,0:0|0:0,0:0:0:0:
348,120,25962,2,0,P|339:183|359:243,1,105,8|0,0:0|0:0,0:0:0:0:
245,138,26278,2,0,L|201:138,1,35,2|0,0:0|0:0,0:0:0:0:
313,222,26436,2,0,L|348:222,1,35,2|0,0:0|0:0,0:0:0:0:
337,106,26594,1,8,0:0:0:0:
305,300,26752,2,0,L|301:396,1,70
124,96,27067,5,2,0:0:0:0:
128,100,27225,2,0,L|220:108,1,70,8|0,0:0|0:0,0:0:0:0:
374,303,27541,2,0,L|286:299,1,70,2|0,0:0|0:0,0:0:0:0:
280,144,27778,2,0,L|280:109,1,35,2|8,0:0|0:0,0:0:0:0:
228,264,28015,2,0,L|228:316,1,35,2|0,0:0|0:0,0:0:0:0:
168,184,28172,6,0,L|52:180,1,105,4|0,0:0|0:0,0:0:0:0:
128,364,28488,2,0,P|136:304|128:256,1,105,8|0,0:0|0:0,0:0:0:0:
124,256,28804,1,0,0:0:0:0:
268,216,28961,1,2,0:0:0:0:
280,72,29119,2,0,P|220:80|180:112,1,105,8|0,0:0|0:0,0:0:0:0:
268,216,29435,6,0,L|268:176,1,35,2|0,0:0|0:0,0:0:0:0:
364,284,29593,2,0,L|364:248,1,35,2|0,0:0|0:0,0:0:0:0:
356,160,29751,1,8,0:0:0:0:
268,320,29909,1,2,0:0:0:0:
462,283,30067,2,0,P|410:299|362:283,1,105,2|0,0:0|0:0,0:0:0:0:
356,55,30383,2,0,L|356:171,1,105,8|0,0:0|0:0,0:0:0:0:
356,168,30699,5,4,0:0:0:0:
50,283,31014,2,0,P|102:299|150:283,1,105,2|0,0:0|0:0,0:0:0:0:
272,160,31330,2,0,L|256:200,1,35,2|0,0:0|0:0,0:0:0:0:
160,128,31488,2,0,L|172:88,1,35,2|0,0:0|0:0,0:0:0:0:
64,32,31646,1,8,0:0:0:0:
28,256,31961,2,0,L|104:256,1,70,2|0,0:0|0:0,0:0:0:0:
240,352,32277,2,0,L|240:268,1,70,8|0,0:0|0:0,0:0:0:0:
78,283,32593,2,0,L|154:283,1,70,2|0,0:0|0:0,0:0:0:0:
344,352,32909,1,8,0:0:0:0:
444,260,32988,2,0,L|444:330,1,70,2|0,0:0|0:0,0:0:0:0:
325,257,33225,6,0,P|386:172|443:259,1,245,2|0,0:0|0:0,0:0:0:0:
344,352,33857,1,2,0:0:0:0:
416,296,34015,1,0,0:0:0:0:
256,332,34173,1,8,0:0:0:0:
216,248,34331,1,0,0:0:0:0:
328,256,34488,5,2,0:0:0:0:
392,184,34647,1,0,0:0:0:0:
320,244,34804,1,8,0:0:0:0:
276,140,34962,5,0,0:0:0:0:
176,76,35120,1,2,0:0:0:0:
216,248,35278,5,0,0:0:0:0:
340,32,35436,1,8,0:0:0:0:
72,184,35751,6,0,L|156:164,1,70,2|0,0:0|0:0,0:0:0:0:
459,165,36067,2,0,L|387:185,1,70,8|0,0:0|0:0,0:0:0:0:
230,316,36383,2,0,L|210:224,1,70,2|0,0:0|0:0,0:0:0:0:
340,32,36698,2,0,L|356:116,1,70,8|0,0:0|0:0,0:0:0:0:
215,247,37014,2,0,P|243:223|251:183,1,70,2|0,0:0|0:0,0:0:0:0:
72,114,37330,2,0,L|72:186,1,70,8|0,0:0|0:0,0:0:0:0:
312,280,37646,2,0,L|384:280,1,70,2|0,0:0|0:0,0:0:0:0:
208,56,37961,2,0,P|168:100|168:152,1,105,8|0,0:0|0:0,0:0:0:0:
165,143,38277,5,2,0:0:0:0:
288,144,38435,1,0,0:0:0:0:
188,276,38593,2,0,P|204:208|164:140,1,140,8|2,0:0|0:0,0:0:0:0:
104,220,39067,1,0,0:0:0:0:
284,140,39225,2,0,L|440:116,1,140,8|2,0:0|0:0,0:0:0:0:
352,36,39698,1,2,0:0:0:0:
236,212,39856,2,0,P|208:284|236:348,1,140,8|0,0:0|0:0,0:0:0:0:
312,280,40330,1,2,0:0:0:0:
173,148,40488,2,0,L|52:144,1,105,8|0,0:0|0:0,0:0:0:0:
36,188,40804,6,0,L|28:108,1,70,4|0,0:0|0:0,0:0:0:0:
136,304,41119,2,0,L|124:228,1,70,8|0,0:0|0:0,0:0:0:0:
168,104,41435,1,2,0:0:0:0:
140,40,41593,1,2,0:0:0:0:
204,164,41751,2,0,L|280:144,1,70,8|0,0:0|0:0,0:0:0:0:
204,316,42067,5,2,0:0:0:0:
136,304,42225,1,2,0:0:0:0:
272,328,42383,2,0,L|288:248,1,70,8|0,0:0|0:0,0:0:0:0:
380,92,42698,1,2,0:0:0:0:
340,32,42856,1,2,0:0:0:0:
420,148,43014,2,0,L|366:193,1,70,8|0,0:0|0:0,0:0:0:0:
436,352,43330,6,0,P|440:316|428:272,1,70,4|0,0:0|0:0,0:0:0:0:
272,192,43645,2,0,L|282:261,1,70,8|0,0:0|0:0,0:0:0:0:
296,120,43961,1,2,0:0:0:0:
364,140,44119,1,2,0:0:0:0:
232,96,44277,2,0,L|192:163,1,70,8|0,0:0|0:0,0:0:0:0:
124,308,44593,5,2,0:0:0:0:
56,296,44751,1,2,0:0:0:0:
192,320,44909,2,0,L|208:240,1,70,8|0,0:0|0:0,0:0:0:0:
372,180,45226,1,2,0:0:0:0:
432,220,45383,1,2,0:0:0:0:
316,140,45540,2,0,L|271:194,1,70,8|0,0:0|0:0,0:0:0:0:
152,188,45856,6,0,P|136:140|168:80,1,105,2|0,0:0|0:0,0:0:0:0:
316,140,46172,2,0,L|208:140,1,105,8|0,0:0|0:0,0:0:0:0:
188,304,46488,2,0,P|212:280|216:204,1,105,2|0,0:0|0:0,0:0:0:0:
255,89,46804,2,0,L|271:197,1,105,8|0,0:0|0:0,0:0:0:0:
297,335,47119,6,0,P|324:255|269:192,1,175,2|0,0:0|0:0,0:0:0:0:
223,276,47593,1,0,0:0:0:0:
216,272,47751,2,0,L|196:192,1,70,2|0,0:0|0:0,0:0:0:0:
152,36,48067,1,8,0:0:0:0:
192,200,48225,1,0,0:0:0:0:
56,96,48383,6,0,L|32:204,1,105,2|0,0:0|0:0,0:0:0:0:
178,295,48699,2,0,P|195:246|187:195,1,105,8|0,0:0|0:0,0:0:0:0:
40,276,49015,2,0,P|68:324|112:336,1,70,2|0,0:0|0:0,0:0:0:0:
187,195,49330,2,0,L|164:88,1,105,8|0,0:0|0:0,0:0:0:0:
27,73,49646,6,0,P|129:122|174:69,1,175,2|0,0:0|0:0,0:0:0:0:
100,40,50119,1,2,0:0:0:0:
104,32,50277,2,0,L|100:104,1,70,2|0,0:0|0:0,0:0:0:0:
84,272,50594,1,8,0:0:0:0:
100,104,50751,1,0,0:0:0:0:
88,280,50909,6,0,B|88:324|80:372|80:372|120:312,1,140,2|8,0:0|0:0,0:0:0:0:
200,196,51383,1,0,0:0:0:0:
112,332,51540,1,2,0:0:0:0:
156,264,51698,1,0,0:0:0:0:
236,120,51856,2,0,L|152:120,1,70,8|0,0:0|0:0,0:0:0:0:
8,204,52172,6,0,P|0:160|24:116,1,70,2|0,0:0|0:0,0:0:0:0:
80,256,52488,2,0,L|80:344,1,70,8|0,0:0|0:0,0:0:0:0:
333,127,52804,2,0,P|277:107|225:127,1,105,2|0,0:0|0:0,0:0:0:0:
280,268,53119,2,0,L|280:198,1,70,8|0,0:0|0:0,0:0:0:0:
232,112,53435,5,2,0:0:0:0:
344,272,53593,1,0,0:0:0:0:
276,192,53751,1,8,0:0:0:0:
196,288,53909,6,0,L|196:228,1,35,2|0,0:0|0:0,0:0:0:0:
272,184,54067,1,2,0:0:0:0:
344,112,54225,1,0,0:0:0:0:
416,32,54383,1,8,0:0:0:0:
460,272,54698,6,0,L|445:195,1,70,2|0,0:0|0:0,0:0:0:0:
182,184,55014,2,0,L|195:252,1,70,8|0,0:0|0:0,0:0:0:0:
280,344,55330,1,2,0:0:0:0:
172,176,55488,1,0,0:0:0:0:
312,200,55646,1,8,0:0:0:0:
128,312,55804,1,0,0:0:0:0:
280,344,55961,6,0,P|264:296|296:236,1,105,2|0,0:0|0:0,0:0:0:0:
132,184,56277,2,0,L|240:184,1,105,8|0,0:0|0:0,0:0:0:0:
88,120,56593,2,0,P|112:96|116:20,1,105,2|0,0:0|0:0,0:0:0:0:
20,160,56909,2,0,L|36:268,1,105,8|0,0:0|0:0,0:0:0:0:
184,200,57224,6,0,P|116:280|132:352,1,175,2|0,0:0|0:0,0:0:0:0:
212,296,57698,1,0,0:0:0:0:
216,300,57856,2,0,L|292:284,1,70,2|0,0:0|0:0,0:0:0:0:
452,252,58172,1,8,0:0:0:0:
292,280,58330,1,0,0:0:0:0:
388,144,58488,6,0,L|364:252,1,105,2|0,0:0|0:0,0:0:0:0:
240,348,58804,2,0,P|289:365|340:348,1,105,8|0,0:0|0:0,0:0:0:0:
204,256,59120,2,0,P|156:284|140:340,1,105,2|0,0:0|0:0,0:0:0:0:
292,280,59435,2,0,L|269:173,1,105,8|0,0:0|0:0,0:0:0:0:
240,348,59751,6,0,P|360:332|376:288,1,175,2|0,0:0|0:0,0:0:0:0:
364,200,60225,1,2,0:0:0:0:
372,196,60382,2,0,L|444:200,1,70,2|0,0:0|0:0,0:0:0:0:
292,280,60699,1,8,0:0:0:0:
360,104,60856,1,0,0:0:0:0:
184,136,61014,6,0,B|163:138|145:136|145:136|118:141|88:156|88:156|52:132,1,140,2|8,0:0|0:0,0:0:0:0:
168,240,61488,1,0,0:0:0:0:
48,128,61645,1,2,0:0:0:0:
108,188,61803,1,0,0:0:0:0:
236,292,61961,2,0,L|306:292,1,70,8|0,0:0|0:0,0:0:0:0:
344,100,62277,6,0,P|336:144|360:188,1,70,2|0,0:0|0:0,0:0:0:0:
496,48,62593,2,0,L|408:48,1,70,8|0,0:0|0:0,0:0:0:0:
372,348,62909,2,0,P|392:292|372:240,1,105,2|0,0:0|0:0,0:0:0:0:
236,292,63224,2,0,L|306:292,1,70,8|0,0:0|0:0,0:0:0:0:
379,250,63540,5,2,0:0:0:0:
267,90,63698,1,0,0:0:0:0:
327,174,63856,1,8,0:0:0:0:
415,74,64014,6,0,L|415:134,1,35,2|0,0:0|0:0,0:0:0:0:
339,178,64172,1,2,0:0:0:0:
267,250,64330,1,0,0:0:0:0:
195,330,64488,1,8,0:0:0:0:
44,148,64804,6,0,L|56:236,1,70,2|0,0:0|0:0,0:0:0:0:
136,64,65119,2,0,L|124:164,1,70,8|0,0:0|0:0,0:0:0:0:
40,56,65435,1,2,0:0:0:0:
216,96,65593,2,0,P|284:96|348:56,1,140,2|0,0:0|0:0,0:0:0:0:
264,200,66067,5,2,0:0:0:0:
332,220,66225,1,2,0:0:0:0:
200,176,66383,2,0,L|160:243,1,70,8|0,0:0|0:0,0:0:0:0:
404,240,66699,1,2,0:0:0:0:
392,308,66857,1,2,0:0:0:0:
416,172,67015,2,0,L|336:156,1,70,8|0,0:0|0:0,0:0:0:0:
160,236,67330,5,2,0:0:0:0:
200,176,67489,1,2,0:0:0:0:
120,292,67646,2,0,L|174:337,1,70,8|0,0:0|0:0,0:0:0:0:
392,308,67961,1,2,0:0:0:0:
452,348,68118,1,2,0:0:0:0:
336,268,68275,2,0,L|291:322,1,70,8|0,0:0|0:0,0:0:0:0:
44,192,68593,6,0,L|128:192,1,83.9999974365235,2|0,0:0|0:0,0:0:0:0:
256,328,68909,2,0,L|256:236,1,83.9999974365235,8|0,0:0|0:0,0:0:0:0:
468,192,69225,2,0,L|384:192,1,83.9999974365235,2|0,0:0|0:0,0:0:0:0:
256,56,69540,2,0,L|256:140,1,83.9999974365235,8|0,0:0|0:0,0:0:0:0:
44,192,69856,6,0,P|64:232|112:248,1,83.9999974365235,2|0,0:0|0:0,0:0:0:0:
256,328,70172,2,0,P|252:288|224:240,1,83.9999974365235,8|0,0:0|0:0,0:0:0:0:
392,160,70488,2,0,P|444:172|470:199,1,83.9999974365235,2|0,0:0|0:0,0:0:0:0:
256,60,70804,2,0,L|172:60,1,83.9999974365235,8|0,0:0|0:0,0:0:0:0:
97,246,71119,6,0,P|112:285|105:326,1,83.9999974365235,2|0,0:0|0:0,0:0:0:0:
312,231,71435,2,0,P|272:247|216:247,1,83.9999974365235,8|0,0:0|0:0,0:0:0:0:
411,78,71751,2,0,L|387:178,1,83.9999974365235,2|0,0:0|0:0,0:0:0:0:
139,134,72067,2,0,P|163:102|163:22,1,83.9999974365235,8|0,0:0|0:0,0:0:0:0:
104,326,72383,6,0,P|144:330|188:314,1,83.9999974365235,2|0,0:0|0:0,0:0:0:0:
324,148,72698,2,0,L|312:231,1,83.9999974365235,8|0,0:0|0:0,0:0:0:0:
292,368,73014,1,2,0:0:0:0:
312,240,73172,1,0,0:0:0:0:
184,315,73330,1,8,0:0:0:0:
192,308,73646,6,0,P|228:244|188:140,1,167.999994873047,2|8,0:0|0:0,0:0:0:0:
360,20,74277,1,2,0:0:0:0:
204,156,74435,1,0,0:0:0:0:
284,92,74593,1,8,0:0:0:0:
124,224,74751,2,0,P|212:248|236:236,1,83.9999974365235,0|2,0:0|0:0,0:0:0:0:
272,380,75067,6,0,L|280:296,1,83.9999974365235,0|8,0:0|0:0,0:0:0:0:
304,56,75540,1,2,0:0:0:0:
352,240,75698,1,0,0:0:0:0:
328,152,75856,2,0,L|424:164,1,83.9999974365235,8|0,0:0|0:0,0:0:0:0:
384,336,76172,5,2,0:0:0:0:
177,266,76330,1,0,0:0:0:0:
328,152,76488,2,0,L|328:52,1,83.9999974365235,8|0,0:0|0:0,0:0:0:0:
309,266,76804,5,2,0:0:0:0:
195,114,76962,2,0,L|95:114,1,83.9999974365235,0|8,0:0|0:0,0:0:0:0:
309,133,77277,5,0,0:0:0:0:
158,247,77435,2,0,L|158:346,1,83.9999974365235,2|0,0:0|0:0,0:0:0:0:
177,133,77751,5,8,0:0:0:0:
290,284,77909,2,0,L|389:284,1,83.9999974365235,0|2,0:0|0:0,0:0:0:0:
404,256,78146,1,0,0:0:0:0:
408,216,78225,1,0,0:0:0:0:
412,176,78304,1,0,0:0:0:0:
432,128,78383,1,0,0:0:0:0:
464,176,78461,1,0,0:0:0:0:
464,228,78540,1,0,0:0:0:0:
460,280,78619,1,0,0:0:0:0:
452,332,78698,6,0,P|364:340|340:336,1,83.9999974365235,2|0,0:0|0:0,0:0:0:0:
172,372,79014,2,0,L|184:280,1,83.9999974365235,8|0,0:0|0:0,0:0:0:0:
56,56,79330,1,2,0:0:0:0:
116,172,79488,1,0,0:0:0:0:
52,48,79646,2,0,L|42:135,1,83.9999974365235,8|0,0:0|0:0,0:0:0:0:
116,260,79961,6,0,L|124:156,1,83.9999974365235,2|0,0:0|0:0,0:0:0:0:
4,344,80277,2,0,P|44:348|100:332,1,83.9999974365235,8|0,0:0|0:0,0:0:0:0:
408,264,80593,1,2,0:0:0:0:
240,308,80751,1,0,0:0:0:0:
416,272,80909,2,0,L|400:184,1,83.9999974365235,8|0,0:0|0:0,0:0:0:0:
248,136,81225,6,0,L|232:324,1,167.999994873047,2|8,0:0|0:0,0:0:0:0:
72,128,81856,1,2,0:0:0:0:
248,124,82014,1,0,0:0:0:0:
412,120,82172,2,0,L|516:120,1,83.9999974365235,8|0,0:0|0:0,0:0:0:0:
472,312,82488,6,0,L|464:192,1,83.9999974365235,2|0,0:0|0:0,0:0:0:0:
448,36,82804,2,0,P|408:28|356:40,1,83.9999974365235,8|0,0:0|0:0,0:0:0:0:
112,184,83119,1,2,0:0:0:0:
236,108,83277,1,0,0:0:0:0:
104,184,83435,2,0,L|116:268,1,83.9999974365235,8|0,0:0|0:0,0:0:0:0:
336,168,83751,6,0,L|352:84,1,83.9999974365235,2|0,0:0|0:0,0:0:0:0:
208,256,84067,2,0,L|228:364,1,83.9999974365235,8|0,0:0|0:0,0:0:0:0:
440,140,84382,1,2,0:0:0:0:
236,108,84540,1,0,0:0:0:0:
444,151,84699,2,0,L|466:64,1,83.9999974365235,8|0,0:0|0:0,0:0:0:0:
312,280,85014,5,2,0:0:0:0:
316,284,85330,2,0,P|268:204|292:120,1,167.999994873047,8|2,0:0|0:0,0:0:0:0:
364,192,85804,1,0,0:0:0:0:
204,260,85961,2,0,L|37:285,1,167.999994873047,8|2,0:0|0:0,0:0:0:0:
308,124,86593,2,0,L|474:98,1,167.999994873047,8|2,0:0|0:0,0:0:0:0:
372,352,87067,1,0,0:0:0:0:
424,224,87225,1,8,0:0:0:0:
320,36,87540,5,8,0:0:0:0:
280,44,87619,1,0,0:0:0:0:
244,68,87698,1,2,0:0:0:0:
228,108,87777,1,0,0:0:0:0:
220,148,87856,5,8,0:0:0:0:
256,172,87935,1,0,0:0:0:0:
292,192,88014,1,2,0:0:0:0:
328,212,88093,1,0,0:0:0:0:
368,232,88172,5,8,0:0:0:0:
380,276,88251,1,0,0:0:0:0:
356,316,88330,1,2,0:0:0:0:
308,316,88409,1,0,0:0:0:0:
340,356,88488,5,8,0:0:0:0:
388,344,88567,1,0,0:0:0:0:
420,304,88646,1,2,0:0:0:0:
424,252,88725,1,0,0:0:0:0:
412,204,88804,5,8,0:0:0:0:
208,288,93856,6,0,P|240:264|260:224,1,83.9999974365235,2|0,0:0|0:0,0:0:0:0:
40,84,94172,1,8,0:0:0:0:
168,204,94330,1,0,0:0:0:0:
104,144,94488,1,2,0:0:0:0:
259,225,94646,1,0,0:0:0:0:
436,252,94804,1,8,0:0:0:0:
348,240,94961,1,0,0:0:0:0:
168,204,95119,6,0,P|144:156|160:60,1,125.999996154785,2|0,0:0|0:0,0:0:0:0:
356,100,95435,2,0,L|224:136,1,125.999996154785,8|0,0:0|0:0,0:0:0:0:
276,340,95751,2,0,P|288:288|244:212,1,125.999996154785,2|0,0:0|0:0,0:0:0:0:
47,239,96067,2,0,L|167:203,1,125.999996154785,8|0,0:0|0:0,0:0:0:0:
100,112,96383,5,2,0:0:0:0:
140,120,96461,1,0,0:0:0:0:
180,128,96540,1,0,0:0:0:0:
220,136,96619,1,0,0:0:0:0:
260,144,96698,1,8,0:0:0:0:
300,152,96777,1,0,0:0:0:0:
340,160,96856,5,0,0:0:0:0:
308,188,96935,1,0,0:0:0:0:
280,220,97014,1,2,0:0:0:0:
272,260,97093,1,0,0:0:0:0:
280,300,97172,1,0,0:0:0:0:
300,336,97251,1,0,0:0:0:0:
388,252,97330,5,8,0:0:0:0:
344,252,97409,1,0,0:0:0:0:
300,252,97488,1,0,0:0:0:0:
256,252,97567,1,0,0:0:0:0:
172,336,97646,5,2,0:0:0:0:
216,336,97725,1,0,0:0:0:0:
256,336,97804,1,0,0:0:0:0:
300,336,97883,1,0,0:0:0:0:
468,160,97961,5,8,0:0:0:0:
424,160,98040,1,0,0:0:0:0:
384,160,98119,1,0,0:0:0:0:
340,160,98198,1,0,0:0:0:0:
212,248,98277,5,2,0:0:0:0:
208,208,98356,1,0,0:0:0:0:
224,168,98435,1,0,0:0:0:0:
248,132,98514,1,0,0:0:0:0:
344,212,98593,5,8,0:0:0:0:
324,176,98672,1,0,0:0:0:0:
304,140,98751,1,0,0:0:0:0:
284,104,98830,1,0,0:0:0:0:
268,72,98909,6,0,P|316:56|376:88,1,105,2|0,0:0|0:0,0:0:0:0:
448,224,99225,2,0,L|448:116,1,105,8|0,0:0|0:0,0:0:0:0:
288,80,99541,2,0,P|260:120|270:180,1,105,2|0,0:0|0:0,0:0:0:0:
424,220,99857,2,0,L|320:235,1,105,8|0,0:0|0:0,0:0:0:0:
472,284,100172,6,0,P|499:204|444:141,1,175,2|0,0:0|0:0,0:0:0:0:
424,220,100646,1,0,0:0:0:0:
360,148,100804,2,0,L|340:68,1,70,2|0,0:0|0:0,0:0:0:0:
320,235,101120,1,8,0:0:0:0:
336,80,101278,1,0,0:0:0:0:
188,176,101435,6,0,P|216:132|224:72,1,105,2|0,0:0|0:0,0:0:0:0:
72,24,101751,2,0,L|80:136,1,105,8|0,0:0|0:0,0:0:0:0:
144,268,102067,2,0,L|36:248,1,105,2|0,0:0|0:0,0:0:0:0:
188,176,102383,2,0,P|236:180|272:208,1,70,8|0,0:0|0:0,0:0:0:0:
116,332,102698,6,0,L|116:192,1,140,2|0,0:0|0:0,0:0:0:0:
60,108,103171,1,2,0:0:0:0:
52,104,103329,2,0,L|124:108,1,70,2|0,0:0|0:0,0:0:0:0:
280,116,103646,1,8,0:0:0:0:
128,108,103803,1,0,0:0:0:0:
284,124,103961,5,2,0:0:0:0:
320,128,104040,1,0,0:0:0:0:
352,116,104119,1,0,0:0:0:0:
376,92,104198,1,0,0:0:0:0:
396,56,104277,1,8,0:0:0:0:
404,96,104356,1,0,0:0:0:0:
416,136,104435,1,0,0:0:0:0:
428,176,104514,1,0,0:0:0:0:
440,216,104593,2,0,P|432:152|444:56,1,140,2|8,0:0|0:0,0:0:0:0:
512,156,105067,1,0,0:0:0:0:
360,248,105225,6,0,P|328:256|268:232,1,70,2|0,0:0|0:0,0:0:0:0:
168,152,105540,2,0,P|200:144|260:168,1,70,8|0,0:0|0:0,0:0:0:0:
192,340,105856,2,0,P|179:289|199:242,1,105,2|0,0:0|0:0,0:0:0:0:
96,344,106171,2,0,L|26:344,1,70,8|0,0:0|0:0,0:0:0:0:
80,180,106487,5,2,0:0:0:0:
192,340,106645,1,0,0:0:0:0:
136,260,106803,1,8,0:0:0:0:
244,344,106961,6,0,L|188:344,1,35,2|0,0:0|0:0,0:0:0:0:
155,254,107119,1,2,0:0:0:0:
94,172,107277,1,0,0:0:0:0:
25,90,107435,1,8,0:0:0:0:
103,241,107751,6,0,L|91:153,1,70,2|0,0:0|0:0,0:0:0:0:
11,325,108066,2,0,L|23:225,1,70,8|0,0:0|0:0,0:0:0:0:
88,168,108382,1,2,0:0:0:0:
212,292,108540,2,0,P|280:292|344:252,1,140,2|0,0:0|0:0,0:0:0:0:
308,120,109014,5,2,0:0:0:0:
348,56,109172,1,2,0:0:0:0:
340,185,109330,2,0,L|340:260,1,70,8|0,0:0|0:0,0:0:0:0:
148,328,109646,1,2,0:0:0:0:
76,316,109804,1,2,0:0:0:0:
212,292,109962,2,0,L|212:216,1,70,8|0,0:0|0:0,0:0:0:0:
72,76,110277,5,2,0:0:0:0:
32,136,110436,1,2,0:0:0:0:
140,56,110593,2,0,L|212:56,1,70,8|0,0:0|0:0,0:0:0:0:
416,84,110908,1,2,0:0:0:0:
484,48,111065,1,2,0:0:0:0:
428,160,111222,2,0,L|427:238,1,70,8|0,0:0|0:0,0:0:0:0:
336,340,111540,5,2,0:0:0:0:
332,336,111856,2,0,L|332:240,1,70,8|0,0:0|0:0,0:0:0:0:
200,124,112172,2,0,L|200:196,1,70,2|0,0:0|0:0,0:0:0:0:
304,172,112488,1,8,0:0:0:0:
200,40,112646,1,0,0:0:0:0:
130,203,112804,6,0,L|218:191,1,70,2|0,0:0|0:0,0:0:0:0:
46,111,113119,2,0,L|146:123,1,70,8|0,0:0|0:0,0:0:0:0:
32,208,113435,1,2,0:0:0:0:
199,193,113593,2,0,B|240:188|268:168|268:168|240:240,1,140,2|0,0:0|0:0,0:0:0:0:
300,96,114067,5,2,0:0:0:0:
348,36,114225,1,2,0:0:0:0:
224,100,114383,2,0,L|143:99,1,70,8|0,0:0|0:0,0:0:0:0:
376,108,114699,1,2,0:0:0:0:
424,44,114857,1,2,0:0:0:0:
328,168,115015,2,0,L|256:168,1,70,8|0,0:0|0:0,0:0:0:0:
448,116,115330,5,2,0:0:0:0:
424,44,115489,1,2,0:0:0:0:
400,180,115646,2,0,L|400:252,1,70,8|0,0:0|0:0,0:0:0:0:
424,44,115961,1,2,0:0:0:0:
348,36,116118,1,2,0:0:0:0:
448,116,116275,2,0,L|520:124,1,70,8|0,0:0|0:0,0:0:0:0:
308,216,116593,6,0,L|308:288,1,70,2|0,0:0|0:0,0:0:0:0:
172,128,116909,2,0,L|172:200,1,70,8|0,0:0|0:0,0:0:0:0:
204,288,117225,1,2,0:0:0:0:
276,124,117383,1,0,0:0:0:0:
292,232,117540,1,8,0:0:0:0:
472,284,117698,1,0,0:0:0:0:
208,196,118014,5,0,0:0:0:0:
380,260,118172,1,8,0:0:0:0:
288,340,118330,1,0,0:0:0:0:
372,140,118488,1,2,0:0:0:0:
280,332,118646,1,0,0:0:0:0:
472,284,118804,1,8,0:0:0:0:
476,280,118883,1,0,0:0:0:0:
480,276,118961,2,0,P|468:212|480:128,1,140,2|0,0:0|0:0,0:0:0:0:
488,32,119356,6,0,L|383:28,1,105,2|0,0:0|0:0,0:0:0:0:
208,108,119751,2,0,L|288:112,1,70,2|0,0:0|0:0,0:0:0:0:
248,24,120067,1,8,0:0:0:0:
316,192,120225,2,0,P|328:252|316:324,1,105,2|0,0:0|0:0,0:0:0:0:
232,288,120540,6,0,L|188:288,1,35,2|0,0:0|0:0,0:0:0:0:
316,192,120698,2,0,L|351:192,1,35,8|0,0:0|0:0,0:0:0:0:
328,304,120856,1,0,0:0:0:0:
210,177,121014,2,0,L|206:81,1,70,2|0,0:0|0:0,0:0:0:0:
32,216,121330,2,0,L|32:286,1,70,8|0,0:0|0:0,0:0:0:0:
78,104,121646,6,0,P|182:160|202:84,1,210,2|0,0:0|0:0,0:0:0:0:
224,136,122198,1,0,0:0:0:0:
236,168,122277,1,2,0:0:0:0:
236,204,122356,1,0,0:0:0:0:
228,240,122435,1,0,0:0:0:0:
216,272,122514,1,0,0:0:0:0:
192,300,122593,1,8,0:0:0:0:
116,236,122751,1,0,0:0:0:0:
292,316,122909,6,0,L|380:304,1,70,2|0,0:0|0:0,0:0:0:0:
472,288,123224,2,0,L|463:357,1,70,8|0,0:0|0:0,0:0:0:0:
404,216,123540,1,2,0:0:0:0:
508,220,123698,2,0,P|493:153|435:117,1,140,2|0,0:0|0:0,0:0:0:0:
288,124,124172,5,2,0:0:0:0:
356,76,124330,1,2,0:0:0:0:
212,96,124488,2,0,L|172:163,1,70,8|0,0:0|0:0,0:0:0:0:
332,248,124804,1,2,0:0:0:0:
404,212,124962,1,2,0:0:0:0:
248,272,125120,2,0,L|264:192,1,70,8|0,0:0|0:0,0:0:0:0:
88,152,125435,5,2,0:0:0:0:
64,76,125594,1,2,0:0:0:0:
40,224,125751,2,0,L|112:224,1,70,8|0,0:0|0:0,0:0:0:0:
252,340,126066,1,2,0:0:0:0:
328,356,126223,1,2,0:0:0:0:
176,312,126380,2,0,L|221:258,1,70,8|0,0:0|0:0,0:0:0:0:
299,135,126698,6,0,P|267:35|223:143,1,280
