osu file format v14

[General]
AudioFilename: audio.mp3
AudioLeadIn: 0
PreviewTime: 12141
Countdown: 0
SampleSet: Soft
StackLeniency: 0.2
Mode: 0
LetterboxInBreaks: 0
WidescreenStoryboard: 0

[Editor]
DistanceSpacing: 1.5
BeatDivisor: 4
GridSize: 4
TimelineZoom: 2.2

[Metadata]
Title:Where Owls Know My Name
TitleUnicode:Where Owls Know My Name
Artist:Rivers of Nihil
ArtistUnicode:Rivers of Nihil
Creator:Maakkeli
Version:Emptiness
Source:
Tags:progressive technical death metal andy thomas black crown initiate mkl
BeatmapID:1610933
BeatmapSetID:766269

[Difficulty]
HPDrainRate:6
CircleSize:4.4
OverallDifficulty:9
ApproachRate:9
SliderMultiplier:1.6
SliderTickRate:1

[Events]
//Background and Video events
0,0,"where-only-owls-would-know-me.jpg",0,0
//Break Periods
//Storyboard Layer 0 (Background)
//Storyboard Layer 1 (Fail)
//Storyboard Layer 2 (Pass)
//Storyboard Layer 3 (Foreground)
//Storyboard Sound Samples

[TimingPoints]
165,375.023438964935,4,2,1,30,1,0
165,-200,4,2,1,30,0,0
352,-200,4,2,1,15,0,0
540,-200,4,2,1,30,0,0
727,-200,4,2,1,5,0,0
915,-200,4,2,1,30,0,0
2227,-200,4,2,1,5,0,0
2415,-200,4,2,1,30,0,0
2977,-200,4,2,1,15,0,0
3165,-200,4,2,1,30,0,0
3727,-200,4,2,1,5,0,0
3915,-200,4,2,1,30,0,0
4852,-200,4,2,1,15,0,0
5040,-200,4,2,1,30,0,0
5227,-200,4,2,1,5,0,0
5415,-200,4,2,1,30,0,0
5790,-200,4,2,1,5,0,0
6165,-200,4,2,1,30,0,0
6352,-200,4,2,1,15,0,0
6540,-200,4,2,1,30,0,0
6727,-200,4,2,1,5,0,0
6915,-200,4,2,1,30,0,0
7852,-200,4,2,1,15,0,0
8040,-200,4,2,1,20,0,0
8228,-200,4,2,1,25,0,0
8415,-200,4,2,1,30,0,0
9353,-200,4,2,1,5,0,0
9540,-200,4,2,1,30,0,0
9915,-200,4,2,1,5,0,0
10103,-200,4,2,1,30,0,0
11603,-200,4,2,2,15,0,0
11790,-200,4,2,2,30,0,0
11978,-200,4,2,1,30,0,0
12165,-128.205128205128,4,2,1,47,0,0
14978,-128.205128205128,4,2,1,22,0,0
15165,-128.205128205128,4,2,1,47,0,0
15353,-128.205128205128,4,2,1,22,0,0
15540,-128.205128205128,4,2,1,47,0,0
20978,-128.205128205128,4,2,1,22,0,0
21166,-128.205128205128,4,2,1,47,0,0
21353,-128.205128205128,4,2,1,47,0,0
21541,-128.205128205128,4,2,1,47,0,0
22760,-128.205128205128,4,2,1,5,0,0
22853,-128.205128205128,4,2,1,47,0,0
26979,-128.205128205128,4,2,1,22,0,0
27166,-128.205128205128,4,2,1,47,0,0
27354,-128.205128205128,4,2,1,27,0,0
27540,-128.205128205128,4,2,1,47,0,0
29229,-128.205128205128,4,2,1,22,0,0
29416,-128.205128205128,4,2,1,47,0,0
35604,-128.205128205128,4,2,2,22,0,0
35792,-128.205128205128,4,2,1,47,0,0
42073,-128.205128205128,4,2,1,5,0,0
42167,-128.205128205128,4,2,1,47,0,0
46480,-128.205128205128,4,2,69,47,0,0
48168,-128.205128205128,4,2,1,47,0,0
59887,-128.205128205128,4,2,2,47,0,0
60168,-128.205128205128,4,2,3,47,0,0
63168,-128.205128205128,4,2,2,47,0,0
63918,-128.205128205128,4,2,3,47,0,0
64669,-128.205128205128,4,2,1,47,0,0
65231,-128.205128205128,4,2,2,47,0,0
65419,-128.205128205128,4,2,1,47,0,0
65794,-128.205128205128,4,2,2,47,0,0
66169,-128.205128205128,4,2,1,47,0,0
66919,-128.205128205128,4,2,3,47,0,0
70669,-128.205128205128,4,2,4,47,0,0
71419,-128.205128205128,4,2,1,47,0,0
71794,-128.205128205128,4,2,2,47,0,0
72169,-100,4,2,1,68,0,1
82482,-100,4,2,2,68,0,1
83232,-100,4,2,1,68,0,1
83888,-100,4,2,2,68,0,1
84170,-100,4,2,1,68,0,1
95795,-100,4,2,2,68,0,1
95983,-100,4,2,1,68,0,1
96171,-112.359550561798,4,2,1,56,0,0
98983,-112.359550561798,4,2,1,27,0,0
99171,-112.359550561798,4,2,1,56,0,0
100765,-112.359550561798,4,2,1,5,0,0
100858,-112.359550561798,4,2,1,56,0,0
103765,-112.359550561798,4,2,1,5,0,0
103858,-112.359550561798,4,2,1,56,0,0
110984,-112.359550561798,4,2,1,27,0,0
111171,-112.359550561798,4,2,1,56,0,0
112765,-112.359550561798,4,2,1,5,0,0
112859,-112.359550561798,4,2,1,56,0,0
115765,-112.359550561798,4,2,1,5,0,0
115859,-112.359550561798,4,2,1,56,0,0
117734,-112.359550561798,4,2,2,56,0,0
117922,-112.359550561798,4,2,1,56,0,0
118297,-112.359550561798,4,2,69,56,0,0
119047,-112.359550561798,4,2,1,56,0,0
119703,-112.359550561798,4,2,2,56,0,0
119891,-112.359550561798,4,2,1,56,0,0
122985,-112.359550561798,4,2,1,27,0,0
123172,-112.359550561798,4,2,1,56,0,0
126079,-112.359550561798,4,2,1,5,0,0
126172,-112.359550561798,4,2,1,56,0,0
131235,-112.359550561798,4,2,2,56,0,0
132173,-112.359550561798,4,2,1,56,0,0
134985,-112.359550561798,4,2,1,27,0,0
135173,-112.359550561798,4,2,1,56,0,0
137798,-112.359550561798,4,2,2,56,0,0
137986,-112.359550561798,4,2,1,56,0,0
143048,-112.359550561798,4,2,2,56,0,0
143236,-112.359550561798,4,2,1,56,0,0
143611,-112.359550561798,4,2,2,56,0,0
144174,-100,4,2,1,68,0,1
148861,-100,4,2,2,68,0,1
149236,-100,4,2,1,68,0,1
154487,-100,4,2,2,68,0,1
155237,-100,4,2,1,68,0,1
155987,-100,4,2,2,68,0,1
156174,-100,4,2,1,68,0,1
160862,-100,4,2,2,68,0,1
161050,-100,4,2,1,68,0,1
164612,-100,4,2,2,68,0,1
164800,-100,4,2,1,68,0,1
165175,-112.359550561798,4,2,1,68,0,1
167800,-112.359550561798,4,2,2,68,0,1
167987,-112.359550561798,4,2,1,68,0,1
168175,375.023438964935,6,2,1,56,1,0
168175,-112.359550561798,6,2,1,56,0,0
169581,-112.359550561798,6,2,1,5,0,0
169675,-112.359550561798,6,2,1,56,0,0
170237,-112.359550561798,6,2,2,27,0,0
170425,375.023438964935,5,2,1,56,1,0
170425,-112.359550561798,5,2,1,56,0,0
170612,-112.359550561798,5,2,2,56,0,0
170706,-112.359550561798,5,2,2,27,0,0
170800,-112.359550561798,5,2,2,56,0,0
170893,-112.359550561798,5,2,2,27,0,0
170987,-112.359550561798,5,2,2,56,0,0
171081,-112.359550561798,5,2,2,27,0,0
171175,-112.359550561798,5,2,2,56,0,0
171362,-112.359550561798,5,2,1,56,0,0
171925,-112.359550561798,5,2,2,27,0,0
172112,-112.359550561798,5,2,2,56,0,0
172300,375.023438964935,6,2,1,56,1,0
172300,-112.359550561798,6,2,1,56,0,0
172675,-112.359550561798,6,2,2,27,0,0
172862,-112.359550561798,6,2,1,56,0,0
173050,-112.359550561798,6,2,2,27,0,0
173425,-112.359550561798,6,2,1,56,0,0
173800,-112.359550561798,6,2,2,56,0,0
173987,-112.359550561798,6,2,2,27,0,0
174175,-112.359550561798,6,2,1,56,0,0
174362,-112.359550561798,6,2,2,27,0,0
174550,375.023438964935,5,2,1,56,1,0
174550,-112.359550561798,6,2,1,56,0,0
174737,-112.359550561798,6,2,2,27,0,0
174925,-112.359550561798,6,2,2,56,0,0
175300,-112.359550561798,6,2,2,27,0,0
175487,-112.359550561798,6,2,1,56,0,0
176050,-112.359550561798,6,2,2,56,0,0
176425,375.023438964935,6,2,1,56,1,0
176425,-112.359550561798,6,2,1,56,0,0
176800,-112.359550561798,6,2,2,56,0,0
177831,-112.359550561798,6,2,2,5,0,0
177925,-112.359550561798,6,2,2,27,0,0
178112,-112.359550561798,6,2,2,56,0,0
178300,-112.359550561798,6,2,2,27,0,0
178675,375.023438964935,5,2,1,56,1,0
178675,-112.359550561798,6,2,1,56,0,0
178862,-112.359550561798,6,2,2,56,0,0
178956,-112.359550561798,6,2,2,27,0,0
179050,-112.359550561798,6,2,2,56,0,0
179143,-112.359550561798,6,2,2,27,0,0
179237,-112.359550561798,6,2,2,56,0,0
179331,-112.359550561798,6,2,2,27,0,0
179425,-112.359550561798,6,2,2,56,0,0
179612,-112.359550561798,6,2,1,56,0,0
180175,-112.359550561798,6,2,2,27,0,0
180362,-112.359550561798,6,2,2,56,0,0
180550,375.023438964935,6,2,1,56,1,0
180550,-112.359550561798,6,2,1,56,0,0
180925,-112.359550561798,6,2,2,27,0,0
181112,-112.359550561798,6,2,1,56,0,0
181300,-112.359550561798,6,2,2,27,0,0
181487,-112.359550561798,6,2,2,56,0,0
181675,-112.359550561798,6,2,1,56,0,0
182050,-112.359550561798,6,2,2,27,0,0
182425,-112.359550561798,6,2,1,56,0,0
182612,-112.359550561798,6,2,2,27,0,0
182800,375.023438964935,5,2,2,56,1,0
182800,-112.359550561798,6,2,2,56,0,0
182987,-112.359550561798,6,2,2,27,0,0
183362,-112.359550561798,6,2,2,56,0,0
183550,-112.359550561798,6,2,1,56,0,0
184300,-112.359550561798,6,2,2,56,0,0
184487,-112.359550561798,6,2,1,56,0,0
184675,375.023438964935,6,2,1,56,1,0
184675,-112.359550561798,6,2,1,56,0,0
186081,-112.359550561798,6,2,1,5,0,0
186175,-112.359550561798,6,2,2,56,0,0
186737,-112.359550561798,6,2,2,27,0,0
186925,375.023438964935,5,2,2,56,1,0
186925,-112.359550561798,6,2,2,56,0,0
187112,-112.359550561798,6,2,2,27,0,0
187487,-112.359550561798,6,2,2,56,0,0
187862,-112.359550561798,6,2,1,56,0,0
188050,-112.359550561798,6,2,2,56,0,0
188425,-112.359550561798,6,2,2,27,0,0
188612,-112.359550561798,6,2,2,56,0,0
188800,375.023438964935,6,2,1,56,1,0
188800,-112.359550561798,6,2,1,56,0,0
189175,-112.359550561798,6,2,2,27,0,0
189362,-112.359550561798,6,2,1,56,0,0
189550,-112.359550561798,6,2,2,27,0,0
189737,-112.359550561798,6,2,2,56,0,0
189925,-112.359550561798,6,2,1,56,0,0
190300,-112.359550561798,6,2,2,56,0,0
190487,-112.359550561798,6,2,2,27,0,0
190675,-112.359550561798,6,2,1,56,0,0
190862,-112.359550561798,6,2,2,27,0,0
191050,375.023438964935,5,2,2,56,1,0
191050,-112.359550561798,6,2,2,56,0,0
191237,-112.359550561798,6,2,2,27,0,0
191612,-112.359550561798,6,2,2,56,0,0
191987,-112.359550561798,6,2,1,56,0,0
192550,-112.359550561798,6,2,2,56,0,0
192925,375.023438964935,6,2,1,56,1,0
192925,-112.359550561798,6,2,1,56,0,0
193206,-112.359550561798,6,2,1,5,0,0
193300,-112.359550561798,6,2,2,56,0,0
193862,-112.359550561798,6,2,1,56,0,0
194425,-112.359550561798,6,2,2,56,0,0
194800,-112.359550561798,6,2,1,56,0,0
194987,-112.359550561798,6,2,2,27,0,0
195175,375.023438964935,5,2,2,56,1,0
195175,-112.359550561798,6,2,2,56,0,0
195362,-112.359550561798,6,2,2,27,0,0
195737,-112.359550561798,6,2,2,56,0,0
196112,-112.359550561798,6,2,1,56,0,0
196675,-112.359550561798,6,2,2,27,0,0
196862,-112.359550561798,6,2,2,56,0,0
197050,375.023438964935,6,2,1,56,1,0
197050,-112.359550561798,6,2,1,56,0,0
197425,-112.359550561798,6,2,1,27,0,0
197612,-112.359550561798,6,2,1,56,0,0
197800,-112.359550561798,6,2,2,27,0,0
197987,-112.359550561798,6,2,2,56,0,0
198175,-112.359550561798,6,2,1,56,0,0
198550,-112.359550561798,6,2,2,56,0,0
198737,-112.359550561798,6,2,2,27,0,0
198925,-112.359550561798,6,2,1,56,0,0
199112,-112.359550561798,6,2,2,27,0,0
199300,375.023438964935,5,2,2,56,1,0
199300,-112.359550561798,6,2,2,56,0,0
199487,-112.359550561798,6,2,2,27,0,0
199862,-112.359550561798,6,2,2,56,0,0
200237,-112.359550561798,6,2,1,56,0,0
201175,375.023438964935,6,2,1,56,1,0
201175,-112.359550561798,6,2,1,56,0,0
202581,-112.359550561798,6,2,1,5,0,0
202675,-112.359550561798,6,2,2,56,0,0
203050,-112.359550561798,6,2,2,27,0,0
203425,375.023438964935,5,2,2,56,1,0
203425,-112.359550561798,6,2,2,56,0,0
203612,-112.359550561798,6,2,2,27,0,0
203987,-112.359550561798,6,2,2,56,0,0
204362,-112.359550561798,6,2,1,56,0,0
204925,-112.359550561798,6,2,2,27,0,0
205112,-112.359550561798,6,2,2,56,0,0
205300,375.023438964935,6,2,1,56,1,0
205300,-112.359550561798,6,2,1,56,0,0
205675,-112.359550561798,6,2,2,27,0,0
205862,-112.359550561798,6,2,1,56,0,0
206050,-112.359550561798,6,2,2,27,0,0
206237,-112.359550561798,6,2,1,56,0,0
206800,-112.359550561798,6,2,2,56,0,0
206987,-112.359550561798,6,2,2,27,0,0
207175,-112.359550561798,6,2,1,56,0,0
207362,-112.359550561798,6,2,2,27,0,0
207550,375.023438964935,5,2,2,56,1,0
207550,-112.359550561798,6,2,2,56,0,0
207737,-112.359550561798,6,2,2,27,0,0
208112,-112.359550561798,6,2,2,56,0,0
208487,-112.359550561798,6,2,1,56,0,0
209050,-112.359550561798,6,2,2,56,0,0
209425,375.023438964935,6,2,1,56,1,0
209425,-112.359550561798,6,2,1,56,0,0
209800,-112.359550561798,6,2,2,27,0,0
209987,-112.359550561798,6,2,2,56,0,0
210175,-112.359550561798,6,2,2,27,0,0
210362,-112.359550561798,6,2,1,56,0,0
210925,-112.359550561798,6,2,2,56,0,0
211112,-112.359550561798,6,2,2,27,0,0
211300,-112.359550561798,6,2,1,56,0,0
211487,-112.359550561798,6,2,2,27,0,0
211675,375.023438964935,5,2,2,56,1,0
211675,-112.359550561798,6,2,2,56,0,0
211862,-112.359550561798,6,2,2,27,0,0
212237,-112.359550561798,6,2,2,27,0,0
212612,-112.359550561798,6,2,2,56,0,0
213550,375.023438964935,6,2,1,56,1,0
213550,-112.359550561798,6,2,1,56,0,0
213925,-112.359550561798,6,2,2,56,0,0
214112,-112.359550561798,6,2,1,56,0,0
214300,-112.359550561798,6,2,2,27,0,0
214487,-112.359550561798,6,2,1,56,0,0
215050,-112.359550561798,6,2,2,56,0,0
215237,-112.359550561798,6,2,2,27,0,0
215425,-112.359550561798,6,2,1,56,0,0
215612,-112.359550561798,6,2,2,27,0,0
215800,375.023438964935,5,2,2,56,1,0
215800,-112.359550561798,6,2,2,56,0,0
216737,-112.359550561798,6,2,1,56,0,0
217675,375.023438964935,3,2,1,47,1,0
217675,-128.205128205128,3,2,1,47,0,0
226300,-128.205128205128,3,2,2,47,0,0
226675,-128.205128205128,3,2,1,47,0,0
235676,-112.359550561798,4,2,1,56,0,0
244676,-112.359550561798,4,2,1,56,0,0
253302,-112.359550561798,4,2,2,56,0,0
253677,375.023438964935,4,2,1,56,1,0
256677,-112.359550561798,4,2,2,27,0,0
257052,-112.359550561798,4,2,2,37,0,0
257427,-112.359550561798,4,2,2,46,0,0
257802,-112.359550561798,4,2,2,60,0,0
258083,-112.359550561798,4,2,1,5,0,0
258177,-100,4,2,1,60,0,0
259396,-100,4,2,2,60,0,0
259677,-100,4,2,1,60,0,1
269990,-100,4,2,2,60,0,1
270740,-100,4,2,1,60,0,1
271397,-100,4,2,2,60,0,1
271678,-100,4,2,1,60,0,1
280678,-100,4,2,1,60,0,0
283116,-100,4,2,2,60,0,0
283678,-90.0900900900901,4,2,1,60,0,1
304680,-112.359550561798,4,2,1,60,0,1
307305,-112.359550561798,4,2,2,60,0,1
307493,-112.359550561798,4,2,1,60,0,1
307680,-128.205128205128,4,2,1,47,0,0
310493,-128.205128205128,4,2,1,27,0,0
310680,-128.205128205128,4,2,1,47,0,0
312274,-128.205128205128,4,2,1,5,0,0
312368,-128.205128205128,4,2,1,47,0,0
315368,-128.205128205128,4,2,1,27,0,0
315556,-128.205128205128,4,2,1,47,0,0
319118,-128.205128205128,4,2,1,27,0,0
319181,-128.205128205128,4,2,2,47,0,0
319306,-128.205128205128,4,2,1,47,0,0
322494,-128.205128205128,4,2,1,27,0,0
322681,-128.205128205128,4,2,1,47,0,0
324275,-128.205128205128,4,2,1,27,0,0
324369,-128.205128205128,4,2,1,47,0,0
327369,-128.205128205128,4,2,1,27,0,0
327556,-128.205128205128,4,2,1,47,0,0
327744,-128.205128205128,4,2,1,27,0,0
327931,-128.205128205128,4,2,1,47,0,0
329994,-128.205128205128,4,2,69,47,0,0
331494,-128.205128205128,4,2,2,47,0,0
331682,-128.205128205128,4,2,1,47,0,0
334494,-128.205128205128,4,2,1,27,0,0
334682,-128.205128205128,4,2,1,47,0,0
336276,-128.205128205128,4,2,1,5,0,0
336369,-128.205128205128,4,2,1,47,0,0
336744,-128.205128205128,4,2,1,27,0,0
336932,-128.205128205128,4,2,1,47,0,0
339370,-128.205128205128,4,2,1,27,0,0
339557,-128.205128205128,4,2,1,47,0,0
339745,-128.205128205128,4,2,1,27,0,0
339932,-128.205128205128,4,2,1,47,0,0
340682,-128.205128205128,4,2,69,47,0,0
343682,-128.205128205128,4,2,1,47,0,0
346495,-128.205128205128,4,2,1,27,0,0
346683,-128.205128205128,4,2,1,47,0,0
346870,-128.205128205128,4,2,1,27,0,0
347058,-128.205128205128,4,2,1,47,0,0
348370,-128.205128205128,4,2,1,27,0,0
348558,-128.205128205128,4,2,1,47,0,0
348745,-128.205128205128,4,2,1,27,0,0
348933,-128.205128205128,4,2,1,47,0,0
349495,-128.205128205128,4,2,1,27,0,0
349683,-128.205128205128,4,2,1,47,0,0
352683,-128.205128205128,4,2,69,47,0,0
355214,-128.205128205128,4,2,2,47,0,0
355402,-128.205128205128,4,2,69,47,0,0
355683,-128.205128205128,4,2,1,47,0,0
358496,-128.205128205128,4,2,1,27,0,0
358683,-128.205128205128,4,2,1,47,0,0
358871,-128.205128205128,4,2,1,27,0,0
359058,-128.205128205128,4,2,1,47,0,0
360371,-128.205128205128,4,2,1,27,0,0
360558,-128.205128205128,4,2,1,47,0,0
360746,-128.205128205128,4,2,1,27,0,0
360933,-128.205128205128,4,2,1,47,0,0
366184,-128.205128205128,4,2,69,47,0,0
366746,-128.205128205128,4,2,2,47,0,0
366934,-128.205128205128,4,2,69,47,0,0
367028,-128.205128205128,4,2,2,47,0,0
367121,-128.205128205128,4,2,69,47,0,0
367215,-128.205128205128,4,2,2,47,0,0
367684,-128.205128205128,4,2,1,47,0,0

[Colours]
Combo1 : 138,106,74
Combo2 : 116,171,135
Combo3 : 157,171,112
Combo4 : 73,114,83

[HitObjects]
143,109,165,5,6,0:0:0:0:
206,60,352,1,8,0:0:0:0:
255,161,540,2,0,L|309:164,1,40,2|0,0:0|0:0,0:0:0:0:
435,79,915,2,0,P|399:86|359:124,1,80,8|2,0:0|0:0,0:0:0:0:
259,300,1852,5,2,0:0:0:0:
262,303,2040,2,0,L|210:299,1,40,2|0,0:0|0:0,0:0:0:0:
333,178,2415,2,0,P|351:217|351:262,1,80,8|2,0:0|0:0,0:0:0:0:
210,163,2977,1,8,0:0:0:0:
211,157,3071,1,8,0:0:0:0:
212,151,3165,5,2,0:0:0:0:
143,109,3352,1,8,0:0:0:0:
249,74,3540,2,0,L|253:34,1,40,2|0,0:0|0:0,0:0:0:0:
126,116,3915,2,0,L|136:204,1,80,8|2,0:0|0:0,0:0:0:0:
362,298,4852,5,8,0:0:0:0:
356,296,4946,1,8,0:0:0:0:
350,294,5040,2,0,L|344:242,1,40,2|0,0:0|0:0,0:0:0:0:
216,159,5415,2,0,P|250:159|293:182,1,80,8|0,0:0|0:0,0:0:0:0:
76,287,6165,5,2,0:0:0:0:
144,244,6352,1,8,0:0:0:0:
35,215,6540,2,0,L|30:170,1,40,2|0,0:0|0:0,0:0:0:0:
163,250,6915,2,0,L|155:339,1,80,8|2,0:0|0:0,0:0:0:0:
224,147,7852,5,8,0:0:0:0:
251,71,8040,1,8,0:0:0:0:
172,84,8228,1,8,0:0:0:0:
302,134,8415,2,0,L|438:125,1,120,8|2,0:0|0:0,0:0:0:0:
212,162,9165,6,0,P|205:184|202:212,1,40,6|0,0:0|0:0,0:0:0:0:
266,248,9540,1,8,0:0:0:0:
107,262,9728,6,0,L|50:259,1,40,6|0,0:0|0:0,0:0:0:0:
6,312,10103,1,8,0:0:0:0:
77,181,10290,5,12,0:0:0:0:
118,279,10478,1,2,0:0:0:0:
69,164,10665,5,12,0:0:0:0:
126,296,10853,2,0,L|211:301,1,80,6|2,0:0|0:0,0:0:0:0:
340,210,11415,5,12,0:0:0:0:
384,275,11603,1,8,0:0:0:0:
388,278,11665,1,2,0:0:0:0:
392,281,11728,1,2,0:0:0:0:
396,284,11790,2,0,L|444:280,1,40,2|2,0:0|0:0,0:0:0:0:
225,118,12165,6,0,P|214:147|211:178,1,62.4000020947266,6|0,0:0|0:0,0:0:0:0:
383,89,12540,2,0,L|371:15,1,62.4000020947266,2|0,0:0|0:0,0:0:0:0:
175,249,12915,2,0,P|244:211|300:232,1,124.800004189453,8|0,0:0|0:0,0:0:0:0:
128,324,13478,1,2,0:0:0:0:
131,327,13665,6,0,L|58:321,1,62.4000020947266
284,221,14040,2,0,P|296:257|294:299,1,62.4000020947266,2|0,0:0|0:0,0:0:0:0:
119,193,14415,2,0,L|136:55,1,124.800004189453,8|0,0:0|0:0,0:0:0:0:
284,221,14978,1,8,0:0:0:0:
274,222,15072,1,8,0:0:0:0:
264,223,15165,5,2,0:0:0:0:
216,303,15353,1,8,0:0:0:0:
370,240,15540,2,0,L|359:166,1,62.4000020947266
175,95,15915,2,0,P|232:125|314:111,1,124.800004189453,8|0,0:0|0:0,0:0:0:0:
120,204,16478,1,2,0:0:0:0:
123,207,16666,6,0,L|115:122,1,62.4000020947266
244,213,17041,2,0,L|238:275,1,62.4000020947266,2|0,0:0|0:0,0:0:0:0:
144,301,17416,1,8,0:0:0:0:
203,146,17603,2,0,P|264:140|313:177,1,124.800004189453,2|2,0:0|0:0,0:0:0:0:
352,311,18166,6,0,L|360:117,1,187.20000628418,6|0,0:0|0:0,0:0:0:0:
507,222,18916,2,0,P|462:252|384:244,1,124.800004189453,8|0,0:0|0:0,0:0:0:0:
312,176,19478,1,2,0:0:0:0:
251,326,19666,6,0,L|177:333,1,62.4000020947266,2|0,0:0|0:0,0:0:0:0:
48,276,20041,2,0,P|92:295|108:319,1,62.4000020947266,2|0,0:0|0:0,0:0:0:0:
144,381,20416,2,0,L|148:231,1,124.800004189453,8|0,0:0|0:0,0:0:0:0:
296,195,20978,1,8,0:0:0:0:
294,185,21072,1,8,0:0:0:0:
292,175,21166,5,2,0:0:0:0:
204,142,21353,1,8,0:0:0:0:
357,112,21541,2,0,L|364:40,1,62.4000020947266,2|0,0:0|0:0,0:0:0:0:
192,152,21916,2,0,L|201:219,1,62.4000020947266,8|0,0:0|0:0,0:0:0:0:
376,286,22291,1,2,0:0:0:0:
379,289,22478,6,0,P|341:264|270:264,1,93.60000314209,2|0,0:0|0:0,0:0:0:0:
238,299,22853,2,0,L|163:292,1,62.4000020947266,8|0,0:0|0:0,0:0:0:0:
116,366,23228,1,2,0:0:0:0:
312,337,23416,2,0,L|321:184,1,124.800004189453,8|0,0:0|0:0,0:0:0:0:
19,145,24166,6,0,B|97:147|97:147|119:170|119:170|214:173,1,187.20000628418,6|0,0:0|0:0,0:0:0:0:
307,27,24916,2,0,P|278:52|268:140,1,124.800004189453,8|0,0:0|0:0,0:0:0:0:
421,210,25479,1,2,0:0:0:0:
424,213,25666,6,0,L|343:220,1,62.4000020947266,2|0,0:0|0:0,0:0:0:0:
234,293,26041,2,0,L|315:300,1,62.4000020947266,2|0,0:0|0:0,0:0:0:0:
490,161,26416,2,0,P|470:194|495:296,1,124.800004189453,8|0,0:0|0:0,0:0:0:0:
347,126,26979,1,8,0:0:0:0:
356,124,27072,1,8,0:0:0:0:
365,122,27166,5,2,0:0:0:0:
409,39,27354,1,8,0:0:0:0:
258,109,27541,2,0,L|275:190,1,62.4000020947266,2|0,0:0|0:0,0:0:0:0:
463,245,27916,2,0,P|412:217|332:225,1,124.800004189453,8|0,0:0|0:0,0:0:0:0:
256,354,28479,1,2,0:0:0:0:
259,357,28666,6,0,L|186:363,1,62.4000020947266
389,309,29041,1,2,0:0:0:0:
288,275,29229,1,8,0:0:0:0:
461,247,29416,1,8,0:0:0:0:
270,279,29604,2,0,L|131:267,1,124.800004189453,2|2,0:0|0:0,0:0:0:0:
367,227,30166,6,0,P|380:202|382:158,1,62.4000020947266,2|0,0:0|0:0,0:0:0:0:
292,34,30541,2,0,L|300:98,1,62.4000020947266,2|0,0:0|0:0,0:0:0:0:
414,286,30916,2,0,P|372:259|277:268,1,124.800004189453,8|0,0:0|0:0,0:0:0:0:
475,169,31479,1,2,0:0:0:0:
478,172,31666,6,0,L|488:253,1,62.4000020947266
325,132,32041,2,0,P|358:120|404:118,1,62.4000020947266,2|0,0:0|0:0,0:0:0:0:
298,258,32417,2,0,L|155:245,1,124.800004189453,8|0,0:0|0:0,0:0:0:0:
111,346,32979,1,2,0:0:0:0:
358,302,33167,6,0,B|371:273|371:273|368:226,1,62.4000020947266,6|0,0:0|0:0,0:0:0:0:
272,174,33542,1,8,0:0:0:0:
315,363,33729,6,0,B|344:377|344:377|401:374,1,62.4000020947266,6|0,0:0|0:0,0:0:0:0:
446,282,34104,1,2,0:0:0:0:
259,301,34292,5,12,0:0:0:0:
384,209,34479,1,2,0:0:0:0:
244,312,34667,5,12,0:0:0:0:
401,199,34854,2,0,L|391:65,1,124.800004189453,6|2,0:0|0:0,0:0:0:0:
267,192,35417,5,12,0:0:0:0:
188,77,35604,1,8,0:0:0:0:
183,76,35667,1,2,0:0:0:0:
178,75,35729,1,2,0:0:0:0:
173,74,35792,2,0,P|139:77|93:95,1,62.4000020947266,2|2,0:0|0:0,0:0:0:0:
338,241,36167,6,0,P|350:214|352:181,1,62.4000020947266,6|0,0:0|0:0,0:0:0:0:
222,263,36542,2,0,L|232:331,1,62.4000020947266,2|0,0:0|0:0,0:0:0:0:
403,114,36917,2,0,P|349:145|288:139,1,124.800004189453,8|0,0:0|0:0,0:0:0:0:
223,63,37479,1,2,0:0:0:0:
160,200,37667,6,0,L|88:206,1,62.4000020947266,2|0,0:0|0:0,0:0:0:0:
244,71,38042,2,0,P|261:103|266:146,1,62.4000020947266,2|0,0:0|0:0,0:0:0:0:
175,213,38417,5,8,0:0:0:0:
278,236,38604,1,0,0:0:0:0:
284,234,38698,1,0,0:0:0:0:
290,232,38792,1,0,0:0:0:0:
211,304,38979,1,0,0:0:0:0:
217,306,39073,1,0,0:0:0:0:
223,308,39167,6,0,L|136:298,1,62.4000020947266,6|0,0:0|0:0,0:0:0:0:
352,184,39542,2,0,P|365:216|367:262,1,62.4000020947266,2|0,0:0|0:0,0:0:0:0:
230,159,39917,2,0,L|246:20,1,124.800004189453,8|0,0:0|0:0,0:0:0:0:
409,169,40480,1,2,0:0:0:0:
412,172,40667,6,0,P|381:182|334:180,1,62.4000020947266
450,83,41042,2,0,L|522:91,1,62.4000020947266,2|0,0:0|0:0,0:0:0:0:
272,98,41417,1,8,0:0:0:0:
354,43,41605,1,0,0:0:0:0:
277,178,41792,2,0,L|166:171,1,93.60000314209
116,186,42167,6,0,P|105:219|104:255,1,62.4000020947266,6|0,0:0|0:0,0:0:0:0:
253,103,42542,2,0,L|176:97,1,62.4000020947266
313,241,42917,2,0,L|446:228,1,124.800004189453,8|0,0:0|0:0,0:0:0:0:
370,165,43480,1,2,0:0:0:0:
316,333,43667,6,0,L|243:339,1,62.4000020947266,2|0,0:0|0:0,0:0:0:0:
437,228,44042,2,0,P|452:256|459:297,1,62.4000020947266,2|0,0:0|0:0,0:0:0:0:
289,226,44417,2,0,L|304:93,1,124.800004189453,8|0,0:0|0:0,0:0:0:0:
416,93,44980,1,2,0:0:0:0:
314,298,45167,6,0,B|284:305|284:305|239:290,1,62.4000020947266,6|0,0:0|0:0,0:0:0:0:
221,198,45542,1,8,0:0:0:0:
389,275,45730,6,0,B|397:310|397:310|376:359,1,62.4000020947266,6|0,0:0|0:0,0:0:0:0:
247,281,46105,1,8,0:0:0:0:
445,223,46292,5,12,0:0:0:0:
301,189,46480,1,8,0:0:0:0:
299,170,46574,1,8,0:0:0:0:
297,151,46667,1,8,0:0:0:0:
295,132,46761,1,8,0:0:0:0:
310,87,46855,5,10,0:0:0:0:
298,103,46949,1,8,0:0:0:0:
282,113,47042,1,8,0:0:0:0:
265,121,47136,1,8,0:0:0:0:
246,124,47230,1,8,0:0:0:0:
227,123,47324,1,8,0:0:0:0:
192,91,47417,5,10,0:0:0:0:
173,94,47511,1,8,0:0:0:0:
154,97,47605,1,8,0:0:0:0:
142,142,47699,5,10,0:0:0:0:
123,139,47792,1,8,0:0:0:0:
104,136,47886,1,8,0:0:0:0:
79,176,47980,5,10,0:0:0:0:
60,179,48074,1,8,0:0:0:0:
18,226,48168,6,0,B|154:215|62:271|215:254,1,187.20000628418,6|0,0:0|0:0,0:0:0:0:
323,89,48918,2,0,P|281:126|281:208,1,124.800004189453,8|0,0:0|0:0,0:0:0:0:
389,236,49480,1,2,0:0:0:0:
234,270,49668,6,0,P|226:305|225:338,1,62.4000020947266,2|0,0:0|0:0,0:0:0:0:
408,229,50043,2,0,L|398:140,1,62.4000020947266,2|0,0:0|0:0,0:0:0:0:
218,129,50418,1,8,0:0:0:0:
313,99,50605,1,0,0:0:0:0:
314,92,50699,1,0,0:0:0:0:
315,85,50793,2,0,L|321:15,1,62.4000020947266
172,193,51168,6,0,P|205:205|253:207,1,62.4000020947266,6|0,0:0|0:0,0:0:0:0:
89,174,51543,2,0,L|10:182,1,62.4000020947266
125,246,51918,2,0,L|133:101,1,124.800004189453,8|0,0:0|0:0,0:0:0:0:
200,287,52480,1,2,0:0:0:0:
203,290,52668,6,0,P|236:281|281:280,1,62.4000020947266
384,368,53043,2,0,P|356:343|344:316,1,62.4000020947266,2|0,0:0|0:0,0:0:0:0:
396,153,53418,1,8,0:0:0:0:
444,235,53605,2,0,L|303:223,1,124.800004189453,2|2,0:0|0:0,0:0:0:0:
116,298,54168,6,0,P|156:250|129:112,1,187.20000628418,6|0,0:0|0:0,0:0:0:0:
180,344,54918,2,0,P|235:326|313:325,1,124.800004189453,8|0,0:0|0:0,0:0:0:0:
395,384,55480,1,2,0:0:0:0:
450,233,55668,6,0,L|528:226,1,62.4000020947266,6|0,0:0|0:0,0:0:0:0:
352,194,56043,2,0,P|340:162|342:108,1,62.4000020947266,2|0,0:0|0:0,0:0:0:0:
509,38,56418,2,0,P|467:68|388:61,1,124.800004189453,8|0,0:0|0:0,0:0:0:0:
305,0,56981,1,2,0:0:0:0:
249,145,57168,6,0,L|171:150,1,62.4000020947266,6|0,0:0|0:0,0:0:0:0:
138,250,57543,1,2,0:0:0:0:
141,253,57731,1,2,0:0:0:0:
311,209,57918,5,8,0:0:0:0:
169,144,58106,1,2,0:0:0:0:
328,217,58293,5,8,0:0:0:0:
244,72,58481,1,2,0:0:0:0:
341,117,58668,1,2,0:0:0:0:
149,148,58856,5,8,0:0:0:0:
358,121,59043,1,2,0:0:0:0:
227,66,59231,1,2,0:0:0:0:
436,45,59418,5,8,0:0:0:0:
366,204,59606,1,8,0:0:0:0:
319,210,59699,1,8,0:0:0:0:
272,218,59793,5,8,0:0:0:0:
280,221,59887,1,2,0:0:0:0:
288,224,59981,1,2,0:0:0:0:
296,227,60074,1,2,0:0:0:0:
304,231,60168,5,6,0:0:0:0:
186,239,60918,5,4,0:0:0:0:
186,239,62418,5,4,0:0:0:0:
376,102,62981,5,2,0:0:0:0:
423,284,63168,1,2,0:0:0:0:
186,239,63918,5,4,0:0:0:0:
11,58,64669,5,8,0:0:0:0:
70,167,64856,1,8,0:0:0:0:
116,167,64950,1,8,0:0:0:0:
162,168,65044,1,8,0:0:0:0:
203,251,65231,1,2,0:0:0:0:
267,76,65419,5,8,0:0:0:0:
310,58,65512,1,8,0:0:0:0:
356,63,65606,1,8,0:0:0:0:
394,90,65700,1,8,0:0:0:0:
411,133,65794,5,2,0:0:0:0:
420,134,65887,1,2,0:0:0:0:
429,135,65981,1,2,0:0:0:0:
438,137,66075,1,2,0:0:0:0:
484,143,66169,5,6,0:0:0:0:
186,239,66919,5,4,0:0:0:0:
186,239,68419,5,4,0:0:0:0:
423,284,68981,5,2,0:0:0:0:
376,102,69169,1,2,0:0:0:0:
186,239,69919,5,4,0:0:0:0:
62,256,70669,5,4,0:0:0:0:
454,194,71419,5,8,0:0:0:0:
407,188,71513,1,8,0:0:0:0:
360,182,71606,2,0,L|354:123,1,31.2000010473633,2|2,0:0|0:0,0:0:0:0:
303,253,71794,5,2,0:0:0:0:
294,255,71888,1,2,0:0:0:0:
337,273,71981,5,8,0:0:0:0:
290,277,72075,1,8,0:0:0:0:
243,285,72169,6,0,B|272:303|272:303|424:282,1,160,6|0,0:0|0:0,0:0:0:0:
197,150,72732,1,2,0:0:0:0:
200,153,72919,2,0,P|184:191|185:239,1,80,8|0,0:0|0:0,0:0:0:0:
428,134,73294,6,0,P|383:98|267:108,1,160,6|0,0:0|0:0,0:0:0:0:
34,262,73857,2,0,P|105:268|195:214,1,160,4|0,0:0|0:0,0:0:0:0:
231,16,74419,5,8,0:0:0:0:
346,158,74607,1,2,0:0:0:0:
135,106,74794,5,2,0:0:0:0:
34,262,74982,1,2,0:0:0:0:
145,90,75169,1,2,0:0:0:0:
26,278,75357,1,2,0:0:0:0:
254,168,75544,5,0,0:0:0:0:
135,106,75732,1,2,0:0:0:0:
222,269,75919,2,0,L|329:261,1,80,8|0,0:0|0:0,0:0:0:0:
356,151,76294,1,2,0:0:0:0:
404,352,76482,5,2,0:0:0:0:
480,238,76669,1,0,0:0:0:0:
273,180,76857,2,0,L|265:91,1,80,8|0,0:0|0:0,0:0:0:0:
371,42,77232,1,2,0:0:0:0:
310,260,77419,5,8,0:0:0:0:
172,153,77607,1,2,0:0:0:0:
161,155,77669,1,2,0:0:0:0:
150,157,77732,1,2,0:0:0:0:
139,159,77794,2,0,L|50:147,1,80,8|2,0:0|0:0,0:0:0:0:
356,128,78169,6,0,P|301:169|321:279,1,160,6|0,0:0|0:0,0:0:0:0:
277,65,78732,1,2,0:0:0:0:
280,68,78919,2,0,P|247:55|175:58,1,80,8|0,0:0|0:0,0:0:0:0:
245,340,79294,6,0,P|321:353|395:286,1,160,6|0,0:0|0:0,0:0:0:0:
136,140,79857,2,0,L|117:327,1,160,6|0,0:0|0:0,0:0:0:0:
346,246,80420,5,8,0:0:0:0:
163,217,80607,1,2,0:0:0:0:
364,160,80795,5,2,0:0:0:0:
404,314,80982,1,2,0:0:0:0:
246,178,81170,5,6,0:0:0:0:
249,181,81357,2,0,L|261:88,1,80,2|0,0:0|0:0,0:0:0:0:
118,59,81732,5,2,0:0:0:0:
181,257,81920,1,8,0:0:0:0:
120,77,82107,1,2,0:0:0:0:
62,185,82295,1,2,0:0:0:0:
259,101,82482,6,0,L|247:14,1,80,2|0,0:0|0:0,0:0:0:0:
364,198,82857,2,0,L|375:91,1,80,2|0,0:0|0:0,0:0:0:0:
180,240,83232,5,2,0:0:0:0:
190,246,83326,1,2,0:0:0:0:
201,248,83420,1,8,0:0:0:0:
129,147,83607,5,8,0:0:0:0:
88,149,83701,1,8,0:0:0:0:
48,152,83795,5,8,0:0:0:0:
62,159,83888,1,2,0:0:0:0:
76,166,83982,1,2,0:0:0:0:
90,173,84076,1,2,0:0:0:0:
129,166,84170,6,0,L|311:150,1,160,6|0,0:0|0:0,0:0:0:0:
425,40,84732,1,2,0:0:0:0:
428,43,84920,2,0,P|382:63|359:92,1,80,8|0,0:0|0:0,0:0:0:0:
425,285,85295,6,0,L|440:114,1,160,6|0,0:0|0:0,0:0:0:0:
194,284,85857,2,0,P|250:321|360:316,1,160,6|0,0:0|0:0,0:0:0:0:
222,142,86420,5,8,0:0:0:0:
49,175,86607,1,2,0:0:0:0:
264,225,86795,5,2,0:0:0:0:
115,105,86982,1,2,0:0:0:0:
281,238,87170,1,2,0:0:0:0:
100,93,87357,1,2,0:0:0:0:
340,156,87545,5,0,0:0:0:0:
194,196,87732,1,2,0:0:0:0:
322,42,87920,2,0,L|415:55,1,80,8|0,0:0|0:0,0:0:0:0:
442,178,88295,1,2,0:0:0:0:
239,103,88483,5,2,0:0:0:0:
298,252,88670,1,0,0:0:0:0:
131,134,88858,2,0,L|143:35,1,80,8|0,0:0|0:0,0:0:0:0:
271,26,89233,1,2,0:0:0:0:
52,106,89420,5,8,0:0:0:0:
219,184,89608,1,2,0:0:0:0:
220,191,89670,1,2,0:0:0:0:
221,198,89733,1,2,0:0:0:0:
222,205,89795,2,0,B|238:243|238:243|219:291,1,80,8|2,0:0|0:0,0:0:0:0:
427,150,90170,6,0,P|370:114|260:124,1,160,6|0,0:0|0:0,0:0:0:0:
412,286,90733,1,2,0:0:0:0:
415,289,90920,2,0,L|504:280,1,80,8|0,0:0|0:0,0:0:0:0:
213,203,91295,6,0,P|174:272|186:363,1,160,6|0,0:0|0:0,0:0:0:0:
350,184,91858,2,0,L|326:6,1,160,6|0,0:0|0:0,0:0:0:0:
138,142,92420,5,8,0:0:0:0:
298,246,92608,1,2,0:0:0:0:
208,63,92795,5,2,0:0:0:0:
43,218,92983,1,2,0:0:0:0:
365,194,93170,6,0,P|344:230|356:359,1,160,6|0,0:0|0:0,0:0:0:0:
219,80,93733,2,0,L|42:66,1,160,6|0,0:0|0:0,0:0:0:0:
270,250,94295,2,0,B|376:245|376:245|400:217|400:217|516:213,1,240,6|0,0:0|0:0,0:0:0:0:
496,213,95233,1,2,0:0:0:0:
269,166,95420,5,8,0:0:0:0:
384,134,95608,1,2,0:0:0:0:
201,90,95795,1,2,0:0:0:0:
363,130,95983,1,2,0:0:0:0:
150,178,96171,6,0,P|121:226|130:327,1,142.400000108643,6|2,0:0|0:0,0:0:0:0:
335,340,96733,1,0,0:0:0:0:
243,377,96921,2,0,L|236:278,1,71.2000000543213,8|0,0:0|0:0,0:0:0:0:
390,76,97296,6,0,B|304:73|304:73|274:103|274:103|171:99,1,213.600000162964,2|2,0:0|0:0,0:0:0:0:
48,7,98046,2,0,P|97:26|120:52,1,71.2000000543213,2|0,0:0|0:0,0:0:0:0:
55,227,98421,2,0,L|45:78,1,142.400000108643,8|0,0:0|0:0,0:0:0:0:
179,254,98983,1,8,0:0:0:0:
168,256,99077,1,8,0:0:0:0:
157,258,99171,5,2,0:0:0:0:
212,167,99358,1,8,0:0:0:0:
258,319,99546,2,0,L|337:325,1,71.2000000543213,2|0,0:0|0:0,0:0:0:0:
146,260,99921,2,0,L|53:269,1,71.2000000543213,8|0,0:0|0:0,0:0:0:0:
284,220,100296,1,2,0:0:0:0:
287,223,100483,6,0,P|305:169|275:99,1,106.800000081482,2|0,0:0|0:0,0:0:0:0:
222,88,100858,2,0,L|213:-2,1,71.2000000543213,8|0,0:0|0:0,0:0:0:0:
318,5,101233,1,2,0:0:0:0:
212,167,101421,2,0,L|60:157,1,142.400000108643,8|0,0:0|0:0,0:0:0:0:
285,248,101983,1,8,0:0:0:0:
320,244,102077,1,8,0:0:0:0:
355,241,102171,6,0,B|342:227|342:227|271:234,1,71.2000000543213,6|0,0:0|0:0,0:0:0:0:
157,344,102546,2,0,P|201:313|214:289,1,71.2000000543213,6|0,0:0|0:0,0:0:0:0:
67,181,102921,2,0,L|75:267,1,71.2000000543213,12|0,0:0|0:0,0:0:0:0:
208,109,103296,1,2,0:0:0:0:
211,112,103483,6,0,P|160:90|98:99,1,106.800000081482,2|0,0:0|0:0,0:0:0:0:
78,166,103858,2,0,L|-9:171,1,71.2000000543213,8|0,0:0|0:0,0:0:0:0:
169,49,104234,1,0,0:0:0:0:
237,222,104421,2,0,L|322:226,1,71.2000000543213,8|0,0:0|0:0,0:0:0:0:
348,324,104796,1,0,0:0:0:0:
205,294,104984,1,2,0:0:0:0:
410,270,105171,6,0,B|425:237|425:237|417:189,1,71.2000000543213,6|0,0:0|0:0,0:0:0:0:
327,147,105546,1,8,0:0:0:0:
364,341,105734,6,0,B|400:354|400:354|459:347,1,71.2000000543213,6|0,0:0|0:0,0:0:0:0:
496,264,106109,1,2,0:0:0:0:
279,305,106296,5,12,0:0:0:0:
397,187,106484,1,2,0:0:0:0:
266,320,106671,5,12,0:0:0:0:
411,174,106859,2,0,L|394:20,1,142.400000108643,6|2,0:0|0:0,0:0:0:0:
310,213,107421,5,8,0:0:0:0:
225,81,107609,1,8,0:0:0:0:
217,80,107671,1,2,0:0:0:0:
209,79,107734,1,2,0:0:0:0:
201,78,107796,2,0,L|100:93,1,71.2000000543213,2|2,0:0|0:0,0:0:0:0:
60,347,108171,6,0,P|102:304|105:218,1,142.400000108643,6|2,0:0|0:0,0:0:0:0:
45,54,108734,1,0,0:0:0:0:
0,143,108921,2,0,L|82:150,1,71.2000000543213,8|0,0:0|0:0,0:0:0:0:
388,229,109296,6,0,B|299:227|299:227|276:252|276:252|160:249,1,213.600000162964,2|2,0:0|0:0,0:0:0:0:
430,295,110046,2,0,P|450:329|450:378,1,71.2000000543213,2|0,0:0|0:0,0:0:0:0:
290,204,110421,2,0,L|304:55,1,142.400000108643,8|0,0:0|0:0,0:0:0:0:
181,229,110984,1,8,0:0:0:0:
183,239,111078,1,8,0:0:0:0:
185,249,111171,5,2,0:0:0:0:
302,276,111359,1,8,0:0:0:0:
210,148,111546,2,0,L|108:156,1,71.2000000543213,2|0,0:0|0:0,0:0:0:0:
306,114,111921,2,0,P|321:77|321:35,1,71.2000000543213,8|0,0:0|0:0,0:0:0:0:
78,95,112297,1,2,0:0:0:0:
81,98,112484,6,0,P|60:138|84:211,1,106.800000081482,2|0,0:0|0:0,0:0:0:0:
137,238,112859,2,0,L|220:231,1,71.2000000543213,8|0,0:0|0:0,0:0:0:0:
224,126,113234,1,2,0:0:0:0:
56,208,113422,2,0,L|74:357,1,142.400000108643,8|0,0:0|0:0,0:0:0:0:
208,145,113984,1,8,0:0:0:0:
172,141,114078,1,8,0:0:0:0:
136,138,114172,6,0,B|154:125|154:125|221:134,1,71.2000000543213,6|0,0:0|0:0,0:0:0:0:
306,293,114547,2,0,P|274:256|266:224,1,71.2000000543213,6|0,0:0|0:0,0:0:0:0:
420,138,114922,2,0,L|408:222,1,71.2000000543213,12|0,0:0|0:0,0:0:0:0:
348,74,115297,1,0,0:0:0:0:
351,77,115484,6,0,P|301:51|233:72,1,106.800000081482,2|0,0:0|0:0,0:0:0:0:
212,126,115859,2,0,L|134:132,1,71.2000000543213,8|0,0:0|0:0,0:0:0:0:
94,241,116234,1,2,0:0:0:0:
285,201,116422,2,0,L|292:112,1,71.2000000543213,8|0,0:0|0:0,0:0:0:0:
417,108,116797,1,0,0:0:0:0:
357,256,116984,1,2,0:0:0:0:
296,60,117172,5,6,0:0:0:0:
265,42,117266,1,8,0:0:0:0:
229,43,117359,1,8,0:0:0:0:
197,59,117453,1,8,0:0:0:0:
169,81,117547,1,8,0:0:0:0:
133,85,117641,1,8,0:0:0:0:
99,72,117734,5,2,0:0:0:0:
92,69,117828,1,2,0:0:0:0:
89,15,117922,5,8,0:0:0:0:
121,27,118016,1,8,0:0:0:0:
139,57,118109,1,8,0:0:0:0:
135,92,118203,1,8,0:0:0:0:
77,120,118297,5,10,0:0:0:0:
71,154,118391,1,8,0:0:0:0:
65,189,118484,1,8,0:0:0:0:
123,203,118578,5,10,0:0:0:0:
129,237,118672,1,8,0:0:0:0:
135,272,118766,1,8,0:0:0:0:
194,281,118859,5,10,0:0:0:0:
188,315,118953,1,8,0:0:0:0:
138,351,119047,5,6,0:0:0:0:
173,349,119141,1,8,0:0:0:0:
208,347,119234,1,8,0:0:0:0:
243,346,119328,1,8,0:0:0:0:
278,345,119422,1,8,0:0:0:0:
313,344,119516,1,8,0:0:0:0:
348,343,119609,5,8,0:0:0:0:
339,336,119703,1,2,0:0:0:0:
329,331,119797,5,2,0:0:0:0:
364,329,119891,1,8,0:0:0:0:
399,327,119984,1,8,0:0:0:0:
434,326,120078,1,8,0:0:0:0:
494,324,120172,6,0,B|484:337|484:337|413:342,1,71.2000000543213,6|0,0:0|0:0,0:0:0:0:
462,190,120547,2,0,P|500:218|518:249,1,71.2000000543213,6|0,0:0|0:0,0:0:0:0:
301,266,120922,1,12,0:0:0:0:
304,269,121110,2,0,L|314:179,1,71.2000000543213,0|2,0:0|0:0,0:0:0:0:
499,60,121485,6,0,P|470:96|360:92,1,142.400000108643
226,7,122047,2,0,P|270:14|296:29,1,71.2000000543213,2|0,0:0|0:0,0:0:0:0:
145,136,122422,1,8,0:0:0:0:
148,139,122610,2,0,L|141:59,1,71.2000000543213
280,187,122985,1,8,0:0:0:0:
269,190,123078,1,8,0:0:0:0:
258,193,123172,5,2,0:0:0:0:
197,288,123360,1,8,0:0:0:0:
364,218,123547,2,0,L|353:127,1,71.2000000543213,2|0,0:0|0:0,0:0:0:0:
205,305,123922,2,0,P|236:323|290:320,1,71.2000000543213,8|0,0:0|0:0,0:0:0:0:
140,209,124297,2,0,L|44:220,1,71.2000000543213
64,222,124579,1,0,0:0:0:0:
58,227,124672,5,6,0:0:0:0:
44,314,124860,1,0,0:0:0:0:
221,237,125047,2,0,L|207:138,1,71.2000000543213,2|0,0:0|0:0,0:0:0:0:
49,82,125422,2,0,P|78:106|128:116,1,71.2000000543213,8|2,0:0|0:0,0:0:0:0:
364,82,125797,2,0,L|245:88,1,106.800000081482,8|0,0:0|0:0,0:0:0:0:
180,73,126172,6,0,P|165:32|169:-4,1,71.2000000543213,6|0,0:0|0:0,0:0:0:0:
312,133,126547,2,0,L|305:221,1,71.2000000543213,6|0,0:0|0:0,0:0:0:0:
147,276,126922,1,12,0:0:0:0:
150,279,127110,2,0,P|193:260|229:259,1,71.2000000543213,0|2,0:0|0:0,0:0:0:0:
382,338,127485,6,0,L|292:331,1,71.2000000543213,2|0,0:0|0:0,0:0:0:0:
449,210,127860,2,0,P|469:252|466:294,1,71.2000000543213,8|0,0:0|0:0,0:0:0:0:
296,200,128235,1,2,0:0:0:0:
299,203,128423,2,0,L|321:39,1,142.400000108643,8|0,0:0|0:0,0:0:0:0:
429,37,128985,1,2,0:0:0:0:
227,83,129173,5,8,0:0:0:0:
391,137,129360,1,2,0:0:0:0:
176,171,129548,5,8,0:0:0:0:
308,46,129735,1,2,0:0:0:0:
204,86,129923,1,2,0:0:0:0:
408,25,130110,5,8,0:0:0:0:
227,8,130298,1,2,0:0:0:0:
319,67,130485,1,2,0:0:0:0:
112,107,130673,5,8,0:0:0:0:
264,153,130860,1,8,0:0:0:0:
269,188,130954,1,8,0:0:0:0:
274,223,131048,1,8,0:0:0:0:
278,258,131141,1,8,0:0:0:0:
282,293,131235,5,2,0:0:0:0:
292,295,131329,1,2,0:0:0:0:
238,298,131423,5,8,0:0:0:0:
248,300,131516,1,2,0:0:0:0:
195,301,131610,5,8,0:0:0:0:
205,303,131704,1,2,0:0:0:0:
215,305,131798,1,2,0:0:0:0:
225,307,131891,1,2,0:0:0:0:
235,309,131985,1,2,0:0:0:0:
245,311,132079,1,2,0:0:0:0:
298,309,132173,6,0,L|391:295,1,71.2000000543213,6|0,0:0|0:0,0:0:0:0:
132,247,132548,2,0,P|117:284|117:323,1,71.2000000543213,6|0,0:0|0:0,0:0:0:0:
290,215,132923,2,0,L|278:130,1,71.2000000543213,12|0,0:0|0:0,0:0:0:0:
25,93,133298,6,0,B|110:95|110:95|142:68|142:68|228:70,1,213.600000162964,2|2,0:0|0:0,0:0:0:0:
350,249,134048,2,0,P|314:237|286:209,1,71.2000000543213,2|0,0:0|0:0,0:0:0:0:
433,109,134423,1,8,0:0:0:0:
436,112,134610,2,0,L|449:188,1,71.2000000543213
307,70,134985,1,8,0:0:0:0:
317,67,135079,1,8,0:0:0:0:
327,64,135173,5,2,0:0:0:0:
258,155,135360,1,8,0:0:0:0:
181,16,135548,2,0,L|102:12,1,71.2000000543213,2|0,0:0|0:0,0:0:0:0:
274,147,135923,2,0,P|291:113|294:73,1,71.2000000543213,8|0,0:0|0:0,0:0:0:0:
115,149,136298,1,2,0:0:0:0:
293,298,136673,5,0,0:0:0:0:
296,301,136861,2,0,P|261:279|219:273,1,71.2000000543213,8|0,0:0|0:0,0:0:0:0:
160,361,137236,1,2,0:0:0:0:
360,349,137423,5,8,0:0:0:0:
280,210,137611,1,2,0:0:0:0:
374,368,137798,5,10,0:0:0:0:
270,193,137986,1,2,0:0:0:0:
471,120,138173,6,0,L|481:42,1,71.2000000543213,6|0,0:0|0:0,0:0:0:0:
280,210,138548,2,0,P|314:226|361:222,1,71.2000000543213,4|0,0:0|0:0,0:0:0:0:
224,67,138923,2,0,L|142:75,1,71.2000000543213,12|0,0:0|0:0,0:0:0:0:
100,175,139298,1,2,0:0:0:0:
103,178,139486,1,2,0:0:0:0:
281,123,139673,5,0,0:0:0:0:
126,259,139861,1,8,0:0:0:0:
129,262,140048,2,0,L|48:253,1,71.2000000543213,0|2,0:0|0:0,0:0:0:0:
217,275,140423,1,8,0:0:0:0:
220,278,140611,2,0,P|234:329|229:355,1,71.2000000543213
115,359,140986,1,2,0:0:0:0:
189,202,141173,5,6,0:0:0:0:
224,198,141267,1,8,0:0:0:0:
259,194,141361,1,8,0:0:0:0:
294,191,141455,1,8,0:0:0:0:
329,188,141548,1,8,0:0:0:0:
364,185,141642,1,8,0:0:0:0:
408,226,141736,5,6,0:0:0:0:
376,243,141830,1,8,0:0:0:0:
340,238,141923,1,8,0:0:0:0:
313,214,142017,1,8,0:0:0:0:
307,178,142111,1,8,0:0:0:0:
321,144,142205,1,8,0:0:0:0:
379,127,142298,5,6,0:0:0:0:
385,92,142392,1,8,0:0:0:0:
433,56,142486,5,6,0:0:0:0:
397,58,142580,1,8,0:0:0:0:
361,61,142673,1,8,0:0:0:0:
325,64,142767,1,8,0:0:0:0:
289,67,142861,1,8,0:0:0:0:
253,70,142955,1,8,0:0:0:0:
217,73,143048,5,2,0:0:0:0:
224,80,143142,1,2,0:0:0:0:
232,86,143236,5,8,0:0:0:0:
196,88,143330,1,8,0:0:0:0:
160,91,143423,1,8,0:0:0:0:
124,94,143517,1,8,0:0:0:0:
88,97,143611,5,2,0:0:0:0:
96,102,143705,1,2,0:0:0:0:
104,107,143798,1,2,0:0:0:0:
112,112,143892,1,2,0:0:0:0:
120,117,143986,1,2,0:0:0:0:
128,122,144080,1,2,0:0:0:0:
167,129,144174,6,0,L|355:107,1,160,6|0,0:0|0:0,0:0:0:0:
82,190,144736,1,2,0:0:0:0:
85,193,144924,2,0,P|70:251|74:278,1,80,8|0,0:0|0:0,0:0:0:0:
295,360,145299,6,0,P|251:324|130:330,1,160,6|0,0:0|0:0,0:0:0:0:
387,303,145861,2,0,L|401:132,1,160,6|0,0:0|0:0,0:0:0:0:
179,84,146424,5,8,0:0:0:0:
356,51,146611,1,2,0:0:0:0:
182,186,146799,5,2,0:0:0:0:
70,31,146986,1,2,0:0:0:0:
194,203,147174,1,2,0:0:0:0:
58,16,147361,1,2,0:0:0:0:
265,76,147549,5,0,0:0:0:0:
205,221,147736,1,2,0:0:0:0:
376,103,147924,2,0,L|361:14,1,80,8|0,0:0|0:0,0:0:0:0:
231,1,148299,1,2,0:0:0:0:
335,189,148486,5,2,0:0:0:0:
164,142,148674,1,0,0:0:0:0:
310,269,148861,2,0,L|414:259,1,80,2|0,0:0|0:0,0:0:0:0:
450,356,149236,1,2,0:0:0:0:
218,289,149424,5,8,0:0:0:0:
368,199,149611,1,8,0:0:0:0:
369,191,149674,1,2,0:0:0:0:
370,183,149736,1,2,0:0:0:0:
371,175,149799,2,0,B|388:137|388:137|369:87,1,80,2|2,0:0|0:0,0:0:0:0:
131,324,150174,6,0,P|172:369|284:357,1,160,6|0,0:0|0:0,0:0:0:0:
122,163,150736,1,2,0:0:0:0:
125,166,150924,2,0,P|91:204|82:250,1,80,8|0,0:0|0:0,0:0:0:0:
296,187,151299,6,0,L|278:22,1,160,6|0,0:0|0:0,0:0:0:0:
342,257,151861,2,0,P|409:297|522:284,1,160,6|0,0:0|0:0,0:0:0:0:
319,103,152424,5,8,0:0:0:0:
221,259,152612,1,2,0:0:0:0:
183,40,152799,5,2,0:0:0:0:
282,190,152987,1,2,0:0:0:0:
58,76,153174,5,6,0:0:0:0:
61,79,153362,2,0,L|70:-13,1,80,2|0,0:0|0:0,0:0:0:0:
265,175,153737,5,2,0:0:0:0:
53,224,153924,1,8,0:0:0:0:
246,179,154112,1,2,0:0:0:0:
122,129,154299,1,2,0:0:0:0:
347,151,154487,6,0,L|335:240,1,80,2|0,0:0|0:0,0:0:0:0:
459,90,154862,2,0,L|471:179,1,80,2|0,0:0|0:0,0:0:0:0:
287,51,155237,5,2,0:0:0:0:
297,45,155330,1,2,0:0:0:0:
308,43,155424,1,8,0:0:0:0:
227,154,155612,5,8,0:0:0:0:
187,149,155705,1,8,0:0:0:0:
147,144,155799,1,8,0:0:0:0:
107,139,155893,1,8,0:0:0:0:
67,134,155987,5,2,0:0:0:0:
78,131,156080,1,2,0:0:0:0:
116,119,156174,6,0,L|308:142,1,160,6|0,0:0|0:0,0:0:0:0:
85,29,156737,1,2,0:0:0:0:
88,32,156924,2,0,L|-7:39,1,80,8|0,0:0|0:0,0:0:0:0:
301,217,157299,6,0,P|350:153|309:64,1,160,6|0,0:0|0:0,0:0:0:0:
81,211,157862,2,0,L|97:378,1,160,6|0,0:0|0:0,0:0:0:0:
225,217,158424,5,8,0:0:0:0:
80,110,158612,1,2,0:0:0:0:
300,98,158799,5,2,0:0:0:0:
345,283,158987,1,2,0:0:0:0:
293,76,159174,1,2,0:0:0:0:
353,300,159362,1,2,0:0:0:0:
148,167,159549,5,0,0:0:0:0:
324,188,159737,1,2,0:0:0:0:
107,232,159924,2,0,L|27:235,1,80,8|0,0:0|0:0,0:0:0:0:
309,180,160300,1,2,0:0:0:0:
121,86,160487,5,2,0:0:0:0:
211,245,160675,1,0,0:0:0:0:
256,25,160862,2,0,L|338:18,1,80,2|0,0:0|0:0,0:0:0:0:
392,155,161237,1,2,0:0:0:0:
154,171,161425,5,8,0:0:0:0:
315,241,161612,1,2,0:0:0:0:
316,248,161675,1,2,0:0:0:0:
317,255,161737,1,2,0:0:0:0:
318,262,161800,2,0,B|330:302|330:302|307:355,1,80,8|2,0:0|0:0,0:0:0:0:
55,99,162175,6,0,P|103:61|231:76,1,160,6|0,0:0|0:0,0:0:0:0:
376,193,162737,1,2,0:0:0:0:
379,196,162925,2,0,L|464:190,1,80,8|0,0:0|0:0,0:0:0:0:
177,186,163300,6,0,P|134:253|170:352,1,160,6|0,0:0|0:0,0:0:0:0:
360,184,163862,2,0,L|337:8,1,160,6|0,0:0|0:0,0:0:0:0:
155,193,164425,5,8,0:0:0:0:
235,41,164612,1,2,0:0:0:0:
109,91,164800,1,2,0:0:0:0:
112,94,164987,1,2,0:0:0:0:
301,264,165175,6,0,B|391:262|391:262|418:235|418:235|514:233,2,213.600000162964,6|6|6,0:0|0:0|0:0,0:0:0:0:
287,280,166862,1,2,0:0:0:0:
203,264,167237,1,2,0:0:0:0:
450,305,167425,5,8,0:0:0:0:
344,179,167612,1,2,0:0:0:0:
326,357,167800,5,2,0:0:0:0:
336,160,167987,1,2,0:0:0:0:
174,345,168175,5,6,0:0:0:0:
174,345,169300,2,0,P|149:290|170:222,1,106.800000081482,8|0,0:0|0:0,0:0:0:0:
220,200,169675,1,2,0:0:0:0:
79,177,169862,2,0,L|73:87,1,71.2000000543213,2|0,0:0|0:0,0:0:0:0:
257,276,170237,5,2,0:0:0:0:
246,279,170331,1,2,0:0:0:0:
234,282,170425,1,2,0:0:0:0:
281,150,170612,1,2,0:0:0:0:
292,151,170706,1,2,0:0:0:0:
303,152,170800,1,2,0:0:0:0:
314,153,170893,1,2,0:0:0:0:
325,154,170987,1,2,0:0:0:0:
336,155,171081,1,2,0:0:0:0:
347,156,171175,5,2,0:0:0:0:
400,254,171362,1,2,0:0:0:0:
215,192,171550,2,0,B|199:159|199:159|208:116,1,71.2000000543213,8|0,0:0|0:0,0:0:0:0:
327,76,171925,1,2,0:0:0:0:
148,40,172112,1,2,0:0:0:0:
347,156,172300,6,0,L|501:144,1,142.400000108643,6|2,0:0|0:0,0:0:0:0:
204,215,172862,1,6,0:0:0:0:
207,218,173050,2,0,L|116:210,1,71.2000000543213,2|0,0:0|0:0,0:0:0:0:
387,244,173425,6,0,P|425:309|414:386,1,142.400000108643,12|2,0:0|0:0,0:0:0:0:
286,241,173987,1,2,0:0:0:0:
294,234,174081,1,2,0:0:0:0:
304,232,174175,1,2,0:0:0:0:
240,336,174362,1,2,0:0:0:0:
229,335,174456,1,2,0:0:0:0:
218,334,174550,6,0,L|128:326,2,71.2000000543213,2|0|2,0:0|0:0|0:0,0:0:0:0:
80,151,175112,2,0,P|64:195|68:235,1,71.2000000543213,2|2,0:0|0:0,0:0:0:0:
175,244,175487,1,2,0:0:0:0:
115,74,175675,2,0,L|31:78,1,71.2000000543213,8|0,0:0|0:0,0:0:0:0:
257,193,176050,2,0,P|274:161|271:115,1,71.2000000543213,2|0,0:0|0:0,0:0:0:0:
177,264,176425,6,0,P|226:236|338:247,2,142.400000108643,6|2|2,0:0|0:0|0:0,0:0:0:0:
377,302,177550,2,0,P|401:257|385:184,1,106.800000081482,8|0,0:0|0:0,0:0:0:0:
326,165,177925,1,2,0:0:0:0:
474,136,178112,2,0,L|480:53,1,71.2000000543213,2|2,0:0|0:0,0:0:0:0:
395,202,178487,5,2,0:0:0:0:
405,203,178581,1,2,0:0:0:0:
415,204,178675,1,6,0:0:0:0:
314,90,178862,1,2,0:0:0:0:
303,91,178956,1,2,0:0:0:0:
292,92,179050,1,2,0:0:0:0:
281,93,179143,1,2,0:0:0:0:
270,94,179237,1,2,0:0:0:0:
259,95,179331,1,2,0:0:0:0:
248,96,179425,5,2,0:0:0:0:
165,18,179612,1,2,0:0:0:0:
126,193,179800,2,0,L|44:198,1,71.2000000543213,8|0,0:0|0:0,0:0:0:0:
234,98,180175,1,2,0:0:0:0:
46,59,180362,1,2,0:0:0:0:
228,189,180550,6,0,L|391:176,1,142.400000108643,6|2,0:0|0:0,0:0:0:0:
145,266,181112,1,6,0:0:0:0:
148,269,181300,2,0,P|133:319|136:349,1,71.2000000543213,2|0,0:0|0:0,0:0:0:0:
300,150,181675,6,0,L|280:-12,1,142.400000108643,12|2,0:0|0:0,0:0:0:0:
214,66,182237,1,2,0:0:0:0:
372,91,182425,1,2,0:0:0:0:
297,164,182612,1,2,0:0:0:0:
295,174,182706,1,2,0:0:0:0:
293,184,182800,6,0,L|280:84,2,71.2000000543213,2|2|2,0:0|0:0|0:0,0:0:0:0:
133,74,183362,2,0,P|169:54|213:52,1,71.2000000543213,2|0,0:0|0:0,0:0:0:0:
294,106,183737,1,2,0:0:0:0:
100,153,183925,5,8,0:0:0:0:
225,230,184112,1,2,0:0:0:0:
57,254,184300,5,2,0:0:0:0:
242,233,184487,1,2,0:0:0:0:
3,181,184675,5,6,0:0:0:0:
3,181,185800,2,0,P|45:152|114:159,1,106.800000081482,8|0,0:0|0:0,0:0:0:0:
140,219,186175,1,0,0:0:0:0:
179,80,186362,2,0,L|257:73,1,71.2000000543213,2|2,0:0|0:0,0:0:0:0:
333,207,186737,1,2,0:0:0:0:
343,208,186831,1,2,0:0:0:0:
353,209,186925,6,0,L|448:218,2,71.2000000543213,2|2|2,0:0|0:0|0:0,0:0:0:0:
172,283,187487,2,0,L|82:288,1,71.2000000543213,2|2,0:0|0:0,0:0:0:0:
68,177,187862,1,2,0:0:0:0:
244,246,188050,2,0,B|258:285|258:285|240:335,1,71.2000000543213,10|0,0:0|0:0,0:0:0:0:
143,358,188425,1,0,0:0:0:0:
306,379,188612,1,0,0:0:0:0:
157,257,188800,6,0,L|1:265,1,142.400000108643,6|2,0:0|0:0,0:0:0:0:
258,192,189362,1,6,0:0:0:0:
261,195,189550,2,0,P|279:158|272:102,1,71.2000000543213,2|0,0:0|0:0,0:0:0:0:
86,45,189925,6,0,P|128:86|223:70,1,142.400000108643,12|2,0:0|0:0,0:0:0:0:
39,144,190487,1,2,0:0:0:0:
38,133,190581,1,2,0:0:0:0:
37,122,190675,1,2,0:0:0:0:
169,186,190862,1,2,0:0:0:0:
168,197,190956,1,2,0:0:0:0:
167,208,191050,6,0,L|158:292,2,71.2000000543213,2|2|2,0:0|0:0|0:0,0:0:0:0:
355,140,191612,2,0,L|347:69,1,71.2000000543213,2|2,0:0|0:0,0:0:0:0:
233,59,191987,1,0,0:0:0:0:
329,218,192175,2,0,L|418:212,1,71.2000000543213,8|0,0:0|0:0,0:0:0:0:
249,259,192550,2,0,P|237:300|244:343,1,71.2000000543213,2|0,0:0|0:0,0:0:0:0:
377,98,192925,6,0,P|337:123|260:114,1,106.800000081482,6|0,0:0|0:0,0:0:0:0:
233,59,193300,1,2,0:0:0:0:
149,191,193487,2,0,L|63:197,1,71.2000000543213,2|2,0:0|0:0,0:0:0:0:
22,296,193862,1,2,0:0:0:0:
221,230,194050,6,0,B|233:195|233:195|219:144,1,71.2000000543213,8|0,0:0|0:0,0:0:0:0:
117,121,194425,1,2,0:0:0:0:
281,75,194612,1,2,0:0:0:0:
182,34,194800,1,2,0:0:0:0:
295,152,194987,1,2,0:0:0:0:
305,151,195081,1,2,0:0:0:0:
315,150,195175,6,0,L|412:141,2,71.2000000543213,2|2|2,0:0|0:0|0:0,0:0:0:0:
182,284,195737,2,0,L|98:276,1,71.2000000543213,2|2,0:0|0:0,0:0:0:0:
184,199,196112,1,2,0:0:0:0:
258,361,196300,2,0,L|342:353,1,71.2000000543213,8|0,0:0|0:0,0:0:0:0:
366,246,196675,1,2,0:0:0:0:
201,298,196862,1,2,0:0:0:0:
315,152,197050,6,0,L|471:164,1,142.400000108643,6|0,0:0|0:0,0:0:0:0:
213,110,197612,1,6,0:0:0:0:
216,113,197800,2,0,P|202:72|208:29,1,71.2000000543213
388,193,198175,6,0,L|373:345,1,142.400000108643,12|2,0:0|0:0,0:0:0:0:
296,160,198737,1,2,0:0:0:0:
305,154,198831,1,2,0:0:0:0:
315,152,198925,1,2,0:0:0:0:
243,267,199112,1,0,0:0:0:0:
232,265,199206,1,0,0:0:0:0:
221,263,199300,6,0,L|137:277,2,71.2000000543213,2|2|2,0:0|0:0|0:0,0:0:0:0:
315,152,199862,2,0,L|396:161,1,71.2000000543213,2|2,0:0|0:0,0:0:0:0:
455,69,200237,1,0,0:0:0:0:
240,121,200425,5,8,0:0:0:0:
368,233,200612,1,8,0:0:0:0:
222,106,200800,1,8,0:0:0:0:
382,245,200987,1,8,0:0:0:0:
137,193,201175,5,6,0:0:0:0:
137,193,202300,2,0,P|114:234|132:311,1,106.800000081482,8|0,0:0|0:0,0:0:0:0:
186,333,202675,1,2,0:0:0:0:
72,236,202862,2,0,L|-19:245,1,71.2000000543213,2|2,0:0|0:0,0:0:0:0:
140,180,203237,1,0,0:0:0:0:
142,169,203331,1,0,0:0:0:0:
144,158,203425,6,0,L|130:73,2,71.2000000543213,2|2|2,0:0|0:0|0:0,0:0:0:0:
316,208,203987,2,0,P|272:195|229:204,1,71.2000000543213,2|2,0:0|0:0,0:0:0:0:
211,305,204362,1,2,0:0:0:0:
386,240,204550,2,0,B|400:204|400:204|369:146,1,71.2000000543213,8|0,0:0|0:0,0:0:0:0:
283,121,204925,1,2,0:0:0:0:
443,85,205112,1,2,0:0:0:0:
316,208,205300,6,0,L|152:195,1,142.400000108643,6|2,0:0|0:0,0:0:0:0:
457,97,205862,1,6,0:0:0:0:
460,100,206050,2,0,P|480:141|477:186,1,71.2000000543213,2|0,0:0|0:0,0:0:0:0:
308,321,206425,6,0,P|348:281|456:292,1,142.400000108643,12|2,0:0|0:0,0:0:0:0:
231,263,206987,1,2,0:0:0:0:
229,252,207081,1,2,0:0:0:0:
227,241,207175,1,2,0:0:0:0:
361,197,207362,1,2,0:0:0:0:
363,186,207456,1,2,0:0:0:0:
365,175,207550,6,0,L|377:95,2,71.2000000543213,2|2|2,0:0|0:0|0:0,0:0:0:0:
212,31,208112,2,0,P|251:17|294:22,1,71.2000000543213,2|2,0:0|0:0,0:0:0:0:
367,92,208487,1,2,0:0:0:0:
147,78,208675,2,0,B|130:42|130:42|138:-6,1,71.2000000543213,8|0,0:0|0:0,0:0:0:0:
291,159,209050,2,0,L|211:167,1,71.2000000543213
86,309,209425,5,6,0:0:0:0:
344,237,209800,1,2,0:0:0:0:
171,214,209987,1,2,0:0:0:0:
271,176,210175,1,2,0:0:0:0:
102,166,210362,1,2,0:0:0:0:
208,319,210550,6,0,L|362:308,1,142.400000108643,8|2,0:0|0:0,0:0:0:0:
162,240,211112,1,2,0:0:0:0:
158,249,211206,1,2,0:0:0:0:
157,259,211300,1,2,0:0:0:0:
271,176,211487,1,2,0:0:0:0:
270,165,211581,1,2,0:0:0:0:
269,154,211675,6,0,L|261:62,2,71.2000000543213,2|2|2,0:0|0:0|0:0,0:0:0:0:
102,191,212237,2,0,P|131:171|184:172,1,71.2000000543213,2|2,0:0|0:0,0:0:0:0:
211,270,212612,1,2,0:0:0:0:
34,225,212800,2,0,B|21:190|21:190|35:148,1,71.2000000543213,8|0,0:0|0:0,0:0:0:0:
191,96,213175,1,0,0:0:0:0:
103,65,213362,1,0,0:0:0:0:
271,176,213550,6,0,L|424:168,1,142.400000108643,6|2,0:0|0:0,0:0:0:0:
211,270,214112,1,6,0:0:0:0:
214,273,214300,2,0,P|199:310|202:356,1,71.2000000543213,2|0,0:0|0:0,0:0:0:0:
354,127,214675,6,0,P|290:82|205:101,1,142.400000108643,12|2,0:0|0:0,0:0:0:0:
450,98,215237,1,2,0:0:0:0:
452,87,215331,1,2,0:0:0:0:
454,76,215425,1,2,0:0:0:0:
356,139,215612,1,2,0:0:0:0:
358,150,215706,1,2,0:0:0:0:
361,160,215800,6,0,L|376:245,2,71.2000000543213,6|2|2,0:0|0:0|0:0,0:0:0:0:
233,310,216362,2,0,P|270:329|318:329,1,71.2000000543213,2|2,0:0|0:0,0:0:0:0:
376,247,216737,1,2,0:0:0:0:
158,264,216925,5,8,0:0:0:0:
311,339,217112,1,8,0:0:0:0:
137,253,217300,1,8,0:0:0:0:
328,348,217487,1,8,0:0:0:0:
188,166,217675,6,0,P|117:154|49:189,1,124.800004189453,6|0,0:0|0:0,0:0:0:0:
124,112,218237,1,2,0:0:0:0:
211,239,218425,2,0,L|287:243,1,62.4000020947266,8|0,0:0|0:0,0:0:0:0:
391,97,218800,6,0,P|355:134|367:214,1,124.800004189453,2|0,0:0|0:0,0:0:0:0:
478,93,219362,1,2,0:0:0:0:
481,96,219550,2,0,L|473:20,1,62.4000020947266
321,269,219925,6,0,P|370:232|437:237,1,124.800004189453,8|0,0:0|0:0,0:0:0:0:
320,348,220487,1,2,0:0:0:0:
323,351,220675,2,0,L|246:343,1,62.4000020947266
99,183,221050,6,0,P|139:170|177:171,1,62.4000020947266,2|0,0:0|0:0,0:0:0:0:
343,207,221425,1,8,0:0:0:0:
252,235,221612,2,0,L|244:92,1,124.800004189453,2|2,0:0|0:0,0:0:0:0:
199,298,222175,6,0,P|256:268|333:285,1,124.800004189453,6|0,0:0|0:0,0:0:0:0:
367,366,222737,1,2,0:0:0:0:
414,229,222925,2,0,L|490:222,1,62.4000020947266,8|0,0:0|0:0,0:0:0:0:
315,197,223300,6,0,P|283:148|297:77,1,124.800004189453,2|0,0:0|0:0,0:0:0:0:
461,40,223862,1,2,0:0:0:0:
464,43,224050,2,0,L|396:35,1,62.4000020947266
130,153,224425,6,0,L|275:141,1,124.800004189453,8|0,0:0|0:0,0:0:0:0:
60,116,224987,1,2,0:0:0:0:
63,119,225175,2,0,P|51:88|50:34,1,62.4000020947266
200,176,225550,6,0,L|194:253,1,62.4000020947266,2|0,0:0|0:0,0:0:0:0:
28,287,225925,1,8,0:0:0:0:
142,317,226113,1,2,0:0:0:0:
26,209,226300,5,2,0:0:0:0:
0,364,226488,1,2,0:0:0:0:
183,182,226675,6,0,L|172:55,1,124.800004189453,6|0,0:0|0:0,0:0:0:0:
228,115,227238,1,2,0:0:0:0:
107,183,227425,2,0,L|100:245,1,62.4000020947266,8|0,0:0|0:0,0:0:0:0:
278,343,227800,6,0,P|229:306|150:318,1,124.800004189453,2|0,0:0|0:0,0:0:0:0:
352,295,228363,1,2,0:0:0:0:
355,298,228550,2,0,P|371:261|371:223,1,62.4000020947266
242,101,228925,6,0,L|255:242,1,124.800004189453,8|0,0:0|0:0,0:0:0:0:
125,99,229488,1,2,0:0:0:0:
128,102,229675,2,0,L|140:20,1,62.4000020947266
301,285,230050,6,0,P|272:301|228:300,1,62.4000020947266,2|0,0:0|0:0,0:0:0:0:
55,239,230425,1,8,0:0:0:0:
143,193,230613,2,0,L|152:325,1,124.800004189453,2|2,0:0|0:0,0:0:0:0:
199,107,231175,6,0,P|166:139|71:134,1,124.800004189453,6|0,0:0|0:0,0:0:0:0:
123,64,231738,1,2,0:0:0:0:
216,193,231925,2,0,L|295:185,1,62.4000020947266,8|0,0:0|0:0,0:0:0:0:
369,21,232300,6,0,P|334:62|338:139,1,124.800004189453,2|0,0:0|0:0,0:0:0:0:
470,204,232863,1,2,0:0:0:0:
473,207,233050,2,0,L|484:285,1,62.4000020947266
215,187,233425,6,0,L|224:53,1,124.800004189453,8|0,0:0|0:0,0:0:0:0:
23,198,233988,1,2,0:0:0:0:
26,201,234176,2,0,P|56:212|95:212,1,62.4000020947266
185,109,234551,2,0,P|153:136|139:167,1,62.4000020947266,2|0,0:0|0:0,0:0:0:0:
246,293,234926,5,8,0:0:0:0:
207,300,235051,2,0,L|268:294,1,41.6000013964844
325,251,235301,5,8,0:0:0:0:
369,258,235426,2,0,L|308:252,1,41.6000013964844
183,225,235676,6,0,P|151:171|172:83,1,142.400000108643,6|0,0:0|0:0,0:0:0:0:
270,88,236238,1,2,0:0:0:0:
124,166,236426,2,0,L|47:157,1,71.2000000543213,8|0,0:0|0:0,0:0:0:0:
307,164,236801,6,0,P|346:119|332:37,1,142.400000108643,2|0,0:0|0:0,0:0:0:0:
183,225,237363,1,2,0:0:0:0:
186,228,237551,2,0,L|274:236,1,71.2000000543213
452,324,237926,6,0,L|294:330,1,142.400000108643,8|0,0:0|0:0,0:0:0:0:
476,193,238488,1,2,0:0:0:0:
479,196,238676,2,0,P|498:239|497:278,1,71.2000000543213
307,164,239051,6,0,L|316:86,1,71.2000000543213,2|0,0:0|0:0,0:0:0:0:
152,19,239426,1,8,0:0:0:0:
208,155,239613,1,2,0:0:0:0:
120,115,239801,5,0,0:0:0:0:
233,64,239988,1,0,0:0:0:0:
78,187,240176,6,0,P|126:153|218:159,1,142.400000108643,6|0,0:0|0:0,0:0:0:0:
224,254,240738,1,2,0:0:0:0:
120,115,240926,2,0,L|129:32,1,71.2000000543213,8|0,0:0|0:0,0:0:0:0:
423,109,241301,6,0,P|387:139|391:236,1,142.400000108643,2|0,0:0|0:0,0:0:0:0:
353,58,241864,1,2,0:0:0:0:
356,61,242051,2,0,L|283:54,1,71.2000000543213
158,208,242426,6,0,L|307:200,1,142.400000108643,8|0,0:0|0:0,0:0:0:0:
130,298,242989,1,2,0:0:0:0:
133,301,243176,2,0,L|42:290,1,71.2000000543213
378,149,243551,6,0,P|392:193|389:235,1,71.2000000543213,2|0,0:0|0:0,0:0:0:0:
217,286,243926,1,8,0:0:0:0:
341,314,244114,1,2,0:0:0:0:
140,325,244301,5,2,0:0:0:0:
251,205,244489,1,2,0:0:0:0:
51,190,244676,6,0,L|42:43,1,142.400000108643,6|0,0:0|0:0,0:0:0:0:
0,116,245239,1,2,0:0:0:0:
139,171,245426,2,0,L|135:242,1,71.2000000543213,8|0,0:0|0:0,0:0:0:0:
332,114,245801,6,0,P|277:78|190:95,1,142.400000108643,2|0,0:0|0:0,0:0:0:0:
345,220,246364,1,2,0:0:0:0:
348,223,246551,2,0,L|421:216,1,71.2000000543213
212,326,246926,6,0,L|65:314,1,142.400000108643,8|0,0:0|0:0,0:0:0:0:
345,220,247489,1,2,0:0:0:0:
348,223,247676,2,0,P|362:257|366:306,1,71.2000000543213
194,157,248051,6,0,L|206:68,1,71.2000000543213,2|0,0:0|0:0,0:0:0:0:
404,38,248426,1,8,0:0:0:0:
294,167,248614,1,0,0:0:0:0:
300,70,248801,5,0,0:0:0:0:
392,139,248989,1,0,0:0:0:0:
184,153,249176,6,0,L|192:8,1,142.400000108643,6|0,0:0|0:0,0:0:0:0:
228,82,249739,1,2,0:0:0:0:
89,155,249927,2,0,L|97:236,1,71.2000000543213,8|0,0:0|0:0,0:0:0:0:
299,298,250302,6,0,P|246:264|160:283,1,142.400000108643,2|0,0:0|0:0,0:0:0:0:
372,255,250864,1,2,0:0:0:0:
375,258,251052,2,0,L|386:162,1,71.2000000543213
244,18,251427,6,0,L|257:174,1,142.400000108643,8|0,0:0|0:0,0:0:0:0:
402,26,251989,1,2,0:0:0:0:
405,29,252177,2,0,P|348:13|332:15,1,71.2000000543213
170,133,252552,5,2,0:0:0:0:
289,92,252739,1,2,0:0:0:0:
211,239,252927,5,8,0:0:0:0:
175,241,253020,1,8,0:0:0:0:
139,243,253114,1,8,0:0:0:0:
103,246,253208,1,8,0:0:0:0:
67,249,253302,5,2,0:0:0:0:
76,253,253395,1,2,0:0:0:0:
85,257,253489,1,2,0:0:0:0:
94,261,253583,1,2,0:0:0:0:
103,265,253677,1,2,0:0:0:0:
256,192,256677,12,0,258083,0:0:0:0:
380,239,258177,5,6,0:0:0:0:
345,220,258271,1,8,0:0:0:0:
305,223,258365,1,8,0:0:0:0:
270,243,258458,1,8,0:0:0:0:
234,261,258552,1,8,0:0:0:0:
194,259,258646,1,8,0:0:0:0:
145,223,258740,5,6,0:0:0:0:
105,228,258833,1,8,0:0:0:0:
63,271,258927,5,6,0:0:0:0:
59,231,259021,1,8,0:0:0:0:
55,191,259115,1,8,0:0:0:0:
51,151,259208,1,8,0:0:0:0:
47,111,259302,5,8,0:0:0:0:
45,122,259396,1,2,0:0:0:0:
43,133,259490,1,2,0:0:0:0:
41,144,259583,1,2,0:0:0:0:
31,182,259677,6,0,L|49:346,1,160,6|0,0:0|0:0,0:0:0:0:
205,115,260240,1,2,0:0:0:0:
208,118,260427,2,0,P|171:105|116:110,1,80,8|0,0:0|0:0,0:0:0:0:
222,291,260802,6,0,L|388:278,1,160,6|0,0:0|0:0,0:0:0:0:
462,73,261365,2,0,P|421:122|450:224,1,160,6|0,0:0|0:0,0:0:0:0:
239,98,261927,5,8,0:0:0:0:
415,27,262115,1,2,0:0:0:0:
270,204,262302,5,2,0:0:0:0:
123,81,262490,1,2,0:0:0:0:
285,215,262677,1,2,0:0:0:0:
108,67,262865,1,2,0:0:0:0:
336,108,263052,5,0,0:0:0:0:
166,150,263240,1,2,0:0:0:0:
390,185,263427,2,0,L|474:188,1,80,8|0,0:0|0:0,0:0:0:0:
183,141,263802,1,2,0:0:0:0:
362,272,263990,5,2,0:0:0:0:
317,101,264177,1,0,0:0:0:0:
267,310,264365,2,0,L|160:315,1,80,8|0,0:0|0:0,0:0:0:0:
110,210,264740,1,2,0:0:0:0:
343,259,264927,5,8,0:0:0:0:
200,158,265115,1,2,0:0:0:0:
201,150,265177,1,2,0:0:0:0:
202,142,265240,1,2,0:0:0:0:
203,134,265302,2,0,B|181:99|181:99|193:40,1,80,8|2,0:0|0:0,0:0:0:0:
0,246,265678,6,0,P|46:213|167:241,1,160,6|0,0:0|0:0,0:0:0:0:
278,370,266240,1,2,0:0:0:0:
281,373,266428,2,0,L|292:264,1,80,8|0,0:0|0:0,0:0:0:0:
197,140,266803,6,0,P|239:179|359:167,1,160,6|0,0:0|0:0,0:0:0:0:
159,31,267365,2,0,L|-24:45,1,160,6|0,0:0|0:0,0:0:0:0:
293,101,267928,5,8,0:0:0:0:
146,222,268115,1,2,0:0:0:0:
236,23,268303,5,2,0:0:0:0:
360,171,268490,1,2,0:0:0:0:
141,79,268678,5,6,0:0:0:0:
144,82,268865,2,0,L|132:-8,1,80,2|0,0:0|0:0,0:0:0:0:
303,79,269240,5,2,0:0:0:0:
136,218,269428,1,8,0:0:0:0:
289,92,269615,1,2,0:0:0:0:
153,100,269803,1,2,0:0:0:0:
366,182,269990,6,0,L|472:172,1,80,2|0,0:0|0:0,0:0:0:0:
242,280,270365,2,0,L|348:290,1,80,2|0,0:0|0:0,0:0:0:0:
199,161,270740,5,2,0:0:0:0:
130,350,270928,1,8,0:0:0:0:
288,205,271115,5,8,0:0:0:0:
285,164,271209,1,8,0:0:0:0:
282,123,271303,5,8,0:0:0:0:
288,132,271397,1,2,0:0:0:0:
294,142,271490,1,2,0:0:0:0:
300,152,271584,1,2,0:0:0:0:
323,184,271678,6,0,L|146:170,1,160,6|0,0:0|0:0,0:0:0:0:
337,264,272240,1,2,0:0:0:0:
340,267,272428,2,0,L|430:258,1,80,8|0,0:0|0:0,0:0:0:0:
123,93,272803,6,0,P|77:132|104:241,1,160,6|0,0:0|0:0,0:0:0:0:
306,162,273365,2,0,L|279:-35,1,160,6|0,0:0|0:0,0:0:0:0:
140,111,273928,5,8,0:0:0:0:
269,237,274116,1,2,0:0:0:0:
65,211,274303,5,2,0:0:0:0:
225,88,274491,1,2,0:0:0:0:
50,223,274678,1,2,0:0:0:0:
242,76,274866,1,2,0:0:0:0:
162,267,275053,5,0,0:0:0:0:
114,100,275241,1,2,0:0:0:0:
81,293,275428,2,0,L|74:379,1,80,8|0,0:0|0:0,0:0:0:0:
124,117,275803,1,2,0:0:0:0:
247,288,275991,5,2,0:0:0:0:
100,210,276178,1,0,0:0:0:0:
310,180,276366,2,0,L|319:88,1,80,8|0,0:0|0:0,0:0:0:0:
198,53,276741,1,2,0:0:0:0:
264,271,276928,5,8,0:0:0:0:
404,165,277116,1,2,0:0:0:0:
412,164,277178,1,2,0:0:0:0:
419,163,277241,1,2,0:0:0:0:
427,162,277303,2,0,B|467:153|467:153|510:173,1,80,8|2,0:0|0:0,0:0:0:0:
245,284,277678,6,0,L|85:268,1,160,6|0,0:0|0:0,0:0:0:0:
310,230,278241,1,2,0:0:0:0:
313,233,278428,2,0,P|334:280|332:311,1,80,8|0,0:0|0:0,0:0:0:0:
203,101,278803,6,0,P|233:70|350:64,1,160,6|0,0:0|0:0,0:0:0:0:
166,188,279366,2,0,L|-22:170,1,160,6|0,0:0|0:0,0:0:0:0:
294,151,279928,5,8,0:0:0:0:
173,295,280116,1,2,0:0:0:0:
125,106,280303,5,2,0:0:0:0:
247,243,280491,1,2,0:0:0:0:
239,25,280678,5,6,0:0:0:0:
273,6,280772,1,8,0:0:0:0:
313,6,280866,1,8,0:0:0:0:
346,27,280960,1,8,0:0:0:0:
376,52,281053,1,8,0:0:0:0:
415,55,281147,1,8,0:0:0:0:
469,28,281241,5,6,0:0:0:0:
445,60,281335,1,8,0:0:0:0:
440,99,281428,1,8,0:0:0:0:
456,135,281522,1,8,0:0:0:0:
480,166,281616,1,8,0:0:0:0:
485,205,281710,1,8,0:0:0:0:
448,252,281804,5,6,0:0:0:0:
460,289,281897,1,8,0:0:0:0:
503,330,281991,5,6,0:0:0:0:
462,327,282085,1,8,0:0:0:0:
421,324,282179,1,8,0:0:0:0:
381,322,282272,1,8,0:0:0:0:
340,319,282366,1,8,0:0:0:0:
299,317,282460,1,8,0:0:0:0:
246,346,282554,5,6,0:0:0:0:
275,372,282647,1,8,0:0:0:0:
315,374,282741,1,8,0:0:0:0:
348,351,282835,1,8,0:0:0:0:
358,312,282929,1,8,0:0:0:0:
341,275,283022,1,8,0:0:0:0:
309,250,283116,5,2,0:0:0:0:
320,252,283210,1,2,0:0:0:0:
262,233,283304,5,8,0:0:0:0:
273,231,283397,1,2,0:0:0:0:
284,230,283491,1,2,0:0:0:0:
234,264,283585,5,8,0:0:0:0:
168,276,283679,5,6,0:0:0:0:
166,262,283772,1,2,0:0:0:0:
164,248,283866,1,2,0:0:0:0:
162,234,283960,1,2,0:0:0:0:
160,220,284054,1,2,0:0:0:0:
158,206,284147,1,2,0:0:0:0:
156,192,284241,2,0,L|146:120,5,44.4000010839844,2|2|10|2|2|2,0:0|0:0|0:0|0:0|0:0|0:0,0:0:0:0:
183,59,284804,5,2,0:0:0:0:
195,63,284897,1,2,0:0:0:0:
208,64,284991,1,2,0:0:0:0:
221,64,285085,1,2,0:0:0:0:
234,62,285179,1,2,0:0:0:0:
246,59,285272,1,2,0:0:0:0:
258,55,285366,2,0,L|267:2,5,44.4000010839844,2|2|2|2|2|2,0:0|0:0|0:0|0:0|0:0|0:0,0:0:0:0:
318,117,285929,5,10,0:0:0:0:
331,118,286023,1,2,0:0:0:0:
344,119,286116,1,2,0:0:0:0:
357,121,286210,1,2,0:0:0:0:
370,123,286304,6,0,L|382:180,3,44.4000010839844,2|2|2|2,0:0|0:0|0:0|0:0,0:0:0:0:
406,280,286679,2,0,L|418:223,3,44.4000010839844,2|2|2|2,0:0|0:0|0:0|0:0,0:0:0:0:
328,320,287054,5,2,0:0:0:0:
314,321,287148,1,2,0:0:0:0:
300,322,287241,1,2,0:0:0:0:
286,323,287335,1,2,0:0:0:0:
272,324,287429,2,0,L|264:373,3,44.4000010839844,8|2|2|2,0:0|0:0|0:0|0:0,0:0:0:0:
180,271,287804,2,0,L|187:320,1,44.4000010839844,2|2,0:0|0:0,0:0:0:0:
258,226,287991,5,2,0:0:0:0:
260,212,288085,1,2,0:0:0:0:
262,198,288179,1,2,0:0:0:0:
264,185,288273,1,2,0:0:0:0:
266,171,288366,2,0,L|329:164,3,44.4000010839844,2|2|2|2,0:0|0:0|0:0|0:0,0:0:0:0:
436,152,288741,2,0,L|382:149,1,44.4000010839844,10|2,0:0|0:0,0:0:0:0:
282,74,288929,5,2,0:0:0:0:
269,76,289023,1,2,0:0:0:0:
255,78,289116,1,2,0:0:0:0:
241,80,289210,1,2,0:0:0:0:
202,103,289304,5,10,0:0:0:0:
189,101,289398,1,2,0:0:0:0:
175,99,289491,1,2,0:0:0:0:
161,97,289585,1,2,0:0:0:0:
94,100,289679,5,6,0:0:0:0:
96,113,289773,1,2,0:0:0:0:
98,126,289867,1,2,0:0:0:0:
100,139,289960,1,2,0:0:0:0:
102,152,290054,1,2,0:0:0:0:
104,165,290148,1,2,0:0:0:0:
106,178,290242,2,0,L|155:185,5,44.4000010839844,2|2|10|2|2|2,0:0|0:0|0:0|0:0|0:0|0:0,0:0:0:0:
192,280,290804,5,2,0:0:0:0:
205,279,290898,1,2,0:0:0:0:
218,278,290992,1,2,0:0:0:0:
231,277,291085,1,2,0:0:0:0:
244,276,291179,1,2,0:0:0:0:
257,275,291273,1,2,0:0:0:0:
270,274,291367,2,0,L|280:222,5,44.4000010839844,2|2|2|2|2|2,0:0|0:0|0:0|0:0|0:0|0:0,0:0:0:0:
381,185,291929,5,10,0:0:0:0:
379,171,292023,1,2,0:0:0:0:
377,157,292117,1,2,0:0:0:0:
375,143,292210,1,2,0:0:0:0:
373,129,292304,2,0,L|303:119,3,44.4000010839844,2|2|2|2,0:0|0:0|0:0|0:0,0:0:0:0:
254,45,292679,5,10,0:0:0:0:
240,46,292773,1,2,0:0:0:0:
227,47,292867,1,2,0:0:0:0:
214,48,292960,1,2,0:0:0:0:
200,49,293054,1,2,0:0:0:0:
187,50,293148,1,2,0:0:0:0:
146,30,293242,5,10,0:0:0:0:
145,44,293335,1,2,0:0:0:0:
144,56,293429,1,2,0:0:0:0:
143,69,293523,1,2,0:0:0:0:
142,83,293617,1,2,0:0:0:0:
141,96,293711,1,2,0:0:0:0:
114,132,293804,5,10,0:0:0:0:
101,131,293898,1,2,0:0:0:0:
142,147,293992,5,10,0:0:0:0:
129,148,294086,1,2,0:0:0:0:
173,138,294179,5,10,0:0:0:0:
160,137,294273,1,2,0:0:0:0:
200,156,294367,5,10,0:0:0:0:
244,153,294461,1,10,0:0:0:0:
288,150,294554,1,10,0:0:0:0:
331,146,294648,1,10,0:0:0:0:
375,140,294742,5,10,0:0:0:0:
369,127,294836,1,2,0:0:0:0:
397,161,294929,5,10,0:0:0:0:
403,148,295023,1,2,0:0:0:0:
401,192,295117,5,10,0:0:0:0:
414,188,295211,1,2,0:0:0:0:
391,226,295304,5,2,0:0:0:0:
402,234,295398,1,2,0:0:0:0:
412,241,295492,1,2,0:0:0:0:
422,248,295586,1,2,0:0:0:0:
473,291,295679,5,6,0:0:0:0:
460,293,295773,1,2,0:0:0:0:
446,295,295867,1,2,0:0:0:0:
432,297,295961,1,2,0:0:0:0:
418,299,296054,1,2,0:0:0:0:
405,301,296148,1,2,0:0:0:0:
391,303,296242,2,0,L|382:358,5,44.4000010839844,2|2|10|2|2|2,0:0|0:0|0:0|0:0|0:0|0:0,0:0:0:0:
310,257,296804,5,2,0:0:0:0:
297,254,296898,1,2,0:0:0:0:
283,251,296992,1,2,0:0:0:0:
269,248,297086,1,2,0:0:0:0:
255,245,297179,1,2,0:0:0:0:
242,242,297273,1,2,0:0:0:0:
228,239,297367,2,0,L|219:181,5,44.4000010839844,2|2|2|2|2|2,0:0|0:0|0:0|0:0|0:0|0:0,0:0:0:0:
112,142,297930,5,10,0:0:0:0:
114,129,298023,1,2,0:0:0:0:
117,116,298117,1,2,0:0:0:0:
120,103,298211,1,2,0:0:0:0:
123,90,298305,6,0,L|181:83,3,44.4000010839844,2|2|2|2,0:0|0:0|0:0|0:0,0:0:0:0:
305,102,298680,2,0,L|247:95,3,44.4000010839844,2|2|2|2,0:0|0:0|0:0|0:0,0:0:0:0:
381,168,299055,5,2,0:0:0:0:
376,180,299148,1,2,0:0:0:0:
374,193,299242,1,2,0:0:0:0:
374,206,299336,1,2,0:0:0:0:
376,219,299430,2,0,L|422:227,3,44.4000010839844,10|2|2|2,0:0|0:0|0:0|0:0,0:0:0:0:
321,302,299805,2,0,L|373:298,1,44.4000010839844,2|2,0:0|0:0,0:0:0:0:
263,215,299992,5,2,0:0:0:0:
249,216,300086,1,2,0:0:0:0:
235,217,300180,1,2,0:0:0:0:
221,218,300273,1,2,0:0:0:0:
207,219,300367,2,0,L|197:282,3,44.4000010839844,10|2|2|2,0:0|0:0|0:0|0:0,0:0:0:0:
114,178,300742,2,0,L|122:238,1,44.4000010839844,2|2,0:0|0:0,0:0:0:0:
181,100,300930,5,10,0:0:0:0:
194,98,301023,1,0,0:0:0:0:
207,96,301117,1,0,0:0:0:0:
220,94,301211,1,0,0:0:0:0:
256,119,301304,5,10,0:0:0:0:
269,121,301397,1,0,0:0:0:0:
282,123,301491,1,0,0:0:0:0:
295,125,301585,1,0,0:0:0:0:
363,113,301680,5,6,0:0:0:0:
362,126,301774,1,2,0:0:0:0:
361,139,301867,1,2,0:0:0:0:
360,152,301961,1,2,0:0:0:0:
359,166,302055,1,2,0:0:0:0:
358,179,302149,1,2,0:0:0:0:
357,192,302242,2,0,L|376:252,5,44.4000010839844,2|2|10|2|2|2,0:0|0:0|0:0|0:0|0:0|0:0,0:0:0:0:
348,330,302805,5,2,0:0:0:0:
335,325,302899,1,2,0:0:0:0:
322,321,302992,1,2,0:0:0:0:
308,319,303086,1,2,0:0:0:0:
294,319,303180,1,2,0:0:0:0:
280,321,303274,1,2,0:0:0:0:
267,325,303367,2,0,L|204:316,5,44.4000010839844,2|2|2|2|2|2,0:0|0:0|0:0|0:0|0:0|0:0,0:0:0:0:
160,241,303930,5,10,0:0:0:0:
158,227,304024,1,2,0:0:0:0:
156,213,304117,1,2,0:0:0:0:
154,199,304211,1,2,0:0:0:0:
152,185,304305,2,0,L|91:173,3,44.4000010839844,2|2|2|2,0:0|0:0|0:0|0:0,0:0:0:0:
251,197,304680,6,0,B|341:199|341:199|370:180|370:180|485:183,2,213.600000162964,6|6|6,0:0|0:0|0:0,0:0:0:0:
237,213,306368,1,6,0:0:0:0:
153,231,306743,1,2,0:0:0:0:
394,256,306930,5,8,0:0:0:0:
312,124,307118,1,2,0:0:0:0:
265,296,307305,1,2,0:0:0:0:
268,299,307493,1,2,0:0:0:0:
472,232,307680,6,0,L|477:154,1,62.4000020947266,6|0,0:0|0:0,0:0:0:0:
339,310,308055,2,0,P|389:333|417:332,1,62.4000020947266,2|0,0:0|0:0,0:0:0:0:
251,295,308430,2,0,L|173:301,1,62.4000020947266,8|0,0:0|0:0,0:0:0:0:
288,359,308805,6,0,L|292:215,1,124.800004189453,2|0,0:0|0:0,0:0:0:0:
117,138,309368,2,0,P|168:182|243:173,1,124.800004189453,2|0,0:0|0:0,0:0:0:0:
416,116,309930,2,0,P|343:119|297:150,1,124.800004189453,8|0,0:0|0:0,0:0:0:0:
235,292,310493,1,8,0:0:0:0:
225,290,310587,1,8,0:0:0:0:
215,288,310680,5,2,0:0:0:0:
171,370,310868,1,8,0:0:0:0:
314,322,311055,2,0,L|308:259,1,62.4000020947266,2|0,0:0|0:0,0:0:0:0:
167,177,311430,2,0,P|206:205|240:207,1,62.4000020947266,8|0,0:0|0:0,0:0:0:0:
388,132,311805,1,2,0:0:0:0:
391,135,311993,6,0,L|270:142,1,93.60000314209,2|0,0:0|0:0,0:0:0:0:
229,128,312368,2,0,P|215:94|216:50,1,62.4000020947266,8|0,0:0|0:0,0:0:0:0:
305,51,312743,1,2,0:0:0:0:
246,204,312930,2,0,L|107:195,1,124.800004189453,8|0,0:0|0:0,0:0:0:0:
447,340,313681,6,0,P|459:306|458:265,1,62.4000020947266,6|0,0:0|0:0,0:0:0:0:
341,189,314056,2,0,L|353:272,1,62.4000020947266,2|0,0:0|0:0,0:0:0:0:
487,127,314431,2,0,P|455:113|412:117,1,62.4000020947266,8|0,0:0|0:0,0:0:0:0:
254,245,314806,6,0,P|269:176|238:105,1,124.800004189453,2|0,0:0|0:0,0:0:0:0:
99,94,315368,1,8,0:0:0:0:
101,84,315462,1,8,0:0:0:0:
103,74,315556,1,2,0:0:0:0:
193,52,315743,1,8,0:0:0:0:
18,35,315931,1,8,0:0:0:0:
50,141,316118,2,0,L|188:132,1,124.800004189453,2|2,0:0|0:0,0:0:0:0:
267,266,316681,6,0,B|250:238|250:238|254:199,1,62.4000020947266,6|0,0:0|0:0,0:0:0:0:
334,162,317056,1,8,0:0:0:0:
305,331,317243,6,0,B|275:344|275:344|232:337,1,62.4000020947266,6|0,0:0|0:0,0:0:0:0:
185,267,317618,1,2,0:0:0:0:
364,270,317806,5,12,0:0:0:0:
240,190,317993,1,2,0:0:0:0:
378,280,318181,5,12,0:0:0:0:
225,178,318368,2,0,L|238:40,1,124.800004189453,6|2,0:0|0:0,0:0:0:0:
88,209,318931,5,12,0:0:0:0:
207,276,319118,1,8,0:0:0:0:
208,282,319181,1,2,0:0:0:0:
209,288,319243,1,2,0:0:0:0:
210,294,319306,2,0,L|197:373,1,62.4000020947266,2|2,0:0|0:0,0:0:0:0:
76,193,319681,6,0,P|46:182|1:185,1,62.4000020947266,6|0,0:0|0:0,0:0:0:0:
182,280,320056,2,0,L|265:273,1,62.4000020947266,2|0,0:0|0:0,0:0:0:0:
69,305,320431,2,0,P|54:335|51:371,1,62.4000020947266,8|0,0:0|0:0,0:0:0:0:
291,208,320806,6,0,P|326:263|301:332,1,124.800004189453,2|0,0:0|0:0,0:0:0:0:
155,209,321368,2,0,L|166:66,1,124.800004189453,2|0,0:0|0:0,0:0:0:0:
363,12,321931,2,0,P|324:37|231:19,1,124.800004189453,8|0,0:0|0:0,0:0:0:0:
417,111,322494,1,8,0:0:0:0:
419,101,322587,1,8,0:0:0:0:
421,91,322681,5,2,0:0:0:0:
510,65,322869,1,8,0:0:0:0:
437,188,323056,2,0,L|353:180,1,62.4000020947266,2|0,0:0|0:0,0:0:0:0:
214,158,323431,2,0,L|298:150,1,62.4000020947266,8|0,0:0|0:0,0:0:0:0:
139,215,323806,1,2,0:0:0:0:
142,218,323994,6,0,P|121:269|138:322,1,93.60000314209,2|0,0:0|0:0,0:0:0:0:
194,324,324369,2,0,L|277:317,1,62.4000020947266,8|0,0:0|0:0,0:0:0:0:
323,383,324744,1,2,0:0:0:0:
364,237,324931,2,0,L|495:229,1,124.800004189453,8|0,0:0|0:0,0:0:0:0:
284,138,325494,1,8,0:0:0:0:
278,168,325587,1,8,0:0:0:0:
272,198,325681,6,0,B|288:192|288:192|303:129,1,62.4000020947266,6|0,0:0|0:0,0:0:0:0:
122,183,326056,2,0,P|149:206|178:211,1,62.4000020947266,2|0,0:0|0:0,0:0:0:0:
103,83,326431,2,0,L|17:92,1,62.4000020947266,8|0,0:0|0:0,0:0:0:0:
179,132,326806,1,2,0:0:0:0:
182,135,326994,1,2,0:0:0:0:
44,198,327181,5,0,0:0:0:0:
137,247,327369,1,8,0:0:0:0:
138,256,327463,1,8,0:0:0:0:
139,265,327556,1,2,0:0:0:0:
63,319,327744,1,8,0:0:0:0:
290,349,327931,1,8,0:0:0:0:
212,383,328119,2,0,L|217:244,1,124.800004189453,2|2,0:0|0:0,0:0:0:0:
353,139,328681,6,0,B|327:156|327:156|276:153,1,62.4000020947266,6|0,0:0|0:0,0:0:0:0:
238,79,329056,1,8,0:0:0:0:
414,89,329244,6,0,B|432:119|432:119|429:169,1,62.4000020947266,6|0,0:0|0:0,0:0:0:0:
368,217,329619,1,2,0:0:0:0:
249,65,329807,5,12,0:0:0:0:
195,179,329994,1,10,0:0:0:0:
176,180,330088,1,8,0:0:0:0:
157,181,330182,1,8,0:0:0:0:
138,182,330275,1,8,0:0:0:0:
92,170,330369,5,10,0:0:0:0:
88,188,330463,1,8,0:0:0:0:
84,206,330557,1,8,0:0:0:0:
46,233,330650,5,10,0:0:0:0:
50,251,330744,1,8,0:0:0:0:
54,269,330838,1,8,0:0:0:0:
27,307,330932,5,10,0:0:0:0:
45,307,331025,1,8,0:0:0:0:
64,308,331119,1,8,0:0:0:0:
83,309,331213,1,8,0:0:0:0:
101,310,331307,1,8,0:0:0:0:
120,311,331400,1,8,0:0:0:0:
139,312,331494,5,2,0:0:0:0:
131,318,331588,1,2,0:0:0:0:
96,349,331682,6,0,L|169:352,1,62.4000020947266,6|0,0:0|0:0,0:0:0:0:
306,240,332057,2,0,P|263:258|245:282,1,62.4000020947266,2|0,0:0|0:0,0:0:0:0:
385,355,332432,2,0,L|393:286,1,62.4000020947266,8|0,0:0|0:0,0:0:0:0:
336,128,332807,6,0,P|385:164|448:159,1,124.800004189453,2|0,0:0|0:0,0:0:0:0:
267,46,333369,2,0,L|128:61,1,124.800004189453,2|0,0:0|0:0,0:0:0:0:
32,219,333932,2,0,P|62:182|58:109,1,124.800004189453,8|0,0:0|0:0,0:0:0:0:
147,246,334494,1,8,0:0:0:0:
137,248,334588,1,8,0:0:0:0:
128,250,334682,5,2,0:0:0:0:
178,171,334869,1,8,0:0:0:0:
226,306,335057,2,0,L|298:311,1,62.4000020947266,2|0,0:0|0:0,0:0:0:0:
118,253,335432,2,0,L|47:263,1,62.4000020947266,8|0,0:0|0:0,0:0:0:0:
242,227,335807,1,2,0:0:0:0:
245,230,335994,6,0,P|266:171|252:126,1,93.60000314209,2|0,0:0|0:0,0:0:0:0:
208,97,336369,2,0,L|129:90,1,62.4000020947266,8|0,0:0|0:0,0:0:0:0:
217,88,336744,1,8,0:0:0:0:
70,258,336932,1,8,0:0:0:0:
4,186,337119,2,0,L|138:180,1,124.800004189453,2|2,0:0|0:0,0:0:0:0:
270,284,337682,6,0,P|249:254|245:225,1,62.4000020947266,6|0,0:0|0:0,0:0:0:0:
394,168,338057,2,0,L|378:249,1,62.4000020947266,2|0,0:0|0:0,0:0:0:0:
253,129,338432,2,0,P|284:117|331:116,1,62.4000020947266,8|0,0:0|0:0,0:0:0:0:
316,347,338807,6,0,P|280:322|190:321,1,124.800004189453,2|0,0:0|0:0,0:0:0:0:
383,238,339370,1,8,0:0:0:0:
385,247,339463,1,8,0:0:0:0:
387,256,339557,1,2,0:0:0:0:
468,302,339745,1,8,0:0:0:0:
288,283,339932,1,8,0:0:0:0:
344,163,340120,2,0,L|488:172,1,124.800004189453,2|2,0:0|0:0,0:0:0:0:
280,63,340682,5,14,0:0:0:0:
261,65,340776,1,8,0:0:0:0:
242,67,340870,1,8,0:0:0:0:
223,69,340963,1,8,0:0:0:0:
204,71,341057,1,8,0:0:0:0:
185,73,341151,1,8,0:0:0:0:
153,108,341245,5,14,0:0:0:0:
134,107,341338,1,8,0:0:0:0:
95,80,341432,5,14,0:0:0:0:
106,94,341526,1,8,0:0:0:0:
115,111,341620,1,8,0:0:0:0:
120,129,341714,1,8,0:0:0:0:
121,147,341807,1,8,0:0:0:0:
118,166,341901,1,8,0:0:0:0:
85,199,341995,5,14,0:0:0:0:
103,201,342089,1,8,0:0:0:0:
121,203,342182,1,8,0:0:0:0:
139,205,342276,1,8,0:0:0:0:
157,207,342370,1,8,0:0:0:0:
225,327,342557,5,14,0:0:0:0:
243,325,342651,1,8,0:0:0:0:
261,323,342745,1,8,0:0:0:0:
279,321,342839,1,8,0:0:0:0:
297,319,342932,1,8,0:0:0:0:
386,215,343120,5,14,0:0:0:0:
404,217,343214,1,8,0:0:0:0:
443,241,343307,5,14,0:0:0:0:
445,223,343401,1,8,0:0:0:0:
447,205,343495,1,8,0:0:0:0:
449,187,343589,1,8,0:0:0:0:
454,140,343682,6,0,B|466:152|466:152|461:216,1,62.4000020947266,6|0,0:0|0:0,0:0:0:0:
247,92,344057,2,0,P|275:79|323:79,1,62.4000020947266,2|0,0:0|0:0,0:0:0:0:
197,207,344432,2,0,L|120:198,1,62.4000020947266,8|0,0:0|0:0,0:0:0:0:
372,133,344807,6,0,P|391:86|366:14,1,124.800004189453,2|0,0:0|0:0,0:0:0:0:
214,194,345370,2,0,L|234:323,1,124.800004189453,2|0,0:0|0:0,0:0:0:0:
156,126,345933,2,0,P|124:105|23:108,1,124.800004189453,8|0,0:0|0:0,0:0:0:0:
227,185,346495,1,8,0:0:0:0:
236,183,346589,1,8,0:0:0:0:
245,181,346683,5,2,0:0:0:0:
295,102,346870,1,8,0:0:0:0:
337,248,347058,2,0,L|410:252,1,62.4000020947266,2|0,0:0|0:0,0:0:0:0:
233,317,347433,2,0,P|216:348|215:386,1,62.4000020947266,8|0,0:0|0:0,0:0:0:0:
321,239,347808,6,0,L|306:106,1,124.800004189453,2|0,0:0|0:0,0:0:0:0:
161,93,348370,1,8,0:0:0:0:
162,83,348464,1,8,0:0:0:0:
163,73,348558,1,2,0:0:0:0:
252,44,348745,1,8,0:0:0:0:
90,18,348933,1,8,0:0:0:0:
273,47,349120,2,0,L|346:37,1,62.4000020947266,2|0,0:0|0:0,0:0:0:0:
236,187,349495,1,8,0:0:0:0:
226,186,349589,1,8,0:0:0:0:
216,185,349683,6,0,L|140:176,1,62.4000020947266,6|0,0:0|0:0,0:0:0:0:
37,85,350058,2,0,P|77:103|93:129,1,62.4000020947266,2|0,0:0|0:0,0:0:0:0:
21,242,350433,2,0,L|16:169,1,62.4000020947266,8|0,0:0|0:0,0:0:0:0:
168,303,350808,2,0,P|140:314|91:314,1,62.4000020947266,2|0,0:0|0:0,0:0:0:0:
154,177,351183,5,0,0:0:0:0:
255,270,351370,1,2,0:0:0:0:
258,273,351558,2,0,L|342:266,1,62.4000020947266,2|0,0:0|0:0,0:0:0:0:
178,325,351933,2,0,L|43:317,1,124.800004189453,8|0,0:0|0:0,0:0:0:0:
113,364,352495,1,2,0:0:0:0:
186,255,352683,5,10,0:0:0:0:
204,252,352777,1,8,0:0:0:0:
222,249,352870,1,8,0:0:0:0:
250,212,352964,5,10,0:0:0:0:
268,215,353058,1,8,0:0:0:0:
286,218,353152,1,8,0:0:0:0:
313,256,353245,5,10,0:0:0:0:
305,238,353339,1,8,0:0:0:0:
301,220,353433,1,8,0:0:0:0:
300,202,353527,1,8,0:0:0:0:
303,183,353620,1,8,0:0:0:0:
310,166,353714,1,8,0:0:0:0:
333,124,353808,5,14,0:0:0:0:
314,121,353902,1,8,0:0:0:0:
295,118,353996,1,8,0:0:0:0:
275,76,354089,5,14,0:0:0:0:
256,79,354183,1,8,0:0:0:0:
237,82,354277,1,8,0:0:0:0:
215,123,354371,5,14,0:0:0:0:
196,120,354464,1,8,0:0:0:0:
158,91,354558,5,14,0:0:0:0:
163,108,354652,1,8,0:0:0:0:
165,127,354746,1,8,0:0:0:0:
164,146,354839,1,8,0:0:0:0:
160,164,354933,1,8,0:0:0:0:
154,182,355027,1,8,0:0:0:0:
144,198,355121,5,8,0:0:0:0:
156,198,355214,1,2,0:0:0:0:
168,198,355308,5,2,0:0:0:0:
149,195,355402,1,8,0:0:0:0:
130,192,355496,1,8,0:0:0:0:
111,189,355589,1,8,0:0:0:0:
64,180,355683,6,0,B|82:168|82:168|147:180,1,62.4000020947266,6|0,0:0|0:0,0:0:0:0:
42,321,356058,2,0,P|21:294|15:258,1,62.4000020947266,2|0,0:0|0:0,0:0:0:0:
166,303,356433,2,0,L|152:374,1,62.4000020947266,8|0,0:0|0:0,0:0:0:0:
266,228,356808,6,0,L|253:94,1,124.800004189453,2|0,0:0|0:0,0:0:0:0:
332,292,357371,1,2,0:0:0:0:
335,295,357558,2,0,P|368:309|414:306,1,62.4000020947266,2|0,0:0|0:0,0:0:0:0:
499,144,357933,2,0,P|468:186|489:275,1,124.800004189453,8|0,0:0|0:0,0:0:0:0:
365,126,358496,1,8,0:0:0:0:
374,124,358590,1,8,0:0:0:0:
383,123,358683,5,2,0:0:0:0:
323,51,358871,1,8,0:0:0:0:
278,201,359058,2,0,L|211:204,1,62.4000020947266,2|0,0:0|0:0,0:0:0:0:
87,74,359433,2,0,P|131:95|145:121,1,62.4000020947266,8|0,0:0|0:0,0:0:0:0:
65,279,359808,6,0,L|75:142,1,124.800004189453,2|0,0:0|0:0,0:0:0:0:
176,312,360371,1,8,0:0:0:0:
166,313,360465,1,8,0:0:0:0:
156,314,360558,1,2,0:0:0:0:
192,228,360746,1,8,0:0:0:0:
248,379,360933,1,8,0:0:0:0:
294,303,361121,2,0,L|433:297,1,124.800004189453,2|2,0:0|0:0,0:0:0:0:
175,217,361684,6,0,P|162:191|167:146,1,62.4000020947266,6|0,0:0|0:0,0:0:0:0:
290,89,362059,2,0,P|258:111|223:115,1,62.4000020947266,2|0,0:0|0:0,0:0:0:0:
85,56,362434,2,0,L|162:61,1,62.4000020947266,8|0,0:0|0:0,0:0:0:0:
361,141,362809,6,0,P|335:103|344:12,1,124.800004189453,2|0,0:0|0:0,0:0:0:0:
496,172,363371,1,2,0:0:0:0:
499,175,363559,2,0,L|417:185,1,62.4000020947266,2|0,0:0|0:0,0:0:0:0:
226,209,363934,2,0,L|365:216,1,124.800004189453,8|0,0:0|0:0,0:0:0:0:
290,166,364496,1,2,0:0:0:0:
216,317,364684,6,0,L|134:323,1,62.4000020947266,2|0,0:0|0:0,0:0:0:0:
292,241,365059,2,0,L|374:247,1,62.4000020947266,2|0,0:0|0:0,0:0:0:0:
206,200,365434,2,0,P|190:170|190:133,1,62.4000020947266,8|0,0:0|0:0,0:0:0:0:
329,84,365809,2,0,L|325:156,1,62.4000020947266
415,285,366184,5,14,0:0:0:0:
396,282,366278,1,8,0:0:0:0:
377,284,366371,1,8,0:0:0:0:
359,290,366465,1,8,0:0:0:0:
343,300,366559,1,8,0:0:0:0:
330,313,366653,1,8,0:0:0:0:
320,329,366746,5,2,0:0:0:0:
318,319,366840,1,2,0:0:0:0:
289,332,366934,5,8,0:0:0:0:
287,322,367028,1,2,0:0:0:0:
259,335,367121,5,8,0:0:0:0:
257,325,367215,1,2,0:0:0:0:
255,315,367309,1,2,0:0:0:0:
253,305,367403,1,2,0:0:0:0:
251,295,367496,1,2,0:0:0:0:
249,285,367590,1,2,0:0:0:0:
242,242,367684,5,6,0:0:0:0:
