osu file format v14

[General]
AudioFilename: audio.mp3
AudioLeadIn: 0
PreviewTime: 278589
Countdown: 0
SampleSet: Soft
StackLeniency: 0.2
Mode: 0
LetterboxInBreaks: 0
WidescreenStoryboard: 1

[Editor]
Bookmarks: 416679
DistanceSpacing: 0.7
BeatDivisor: 8
GridSize: 32
TimelineZoom: 3.399999

[Metadata]
Title:The Silent Life
TitleUnicode:The Silent Life
Artist:Rivers of Nihil
ArtistUnicode:Rivers of Nihil
Creator:OlmyBootycheeks
Version:Home
Source:
Tags:
BeatmapID:1932685
BeatmapSetID:925208

[Difficulty]
HPDrainRate:5
CircleSize:4
OverallDifficulty:9
ApproachRate:9.6
SliderMultiplier:2
SliderTickRate:1

[Events]
//Background and Video events
0,0,"yfallsnight.jpg",0,0
//Break Periods
2,40021,47712
2,49621,57312
2,68821,76512
2,273164,291670
//Storyboard Layer 0 (Background)
//Storyboard Layer 1 (Fail)
//Storyboard Layer 2 (Pass)
//Storyboard Layer 3 (Foreground)
//Storyboard Sound Samples

[TimingPoints]
221,600,4,2,0,5,1,0
221,-200,4,2,0,5,0,0
104964,300,4,2,1,30,1,0
104964,-71.4285714285714,4,2,1,30,0,0
113364,-125,4,2,1,30,0,0
114564,-125,4,2,1,30,0,1
124164,-100,4,2,1,30,0,0
133764,-166.666666666667,4,2,1,30,0,0
147564,-83.3333333333333,4,2,1,30,0,0
148164,-125,4,2,1,30,0,1
149964,-111.111111111111,4,2,1,30,0,1
150564,-100,4,2,1,30,0,1
151164,-90.9090909090909,4,2,1,30,0,1
151764,-83.3333333333333,4,2,1,30,0,1
152364,-166.666666666667,4,2,1,30,0,0
162564,-100,4,2,1,30,0,0
167364,-166.666666666667,4,2,1,30,0,0
172164,-83.3333333333333,4,2,1,30,0,1
176964,-125,4,2,1,30,0,0
179364,-83.3333333333333,4,2,1,30,0,1
180264,-71.4285714285714,4,2,1,30,0,0
180864,-62.5,4,2,1,30,0,0
181764,-83.3333333333334,4,2,1,30,0,1
186564,-125,4,2,1,30,0,0
191364,-83.3333333333333,4,2,1,30,0,1
193764,-125,4,2,1,30,0,1
196164,-83.3333333333333,4,2,1,30,0,1
203364,-125,4,2,1,30,0,1
205764,-83.3333333333333,4,2,1,30,0,1
210564,-83.3333333333333,4,2,1,30,0,1
215964,-125,4,2,1,30,0,1
216564,-83.3333333333333,4,2,1,30,0,1
219864,-125,4,2,1,30,0,1
220164,-83.3333333333333,4,2,1,30,0,1
227364,-125,4,2,1,30,0,1
229764,-125,4,2,1,30,0,0
243564,-83.3333333333333,4,2,1,30,0,0
244164,-125,4,2,1,30,0,0
257364,-100,4,2,1,30,0,0
258564,-100,4,2,1,30,0,0
263364,-166.666666666667,4,2,1,30,0,0
266064,-100,4,2,1,30,0,0
268464,-166.666666666667,4,2,1,30,0,0
269101,-166.666666666667,4,2,1,30,0,0
292179,300,4,2,1,30,1,0
292179,-166.666666666667,4,2,1,30,0,0
304479,-166.666666666667,4,2,1,30,0,0
306279,-100,4,2,1,30,0,0
306879,-166.666666666667,4,2,1,30,0,0
307179,-100,4,2,1,30,0,0
307479,-166.666666666667,4,2,1,30,0,0
307779,-100,4,2,1,30,0,0
313479,-125,4,2,1,30,0,0
315279,-100,4,2,1,30,0,0
320679,-100,4,2,1,30,0,0
335679,-166.666666666667,4,2,1,30,0,0
335979,-100,4,2,1,30,0,0
336279,-125,4,2,1,30,0,0
354879,-100,4,2,1,30,0,0
361779,-83.3333333333333,4,2,1,30,0,0
363579,-166.666666666667,4,2,1,30,0,0
363879,-83.3333333333333,4,2,1,30,0,1
367479,-125,4,2,1,30,0,0
371079,-83.3333333333333,4,2,1,30,0,1
374679,-125,4,2,1,30,0,0
378279,-83.3333333333333,4,2,1,30,0,1
381879,-125,4,2,1,30,0,0
385479,-83.3333333333333,4,2,1,30,0,1
389079,-125,4,2,1,30,0,0
392679,-125,4,2,1,30,0,1
398079,-100,4,2,1,30,0,1
399879,-125,4,2,1,30,0,1
401229,-83.3333333333333,4,2,1,30,0,1
402129,-125,4,2,1,30,0,1
402579,-100,4,2,1,30,0,1
405279,-166.666666666667,4,2,1,30,0,1
407079,-125,4,2,1,30,0,0
430479,-71.4285714285714,4,2,1,30,0,0
431079,-125,4,2,1,30,0,0
435879,-125,4,2,1,30,0,1
440679,-71.4285714285714,4,2,1,30,0,1
440979,-125,4,2,1,30,0,1
445479,-100,4,2,1,30,0,0
450279,-166.666666666667,4,2,1,30,0,0
455079,-71.4285714285714,4,2,1,30,0,1
456579,-100,4,2,1,30,0,1
459879,-71.4285714285714,4,2,1,30,0,1
466179,-100,4,2,1,30,0,1
468279,-71.4285714285714,4,2,1,30,0,1
474279,-83.3333333333333,4,2,1,30,0,0
479079,-125,4,2,1,30,0,0
483879,-83.3333333333333,4,2,1,30,0,0
494679,-100,4,2,1,30,0,0

[Colours]
Combo1 : 74,15,140
Combo2 : 89,132,0
Combo3 : 47,0,47
Combo4 : 34,43,0

[HitObjects]
117,207,221,6,0,B|212:217|259:170|259:170|266:298|417:330|494:181|494:181|381:165|346:76|346:76|346:240|221:287|221:287|114:328|25:300|25:300|57:227|29:154|29:154|66:117|124:106,1,1400,2|2,0:0|0:0,0:0:0:0:
94,63,9821,6,0,B|72:173|132:329|132:329|225:103|366:113|458:208|458:208|307:338|307:338|376:214|292:48|292:48|385:0|478:84|478:84,1,1400,2|2,0:0|0:0,0:0:0:0:
105,100,19421,5,4,0:0:0:0:
111,119,20621,1,0,0:0:0:0:
117,138,21821,1,0,0:0:0:0:
123,157,23021,1,0,0:0:0:0:
129,176,24221,1,0,0:0:0:0:
135,195,25421,1,0,0:0:0:0:
141,214,26621,1,0,0:0:0:0:
147,233,27821,1,0,0:0:0:0:
407,284,29021,5,4,0:0:0:0:
401,265,30221,1,0,0:0:0:0:
395,246,31421,1,0,0:0:0:0:
389,227,32621,1,0,0:0:0:0:
383,208,33821,1,0,0:0:0:0:
377,189,35021,1,0,0:0:0:0:
371,170,36221,1,0,0:0:0:0:
365,151,37421,1,0,0:0:0:0:
47,204,38621,5,0,0:0:0:0:
170,290,38921,1,0,0:0:0:0:
318,156,39221,1,0,0:0:0:0:
170,157,39521,1,0,0:0:0:0:
120,18,39821,1,0,0:0:0:0:
43,190,48221,5,0,0:0:0:0:
171,80,48521,1,0,0:0:0:0:
94,121,48821,1,0,0:0:0:0:
258,75,49121,1,0,0:0:0:0:
215,240,49421,1,0,0:0:0:0:
131,127,57821,5,0,0:0:0:0:
177,269,58121,1,0,0:0:0:0:
220,157,58421,1,0,0:0:0:0:
360,207,58721,1,0,0:0:0:0:
304,100,59021,1,0,0:0:0:0:
165,169,60221,6,0,P|210:116|211:253,1,350,2|0,0:0|0:0,0:0:0:0:
110,141,62621,6,0,P|198:40|233:186,1,350,2|0,0:0|0:0,0:0:0:0:
293,240,65021,6,0,P|345:157|336:57,1,200,2|0,0:0|0:0,0:0:0:0:
336,58,66821,5,0,0:0:0:0:
125,90,67421,5,0,0:0:0:0:
247,175,67721,1,0,0:0:0:0:
233,323,68021,1,0,0:0:0:0:
111,238,68321,1,0,0:0:0:0:
212,94,68621,1,0,0:0:0:0:
255,191,77021,5,4,0:0:0:0:
255,191,78221,1,0,0:0:0:0:
255,191,79421,1,0,0:0:0:0:
255,191,80621,1,0,0:0:0:0:
255,191,81821,1,0,0:0:0:0:
255,191,83021,1,0,0:0:0:0:
255,191,84221,1,0,0:0:0:0:
255,191,85421,1,0,0:0:0:0:
95,319,86621,5,4,0:0:0:0:
416,259,87821,1,0,0:0:0:0:
95,319,89021,1,0,0:0:0:0:
416,259,90221,1,0,0:0:0:0:
95,319,91421,1,0,0:0:0:0:
416,259,92621,1,0,0:0:0:0:
95,319,93821,1,0,0:0:0:0:
416,259,95021,1,0,0:0:0:0:
255,37,96221,5,2,0:0:0:0:
256,192,99221,12,0,104771,0:0:0:0:
282,285,104964,6,2,P|333:237|342:136,1,139.999995727539,10|2,0:0|0:0,0:0:0:0:
159,159,105264,2,2,P|108:206|99:307,1,139.999995727539,10|2,0:0|0:0,0:0:0:0:
310,98,105564,6,2,L|457:58,1,139.999995727539,10|2,0:0|0:0,0:0:0:0:
227,237,105864,2,2,L|79:276,1,139.999995727539,10|2,0:0|0:0,0:0:0:0:
315,269,106164,6,2,P|306:206|255:142,1,139.999995727539,10|2,0:0|0:0,0:0:0:0:
120,145,106464,2,2,P|128:207|179:271,1,139.999995727539,10|2,0:0|0:0,0:0:0:0:
326,85,106764,6,2,L|169:45,1,139.999995727539
367,208,107064,2,2,L|524:248,1,139.999995727539
406,121,107364,6,2,P|338:132|284:175,1,139.999995727539,10|2,0:0|0:0,0:0:0:0:
282,316,107665,2,2,P|351:305|405:262,1,139.999995727539,10|2,0:0|0:0,0:0:0:0:
168,250,107964,6,2,L|20:224,1,139.999995727539,10|2,0:0|0:0,0:0:0:0:
266,250,108264,2,2,L|414:224,1,139.999995727539,10|2,0:0|0:0,0:0:0:0:
491,82,108564,5,8,0:0:0:0:
329,37,108714,1,2,0:0:0:0:
363,201,108864,5,8,0:0:0:0:
352,191,109014,1,2,0:0:0:0:
183,70,109164,1,8,0:0:0:0:
194,78,109314,1,2,0:0:0:0:
227,187,109464,2,2,L|275:324,1,139.999995727539
404,354,109764,6,2,P|422:289|370:205,1,139.999995727539,10|2,0:0|0:0,0:0:0:0:
291,92,110064,2,2,P|263:155|281:221,1,139.999995727539
416,58,110364,6,2,L|266:17,1,139.999995727539,10|2,0:0|0:0,0:0:0:0:
87,104,110664,2,2,L|236:144,1,139.999995727539,10|2,0:0|0:0,0:0:0:0:
409,234,110964,6,2,P|371:281|272:293,1,139.999995727539,10|2,0:0|0:0,0:0:0:0:
177,222,111264,2,2,P|215:175|314:163,1,139.999995727539,10|2,0:0|0:0,0:0:0:0:
464,299,111564,6,2,L|343:380,1,139.999995727539,10|2,0:0|0:0,0:0:0:0:
123,349,111864,2,2,L|239:271,1,139.999995727539,10|2,0:0|0:0,0:0:0:0:
310,130,112164,5,8,0:0:0:0:
369,287,112314,1,2,0:0:0:0:
426,41,112464,1,8,0:0:0:0:
485,198,112614,1,2,0:0:0:0:
297,125,112764,5,8,0:0:0:0:
365,305,112914,1,2,0:0:0:0:
430,25,113064,1,8,0:0:0:0:
498,203,113214,1,2,0:0:0:0:
286,121,113364,5,4,0:0:0:0:
266,126,113439,1,0,0:0:0:0:
246,127,113514,1,0,0:0:0:0:
232,123,113589,1,0,0:0:0:0:
216,110,113664,1,0,0:0:0:0:
201,108,113739,1,0,0:0:0:0:
186,111,113814,1,0,0:0:0:0:
172,117,113889,1,0,0:0:0:0:
153,112,113964,5,8,0:0:0:0:
163,160,114039,1,0,0:0:0:0:
173,209,114114,1,0,0:0:0:0:
184,258,114189,1,0,0:0:0:0:
180,291,114264,6,0,B|168:287|168:287|137:305,3,40
316,333,114564,5,8,0:0:0:0:
306,277,114639,1,0,0:0:0:0:
297,222,114714,1,0,0:0:0:0:
288,167,114789,1,0,0:0:0:0:
295,132,114864,2,0,B|305:142|305:142|348:133,3,40,8|0|0|0,0:0|0:0|0:0|0:0,0:0:0:0:
206,82,115164,5,8,0:0:0:0:
175,71,115239,1,0,0:0:0:0:
144,75,115314,1,0,0:0:0:0:
116,91,115389,1,0,0:0:0:0:
98,117,115464,1,0,0:0:0:0:
92,148,115539,1,0,0:0:0:0:
100,179,115614,1,0,0:0:0:0:
120,204,115689,1,0,0:0:0:0:
151,216,115764,5,8,0:0:0:0:
157,239,115839,1,0,0:0:0:0:
157,262,115914,1,0,0:0:0:0:
150,285,115989,1,0,0:0:0:0:
142,312,116064,1,0,0:0:0:0:
181,293,116139,1,0,0:0:0:0:
224,286,116214,1,0,0:0:0:0:
268,292,116289,1,0,0:0:0:0:
346,292,116364,6,2,L|404:288,1,40
323,202,116514,2,2,L|265:198,1,40
125,157,116664,6,2,L|164:159,1,40
227,67,116814,2,2,L|187:69,1,40
50,68,116964,6,0,L|46:109,3,40,8|0|0|0,0:0|0:0|0:0|0:0,0:0:0:0:
162,307,117264,2,0,L|166:348,3,40,8|0|0|0,0:0|0:0|0:0|0:0,0:0:0:0:
263,134,117564,6,0,L|266:94,3,40,8|0|0|0,0:0|0:0|0:0|0:0,0:0:0:0:
427,332,117864,2,0,L|423:292,3,40,8|0|0|0,0:0|0:0|0:0|0:0,0:0:0:0:
328,286,118164,5,12,0:0:0:0:
282,310,118239,1,0,0:0:0:0:
231,311,118314,1,0,0:0:0:0:
185,288,118389,1,0,0:0:0:0:
163,255,118464,1,0,0:0:0:0:
126,241,118539,1,0,0:0:0:0:
87,250,118614,1,0,0:0:0:0:
60,278,118689,1,0,0:0:0:0:
24,295,118764,5,8,0:0:0:0:
52,247,118839,1,0,0:0:0:0:
60,192,118914,1,0,0:0:0:0:
45,138,118989,1,0,0:0:0:0:
22,86,119064,1,0,0:0:0:0:
28,31,119139,1,0,0:0:0:0:
67,0,119214,1,0,0:0:0:0:
121,0,119289,1,0,0:0:0:0:
156,17,119364,6,0,B|164:31|164:31|162:73,3,40,8|0|0|0,0:0|0:0|0:0|0:0,0:0:0:0:
157,143,119664,2,0,B|156:159|156:159|134:194,3,40
72,76,119964,2,0,B|72:92|72:92|94:127,3,40,8|0|0|0,0:0|0:0|0:0|0:0,0:0:0:0:
60,194,120264,2,0,B|61:210|61:210|83:245,3,40
151,334,120564,5,8,0:0:0:0:
188,345,120639,1,0,0:0:0:0:
227,337,120714,1,0,0:0:0:0:
256,311,120789,1,0,0:0:0:0:
269,273,120864,1,0,0:0:0:0:
261,234,120939,1,0,0:0:0:0:
235,205,121014,1,0,0:0:0:0:
198,192,121089,1,0,0:0:0:0:
160,205,121164,1,2,0:0:0:0:
120,207,121239,1,0,0:0:0:0:
86,188,121314,1,0,0:0:0:0:
67,153,121389,1,0,0:0:0:0:
70,114,121464,1,0,0:0:0:0:
93,82,121539,1,0,0:0:0:0:
129,67,121614,1,0,0:0:0:0:
168,74,121689,1,0,0:0:0:0:
199,68,121764,5,8,0:0:0:0:
196,99,121839,1,0,0:0:0:0:
193,131,121914,1,0,0:0:0:0:
189,163,121989,1,0,0:0:0:0:
186,195,122064,1,0,0:0:0:0:
183,227,122139,1,0,0:0:0:0:
179,258,122214,1,0,0:0:0:0:
176,290,122289,1,0,0:0:0:0:
191,328,122364,5,8,0:0:0:0:
207,300,122439,1,0,0:0:0:0:
233,283,122514,1,0,0:0:0:0:
265,277,122589,1,0,0:0:0:0:
295,285,122664,1,0,0:0:0:0:
325,298,122739,1,0,0:0:0:0:
355,309,122814,1,0,0:0:0:0:
386,305,122889,1,0,0:0:0:0:
413,299,122964,6,0,P|435:288|451:271,3,40
428,198,123264,2,0,P|406:209|390:226,3,40
325,227,123564,5,8,0:0:0:0:
334,175,123639,1,0,0:0:0:0:
344,124,123714,1,0,0:0:0:0:
354,73,123789,1,0,0:0:0:0:
347,38,123864,5,0,0:0:0:0:
330,54,123939,1,0,0:0:0:0:
308,66,124014,1,0,0:0:0:0:
285,70,124089,1,0,0:0:0:0:
261,68,124164,1,4,0:0:0:0:
134,213,127764,5,8,0:0:0:0:
149,165,127839,1,0,0:0:0:0:
165,118,127914,1,0,0:0:0:0:
282,187,128064,5,8,0:0:0:0:
297,139,128139,1,0,0:0:0:0:
313,92,128214,1,0,0:0:0:0:
448,41,128364,5,8,0:0:0:0:
100,318,128664,5,0,0:0:0:0:
97,285,128964,1,4,0:0:0:0:
125,266,132564,5,8,0:0:0:0:
154,261,132639,1,0,0:0:0:0:
177,242,132714,1,0,0:0:0:0:
189,215,132789,1,0,0:0:0:0:
181,181,132864,1,8,0:0:0:0:
209,189,132939,1,0,0:0:0:0:
238,197,133014,1,0,0:0:0:0:
267,205,133089,1,0,0:0:0:0:
339,226,133164,5,4,0:0:0:0:
176,338,133764,5,12,0:0:0:0:
170,308,133839,1,0,0:0:0:0:
165,278,133914,1,0,0:0:0:0:
159,249,133989,1,0,0:0:0:0:
154,219,134064,1,0,0:0:0:0:
149,190,134139,1,0,0:0:0:0:
143,160,134214,1,0,0:0:0:0:
138,131,134289,1,0,0:0:0:0:
133,100,134364,2,0,L|127:69,3,29.9999990844727
263,34,134664,6,0,B|257:38|257:38|252:64,3,29.9999990844727,4|0|0|0,0:0|0:0|0:0|0:0,0:0:0:0:
227,159,134964,5,8,0:0:0:0:
221,193,135039,1,0,0:0:0:0:
235,226,135114,1,0,0:0:0:0:
266,244,135189,1,0,0:0:0:0:
301,242,135264,1,0,0:0:0:0:
329,220,135339,1,0,0:0:0:0:
340,187,135414,1,0,0:0:0:0:
340,151,135489,1,0,0:0:0:0:
318,122,135564,5,8,0:0:0:0:
305,89,135639,1,0,0:0:0:0:
311,53,135714,1,0,0:0:0:0:
335,28,135789,1,0,0:0:0:0:
369,16,135864,1,0,0:0:0:0:
404,24,135939,1,0,0:0:0:0:
430,50,136014,1,0,0:0:0:0:
438,84,136089,1,0,0:0:0:0:
440,122,136164,5,8,0:0:0:0:
417,113,136239,1,0,0:0:0:0:
393,112,136314,1,0,0:0:0:0:
371,120,136389,1,0,0:0:0:0:
350,132,136464,2,0,P|336:139|311:137,3,29.9999990844727,8|0|0|0,0:0|0:0|0:0|0:0,0:0:0:0:
231,97,136764,5,8,0:0:0:0:
217,123,136839,1,0,0:0:0:0:
214,153,136914,1,0,0:0:0:0:
224,181,136989,1,0,0:0:0:0:
235,209,137064,1,0,0:0:0:0:
245,237,137139,1,0,0:0:0:0:
242,267,137214,1,0,0:0:0:0:
225,291,137289,1,0,0:0:0:0:
210,317,137364,6,0,P|205:333|204:349,3,29.9999990844727,8|0|0|0,0:0|0:0|0:0|0:0,0:0:0:0:
101,262,137664,2,0,P|106:278|107:294,3,29.9999990844727,8|0|0|0,0:0|0:0|0:0|0:0,0:0:0:0:
174,193,137964,5,12,0:0:0:0:
204,169,138039,1,0,0:0:0:0:
220,134,138114,1,0,0:0:0:0:
216,95,138189,1,0,0:0:0:0:
207,56,138264,2,0,P|202:39|205:17,3,29.9999990844727,4|0|0|0,0:0|0:0|0:0|0:0,0:0:0:0:
329,49,138564,5,8,0:0:0:0:
331,78,138639,1,0,0:0:0:0:
333,108,138714,1,0,0:0:0:0:
335,138,138789,1,0,0:0:0:0:
337,168,138864,1,0,0:0:0:0:
339,198,138939,1,0,0:0:0:0:
342,228,139014,1,0,0:0:0:0:
344,258,139089,1,0,0:0:0:0:
348,288,139164,5,12,0:0:0:0:
331,275,139239,1,0,0:0:0:0:
311,268,139314,1,0,0:0:0:0:
290,267,139389,1,0,0:0:0:0:
270,271,139464,2,0,P|250:278|230:277,3,29.9999990844727,4|0|0|0,0:0|0:0|0:0|0:0,0:0:0:0:
238,205,139764,5,8,0:0:0:0:
258,183,139839,1,0,0:0:0:0:
267,155,139914,1,0,0:0:0:0:
262,125,139989,1,0,0:0:0:0:
246,101,140064,1,0,0:0:0:0:
220,86,140139,1,0,0:0:0:0:
190,84,140214,1,0,0:0:0:0:
163,96,140289,1,0,0:0:0:0:
148,122,140364,5,8,0:0:0:0:
122,137,140439,1,0,0:0:0:0:
93,137,140514,1,0,0:0:0:0:
68,121,140589,1,0,0:0:0:0:
57,93,140664,1,0,0:0:0:0:
61,64,140739,1,0,0:0:0:0:
81,42,140814,1,0,0:0:0:0:
110,35,140889,1,0,0:0:0:0:
138,24,140964,5,8,0:0:0:0:
134,62,141039,1,0,0:0:0:0:
130,101,141114,1,0,0:0:0:0:
127,140,141189,1,0,0:0:0:0:
124,178,141264,6,0,L|122:218,3,29.9999990844727,4|0|0|0,0:0|0:0|0:0|0:0,0:0:0:0:
193,299,141564,6,0,P|184:311|171:319,3,29.9999990844727,8|0|0|0,0:0|0:0|0:0|0:0,0:0:0:0:
33,295,141863,2,0,P|41:282|54:274,3,29.9999990844727,8|0|0|0,0:0|0:0|0:0|0:0,0:0:0:0:
132,205,142164,5,12,0:0:0:0:
155,185,142239,1,0,0:0:0:0:
178,166,142314,1,0,0:0:0:0:
201,147,142389,1,0,0:0:0:0:
212,116,142464,6,0,P|219:97|216:82,3,29.9999990844727,4|0|0|0,0:0|0:0|0:0|0:0,0:0:0:0:
322,60,142764,5,0,0:0:0:0:
343,80,142839,1,0,0:0:0:0:
365,101,142914,1,0,0:0:0:0:
386,122,142989,1,0,0:0:0:0:
419,134,143064,6,0,P|433:136|448:132,3,29.9999990844727,4|0|0|0,0:0|0:0|0:0|0:0,0:0:0:0:
354,279,143364,6,0,B|370:290|370:290|386:291,3,29.9999990844727,8|0|0|0,0:0|0:0|0:0|0:0,0:0:0:0:
227,277,143664,2,0,B|210:276|210:276|194:264,3,29.9999990844727,8|0|0|0,0:0|0:0|0:0|0:0,0:0:0:0:
97,332,143964,5,8,0:0:0:0:
90,281,144039,1,0,0:0:0:0:
84,230,144114,1,0,0:0:0:0:
78,180,144189,1,0,0:0:0:0:
70,129,144264,2,0,L|65:93,3,29.9999990844727,4|0|4|0,0:0|0:0|0:0|0:0,0:0:0:0:
191,142,144564,5,8,0:0:0:0:
202,114,144639,1,0,0:0:0:0:
226,97,144714,1,0,0:0:0:0:
255,94,144789,1,0,0:0:0:0:
281,108,144864,1,0,0:0:0:0:
296,133,144939,1,0,0:0:0:0:
296,163,145014,1,0,0:0:0:0:
280,188,145089,1,0,0:0:0:0:
254,204,145164,5,8,0:0:0:0:
233,225,145239,1,0,0:0:0:0:
224,253,145314,1,0,0:0:0:0:
228,282,145389,1,0,0:0:0:0:
246,306,145464,1,0,0:0:0:0:
273,320,145539,1,0,0:0:0:0:
302,320,145614,1,0,0:0:0:0:
329,306,145689,1,0,0:0:0:0:
352,306,145764,5,8,0:0:0:0:
339,278,145839,1,0,0:0:0:0:
338,249,145914,1,0,0:0:0:0:
350,221,145989,1,0,0:0:0:0:
361,193,146064,2,0,P|371:176|372:156,3,29.9999990844727,4|0|0|0,0:0|0:0|0:0|0:0,0:0:0:0:
426,65,146364,5,8,0:0:0:0:
396,68,146439,1,0,0:0:0:0:
366,71,146514,1,0,0:0:0:0:
336,74,146589,1,0,0:0:0:0:
306,77,146664,1,0,0:0:0:0:
276,80,146739,1,0,0:0:0:0:
247,84,146814,1,0,0:0:0:0:
217,87,146889,1,0,0:0:0:0:
187,84,146964,5,8,0:0:0:0:
196,115,147039,1,0,0:0:0:0:
189,147,147114,1,0,0:0:0:0:
169,173,147189,1,0,0:0:0:0:
159,204,147264,1,0,0:0:0:0:
149,235,147339,1,0,0:0:0:0:
156,267,147414,1,0,0:0:0:0:
176,293,147489,1,0,0:0:0:0:
200,314,147564,6,2,B|223:327|223:327|273:319|308:288|308:288|341:281|372:300,1,179.999994506836,4|0,0:0|0:0,0:0:0:0:
449,307,147864,2,2,B|456:276|443:255|443:255|497:195|465:131,1,179.999994506836,4|0,0:0|0:0,0:0:0:0:
426,53,148164,5,12,0:0:0:0:
389,29,148239,1,0,0:0:0:0:
346,23,148314,1,0,0:0:0:0:
305,37,148389,1,0,0:0:0:0:
274,68,148464,1,0,0:0:0:0:
260,109,148539,1,0,0:0:0:0:
266,153,148614,1,0,0:0:0:0:
290,189,148689,1,0,0:0:0:0:
326,214,148764,5,8,0:0:0:0:
282,214,148839,1,0,0:0:0:0:
238,219,148914,1,0,0:0:0:0:
195,227,148989,1,0,0:0:0:0:
152,239,149064,1,0,0:0:0:0:
112,254,149139,1,0,0:0:0:0:
71,241,149214,1,0,0:0:0:0:
47,205,149289,1,0,0:0:0:0:
46,161,149364,6,0,B|69:148|69:148|76:119,3,40,8|0|0|0,0:0|0:0|0:0|0:0,0:0:0:0:
37,33,149664,2,0,B|14:46|14:46|7:75,3,40
166,344,149964,6,0,B|140:336|140:336|122:316,3,44.999998626709,8|0|0|0,0:0|0:0|0:0|0:0,0:0:0:0:
71,179,150264,2,0,B|97:187|97:187|115:207,3,44.999998626709
315,328,150564,6,0,B|294:306|294:306|291:268,3,50,8|0|0|0,0:0|0:0|0:0|0:0,0:0:0:0:
365,126,150864,2,0,B|385:147|385:147|388:185,3,50
210,161,151164,6,0,B|243:156|243:156|270:132,3,55.0000016784668,8|0|0|0,0:0|0:0|0:0|0:0,0:0:0:0:
392,28,151464,2,0,B|360:32|360:32|333:56,3,55.0000016784668
226,54,151764,5,8,0:0:0:0:
143,92,151864,1,0,0:0:0:0:
66,128,151964,1,0,0:0:0:0:
159,104,152064,5,0,0:0:0:0:
267,163,152164,1,0,0:0:0:0:
381,100,152264,1,0,0:0:0:0:
311,271,152364,5,4,0:0:0:0:
110,326,152964,5,12,0:0:0:0:
115,302,153039,1,0,0:0:0:0:
120,279,153114,1,0,0:0:0:0:
126,255,153189,1,0,0:0:0:0:
131,232,153264,1,0,0:0:0:0:
137,209,153339,1,0,0:0:0:0:
142,185,153414,1,0,0:0:0:0:
147,162,153489,1,0,0:0:0:0:
146,132,153564,5,8,0:0:0:0:
172,145,153639,1,0,0:0:0:0:
202,148,153714,1,0,0:0:0:0:
231,141,153789,1,0,0:0:0:0:
260,133,153864,2,0,P|277:128|292:127,3,29.9999990844727,4|0|0|0,0:0|0:0|0:0|0:0,0:0:0:0:
380,76,154164,5,8,0:0:0:0:
372,98,154239,1,0,0:0:0:0:
369,122,154314,1,0,0:0:0:0:
369,146,154389,1,0,0:0:0:0:
373,170,154464,1,0,0:0:0:0:
381,192,154539,1,0,0:0:0:0:
393,213,154614,1,0,0:0:0:0:
408,232,154689,1,0,0:0:0:0:
432,249,154764,5,8,0:0:0:0:
418,269,154839,1,0,0:0:0:0:
401,285,154914,1,0,0:0:0:0:
380,296,154989,1,0,0:0:0:0:
356,302,155064,1,0,0:0:0:0:
333,302,155139,1,0,0:0:0:0:
309,296,155214,1,0,0:0:0:0:
288,284,155289,1,0,0:0:0:0:
271,268,155364,2,0,P|256:259|239:256,3,29.9999990844727,8|0|0|0,0:0|0:0|0:0|0:0,0:0:0:0:
346,215,155664,5,8,0:0:0:0:
373,184,155739,1,0,0:0:0:0:
382,143,155814,1,0,0:0:0:0:
369,103,155889,1,0,0:0:0:0:
338,76,155964,1,0,0:0:0:0:
298,67,156039,1,0,0:0:0:0:
258,80,156114,1,0,0:0:0:0:
230,110,156189,1,0,0:0:0:0:
203,143,156264,1,0,0:0:0:0:
169,166,156339,1,0,0:0:0:0:
128,171,156414,1,0,0:0:0:0:
89,155,156489,1,0,0:0:0:0:
62,131,156564,5,8,0:0:0:0:
65,184,156639,1,0,0:0:0:0:
69,238,156714,1,0,0:0:0:0:
73,292,156789,1,0,0:0:0:0:
92,340,156864,1,0,0:0:0:0:
140,362,156939,1,0,0:0:0:0:
190,346,157014,1,0,0:0:0:0:
214,299,157089,1,0,0:0:0:0:
213,221,157164,5,8,0:0:0:0:
211,202,157464,1,4,0:0:0:0:
82,77,157764,5,8,0:0:0:0:
84,94,157839,1,0,0:0:0:0:
86,112,157914,1,0,0:0:0:0:
88,130,157989,1,0,0:0:0:0:
88,148,158064,1,12,0:0:0:0:
122,124,158139,1,0,0:0:0:0:
163,117,158214,1,0,0:0:0:0:
203,128,158289,1,0,0:0:0:0:
241,146,158364,1,0,0:0:0:0:
280,162,158439,1,0,0:0:0:0:
322,163,158514,1,0,0:0:0:0:
360,147,158589,1,0,0:0:0:0:
396,125,158664,5,8,0:0:0:0:
388,151,158739,1,0,0:0:0:0:
390,178,158814,1,0,0:0:0:0:
400,203,158889,1,0,0:0:0:0:
412,226,158964,1,0,0:0:0:0:
429,263,159039,1,0,0:0:0:0:
427,305,159114,1,0,0:0:0:0:
406,341,159189,1,0,0:0:0:0:
371,363,159264,1,0,0:0:0:0:
330,367,159339,1,0,0:0:0:0:
291,350,159414,1,0,0:0:0:0:
265,319,159489,1,0,0:0:0:0:
262,295,159564,6,0,B|272:294|272:294|288:280,3,29.9999990844727,8|0|0|0,0:0|0:0|0:0|0:0,0:0:0:0:
257,193,159864,2,0,B|247:194|247:194|231:208,3,29.9999990844727,8|0|0|0,0:0|0:0|0:0|0:0,0:0:0:0:
125,232,160164,5,8,0:0:0:0:
121,227,160239,1,0,0:0:0:0:
117,223,160314,1,0,0:0:0:0:
113,218,160389,1,0,0:0:0:0:
109,214,160464,1,0,0:0:0:0:
105,209,160539,1,0,0:0:0:0:
101,205,160614,1,0,0:0:0:0:
97,200,160689,1,0,0:0:0:0:
99,189,160764,6,0,B|102:179|102:179|130:172,3,29.9999990844727,12|0|0|0,0:0|0:0|0:0|0:0,0:0:0:0:
173,117,161064,1,0,0:0:0:0:
187,112,161139,1,0,0:0:0:0:
201,108,161214,1,0,0:0:0:0:
216,104,161289,1,0,0:0:0:0:
230,100,161364,5,8,0:0:0:0:
237,137,161439,1,0,0:0:0:0:
261,167,161514,1,0,0:0:0:0:
297,180,161589,1,0,0:0:0:0:
333,197,161664,1,0,0:0:0:0:
368,213,161739,1,0,0:0:0:0:
389,245,161814,1,0,0:0:0:0:
390,284,161889,1,0,0:0:0:0:
371,315,161964,5,8,0:0:0:0:
340,302,162039,1,0,0:0:0:0:
308,296,162114,1,0,0:0:0:0:
275,296,162189,1,0,0:0:0:0:
252,310,162264,5,8,0:0:0:0:
253,280,162339,1,0,0:0:0:0:
240,253,162414,1,0,0:0:0:0:
215,237,162489,1,0,0:0:0:0:
192,229,162564,6,2,B|141:217|106:264|106:264|32:185|76:112|76:112|112:105|176:128,1,350,6|2,0:0|0:0,0:0:0:0:
281,152,163164,1,0,0:0:0:0:
432,99,163464,6,2,B|402:122|402:122|423:174|373:247,1,150,6|2,0:0|0:0,0:0:0:0:
389,268,163764,1,0,0:0:0:0:
395,280,163914,1,0,0:0:0:0:
400,289,164064,1,0,0:0:0:0:
75,319,164364,6,2,B|93:237|40:200|40:200|141:217|152:145|152:145|198:172|238:143,1,350,6|2,0:0|0:0,0:0:0:0:
211,115,164964,1,0,0:0:0:0:
234,105,165039,1,0,0:0:0:0:
257,95,165114,1,0,0:0:0:0:
280,86,165189,1,0,0:0:0:0:
303,76,165264,1,0,0:0:0:0:
423,171,165564,5,0,0:0:0:0:
400,180,165714,1,0,0:0:0:0:
377,190,165864,1,0,0:0:0:0:
286,328,166164,6,2,B|283:306|283:306|246:259|242:211|242:211|224:175,1,150,4|0,0:0|0:0,0:0:0:0:
193,229,166464,1,8,0:0:0:0:
177,243,166614,1,0,0:0:0:0:
200,122,166914,5,8,0:0:0:0:
413,68,167064,1,0,0:0:0:0:
413,68,167364,5,12,0:0:0:0:
431,83,167439,1,0,0:0:0:0:
445,102,167514,1,0,0:0:0:0:
453,125,167589,1,0,0:0:0:0:
454,149,167664,1,0,0:0:0:0:
448,172,167739,1,0,0:0:0:0:
437,193,167814,1,0,0:0:0:0:
420,210,167889,1,0,0:0:0:0:
419,227,167964,5,8,0:0:0:0:
397,217,168039,1,0,0:0:0:0:
373,211,168114,1,0,0:0:0:0:
350,208,168189,1,0,0:0:0:0:
326,210,168264,1,0,0:0:0:0:
302,216,168339,1,0,0:0:0:0:
280,225,168414,1,0,0:0:0:0:
260,237,168489,1,0,0:0:0:0:
242,254,168564,6,0,P|227:265|203:269,3,29.9999990844727,8|0|0|0,0:0|0:0|0:0|0:0,0:0:0:0:
75,217,168864,2,0,P|90:228|114:232,3,29.9999990844727,8|0|0|0,0:0|0:0|0:0|0:0,0:0:0:0:
131,91,169164,6,0,B|137:99|137:99|143:131,3,29.9999990844727,8|0|0|0,0:0|0:0|0:0|0:0,0:0:0:0:
265,0,169464,6,0,P|277:7|287:19,3,29.9999990844727,8|0|0|0,0:0|0:0|0:0|0:0,0:0:0:0:
238,24,169764,1,0,0:0:0:0:
243,37,169839,1,0,0:0:0:0:
245,52,169914,1,0,0:0:0:0:
243,67,169989,1,0,0:0:0:0:
235,80,170064,1,4,0:0:0:0:
225,114,170139,1,0,0:0:0:0:
232,149,170214,1,0,0:0:0:0:
254,177,170289,1,0,0:0:0:0:
279,201,170364,5,12,0:0:0:0:
307,228,170439,1,0,0:0:0:0:
319,265,170514,1,0,0:0:0:0:
314,304,170589,1,0,0:0:0:0:
298,339,170664,1,0,0:0:0:0:
258,361,170739,1,0,0:0:0:0:
210,361,170814,1,0,0:0:0:0:
169,341,170889,1,0,0:0:0:0:
154,311,170964,5,8,0:0:0:0:
141,294,171039,1,0,0:0:0:0:
124,282,171114,1,0,0:0:0:0:
104,276,171189,1,0,0:0:0:0:
61,257,171264,5,8,0:0:0:0:
74,240,171339,1,0,0:0:0:0:
83,222,171414,1,0,0:0:0:0:
90,202,171489,1,0,0:0:0:0:
70,168,171564,5,8,0:0:0:0:
71,147,171639,1,0,0:0:0:0:
73,126,171714,1,0,0:0:0:0:
74,105,171789,1,0,0:0:0:0:
54,77,171864,5,8,0:0:0:0:
66,60,171939,1,0,0:0:0:0:
84,50,172014,1,0,0:0:0:0:
105,50,172089,1,0,0:0:0:0:
128,57,172164,2,2,B|143:62|143:62|194:43|249:62,1,119.999996337891,6|2,0:0|0:0,0:0:0:0:
209,151,172464,5,8,0:0:0:0:
268,343,172614,1,2,0:0:0:0:
152,234,172764,1,2,0:0:0:0:
396,158,172914,1,2,0:0:0:0:
138,233,173064,6,2,B|109:231|109:231|86:265|26:280,1,119.999996337891
18,150,173364,1,8,0:0:0:0:
190,39,173514,1,2,0:0:0:0:
30,51,173664,1,2,0:0:0:0:
169,266,173814,1,2,0:0:0:0:
269,105,173964,5,8,0:0:0:0:
370,296,174114,1,2,0:0:0:0:
169,266,174264,1,8,0:0:0:0:
399,168,174414,1,2,0:0:0:0:
176,159,174564,2,2,B|146:156|124:162|97:156|85:154|85:154|49:153,1,119.999996337891,4|0,0:0|0:0,0:0:0:0:
114,28,174864,5,8,0:0:0:0:
174,283,175014,1,2,0:0:0:0:
194,62,175164,5,8,3:0:0:0:
173,296,175314,1,2,3:0:0:0:
256,115,175464,5,8,3:0:0:0:
173,308,175614,1,2,3:0:0:0:
373,187,175764,6,0,B|393:180|393:180|418:186|445:169,3,59.9999981689454,12|0|12|0,0:0|0:0|0:0|0:0,0:0:0:0:
281,200,176064,1,8,0:0:0:0:
221,204,176139,1,0,0:0:0:0:
165,185,176214,1,0,0:0:0:0:
120,146,176289,1,0,0:0:0:0:
86,69,176364,6,0,B|75:59|75:59|43:67|6:49,3,59.9999981689454,12|0|12|0,0:0|0:0|0:0|0:0,0:0:0:0:
176,83,176664,1,8,0:0:0:0:
235,91,176739,1,0,0:0:0:0:
294,99,176814,1,0,0:0:0:0:
354,107,176889,1,0,0:0:0:0:
451,94,176964,6,0,B|461:96|461:96|485:134,5,40,8|0|0|0|0|0,0:0|0:0|0:0|0:0|0:0|0:0,0:0:0:0:
425,150,177414,1,8,0:0:0:0:
414,166,177489,1,0,0:0:0:0:
410,186,177564,5,4,0:0:0:0:
379,181,177639,1,0,0:0:0:0:
347,185,177714,1,0,0:0:0:0:
318,198,177789,1,0,0:0:0:0:
291,215,177864,2,0,B|285:224|285:224|291:261,1,40
210,261,178014,1,0,0:0:0:0:
190,247,178089,1,0,0:0:0:0:
175,228,178164,1,0,0:0:0:0:
177,202,178239,5,4,0:0:0:0:
152,174,178314,5,0,0:0:0:0:
155,150,178389,1,0,0:0:0:0:
166,129,178464,2,0,P|174:102|176:75,3,40,8|0|0|0,0:0|0:0|0:0|0:0,0:0:0:0:
310,59,178764,5,8,0:0:0:0:
322,70,178914,1,2,0:0:0:0:
367,256,179064,1,2,0:0:0:0:
121,264,179364,5,8,0:0:0:0:
94,88,179514,1,2,0:0:0:0:
28,164,179664,1,2,0:0:0:0:
242,162,179814,1,2,0:0:0:0:
121,284,179964,1,2,0:0:0:0:
154,72,180114,1,2,0:0:0:0:
28,164,180264,6,2,B|13:180|13:180|41:238|21:299,1,139.999995727539,6|2,0:0|0:0,0:0:0:0:
242,162,180564,2,2,B|218:179|215:218|215:218|217:227|197:262|197:262|204:299,1,139.999995727539,6|2,0:0|0:0,0:0:0:0:
454,166,180864,6,0,B|432:178|410:170|386:163|366:173,3,80
411,253,181164,5,8,0:0:0:0:
379,257,181239,1,0,0:0:0:0:
347,261,181314,1,0,0:0:0:0:
315,265,181389,1,0,0:0:0:0:
284,282,181464,5,8,0:0:0:0:
252,286,181539,1,0,0:0:0:0:
220,290,181614,1,0,0:0:0:0:
188,294,181689,1,0,0:0:0:0:
156,298,181764,2,2,B|131:291|99:318|99:318|93:307|93:307|71:322|36:309,1,119.999996337891,4|0,0:0|0:0,0:0:0:0:
131,214,182064,5,8,0:0:0:0:
131,40,182214,1,2,0:0:0:0:
218,102,182364,1,8,0:0:0:0:
10,102,182514,1,2,0:0:0:0:
228,95,182664,6,2,B|253:80|253:80|302:100|356:83,1,119.999996337891
277,173,182964,1,2,0:0:0:0:
173,346,183114,1,2,0:0:0:0:
160,192,183264,6,2,B|168:170|168:170|201:139|209:129|209:129|216:118|227:94,1,119.999996337891
277,173,183564,5,8,0:0:0:0:
49,257,183714,1,2,0:0:0:0:
267,211,183864,1,8,0:0:0:0:
25,229,184014,1,2,0:0:0:0:
350,191,184164,6,2,B|362:183|362:183|424:189|467:153,1,119.999996337891
378,60,184464,5,8,0:0:0:0:
322,320,184614,1,2,0:0:0:0:
277,47,184764,5,8,0:0:0:0:
303,311,184914,1,2,0:0:0:0:
172,58,185064,5,8,0:0:0:0:
279,300,185214,1,2,0:0:0:0:
135,174,185364,5,8,0:0:0:0:
110,159,185439,1,0,0:0:0:0:
94,163,185514,1,0,0:0:0:0:
99,134,185589,1,0,0:0:0:0:
79,102,185664,5,8,0:0:0:0:
135,122,185739,1,0,0:0:0:0:
194,119,185814,1,0,0:0:0:0:
249,95,185889,1,0,0:0:0:0:
330,95,185964,2,0,B|327:63|327:63|307:37,3,59.9999981689454,8|0|0|0,0:0|0:0|0:0|0:0,0:0:0:0:
376,165,186264,5,8,0:0:0:0:
378,212,186339,1,0,0:0:0:0:
350,250,186414,1,0,0:0:0:0:
305,263,186489,1,0,0:0:0:0:
240,225,186564,6,0,B|232:233|232:233|223:277,3,40,8|0|0|0,0:0|0:0|0:0|0:0,0:0:0:0:
136,243,186864,1,8,0:0:0:0:
145,229,186939,1,0,0:0:0:0:
150,215,187014,1,0,0:0:0:0:
152,199,187089,1,0,0:0:0:0:
112,166,187164,5,4,0:0:0:0:
143,167,187239,1,0,0:0:0:0:
173,157,187314,1,0,0:0:0:0:
202,123,187389,5,0,0:0:0:0:
227,130,187464,1,0,0:0:0:0:
268,147,187539,5,0,0:0:0:0:
299,154,187614,1,0,0:0:0:0:
328,167,187689,1,0,0:0:0:0:
345,190,187764,5,4,0:0:0:0:
362,168,187839,1,0,0:0:0:0:
387,156,187914,5,0,0:0:0:0:
362,130,187989,5,0,0:0:0:0:
362,106,188064,2,0,P|365:87|355:57,3,40
463,33,188364,5,8,0:0:0:0:
479,49,188514,1,2,0:0:0:0:
413,230,188664,1,2,0:0:0:0:
90,270,188964,5,8,0:0:0:0:
61,151,189114,1,2,0:0:0:0:
140,270,189264,5,8,0:0:0:0:
152,105,189414,1,2,0:0:0:0:
190,270,189564,5,8,2:0:0:0:
268,77,189714,1,2,2:0:0:0:
332,188,189864,6,0,B|338:204|338:204|339:233,3,40,8|0|0|0,0:0|0:0|0:0|0:0,0:0:0:0:
196,308,190164,2,0,B|190:292|190:292|189:263,3,40,8|0|0|0,0:0|0:0|0:0|0:0,0:0:0:0:
267,343,190464,5,8,0:0:0:0:
284,333,190539,1,0,0:0:0:0:
303,327,190614,1,0,0:0:0:0:
323,326,190689,1,0,0:0:0:0:
342,329,190764,5,8,0:0:0:0:
348,270,190839,1,0,0:0:0:0:
378,218,190914,1,0,0:0:0:0:
420,175,190989,1,0,0:0:0:0:
431,135,191064,1,0,0:0:0:0:
386,96,191139,1,0,0:0:0:0:
330,73,191214,1,0,0:0:0:0:
271,73,191289,1,0,0:0:0:0:
214,92,191364,5,4,0:0:0:0:
3,175,191514,1,2,0:0:0:0:
18,46,191664,1,8,0:0:0:0:
95,262,191814,1,2,0:0:0:0:
139,71,191964,1,8,0:0:0:0:
216,287,192114,1,2,0:0:0:0:
129,178,192264,1,8,0:0:0:0:
341,96,192414,1,2,0:0:0:0:
310,299,192564,5,8,0:0:0:0:
307,322,192714,1,2,0:0:0:0:
226,211,192864,5,8,0:0:0:0:
198,187,192939,1,0,0:0:0:0:
164,176,193014,1,0,0:0:0:0:
129,178,193089,1,0,0:0:0:0:
53,161,193164,6,0,B|48:174|48:174|64:235,3,59.9999981689454,8|0|0|0,0:0|0:0|0:0|0:0,0:0:0:0:
68,140,193464,1,8,0:0:0:0:
81,127,193539,1,0,0:0:0:0:
90,112,193614,1,0,0:0:0:0:
96,95,193689,1,0,0:0:0:0:
86,73,193764,5,8,0:0:0:0:
128,94,193839,1,0,0:0:0:0:
176,98,193914,1,0,0:0:0:0:
222,86,193989,1,0,0:0:0:0:
268,72,194064,1,0,0:0:0:0:
315,73,194139,1,0,0:0:0:0:
357,96,194214,1,0,0:0:0:0:
386,134,194289,1,0,0:0:0:0:
402,179,194364,1,0,0:0:0:0:
392,226,194439,1,0,0:0:0:0:
367,266,194514,1,0,0:0:0:0:
325,287,194589,1,0,0:0:0:0:
277,283,194664,1,0,0:0:0:0:
240,254,194739,1,0,0:0:0:0:
223,210,194814,1,0,0:0:0:0:
231,163,194889,1,0,0:0:0:0:
260,149,194964,5,8,0:0:0:0:
212,140,195039,1,0,0:0:0:0:
165,132,195114,1,0,0:0:0:0:
118,124,195189,1,0,0:0:0:0:
51,85,195264,2,0,B|42:93|42:93|33:137,3,40,4|0|0|0,0:0|0:0|0:0|0:0,0:0:0:0:
50,251,195564,5,8,0:0:0:0:
58,288,195714,1,2,0:0:0:0:
141,45,195864,1,2,0:0:0:0:
362,336,196164,5,8,0:0:0:0:
313,233,196314,1,2,0:0:0:0:
427,241,196464,1,2,0:0:0:0:
168,344,196614,5,8,0:0:0:0:
232,250,196764,1,2,0:0:0:0:
281,353,196914,1,2,0:0:0:0:
64,179,197064,5,8,0:0:0:0:
177,188,197214,1,2,0:0:0:0:
112,282,197364,1,2,0:0:0:0:
244,311,197514,5,8,0:0:0:0:
324,210,197664,5,8,0:0:0:0:
343,187,197739,1,0,0:0:0:0:
370,174,197814,1,0,0:0:0:0:
400,174,197889,1,0,0:0:0:0:
427,186,197964,1,0,0:0:0:0:
457,190,198039,1,0,0:0:0:0:
484,178,198114,1,0,0:0:0:0:
501,154,198189,1,0,0:0:0:0:
508,122,198264,5,8,0:0:0:0:
479,91,198339,1,0,0:0:0:0:
460,109,198414,1,0,0:0:0:0:
421,94,198489,1,0,0:0:0:0:
381,82,198564,5,8,0:0:0:0:
348,84,198639,1,2,0:0:0:0:
315,87,198714,1,2,0:0:0:0:
395,189,198864,5,4,0:0:0:0:
285,237,199014,1,8,0:0:0:0:
252,239,199089,1,2,0:0:0:0:
219,242,199164,1,2,0:0:0:0:
300,367,199314,5,4,0:0:0:0:
412,271,199464,1,8,0:0:0:0:
405,241,199539,1,0,0:0:0:0:
399,212,199614,1,0,0:0:0:0:
393,182,199689,1,0,0:0:0:0:
387,153,199764,5,8,0:0:0:0:
344,173,199839,1,0,0:0:0:0:
296,174,199914,1,0,0:0:0:0:
252,155,199989,1,0,0:0:0:0:
222,118,200064,1,8,0:0:0:0:
193,155,200139,1,0,0:0:0:0:
148,172,200214,1,0,0:0:0:0:
102,162,200289,1,0,0:0:0:0:
60,138,200364,1,8,0:0:0:0:
52,185,200439,1,0,0:0:0:0:
44,232,200514,1,0,0:0:0:0:
36,280,200589,1,0,0:0:0:0:
28,327,200664,1,4,0:0:0:0:
43,50,200964,5,8,0:0:0:0:
121,241,201114,1,2,0:0:0:0:
187,86,201264,1,8,0:0:0:0:
265,277,201414,1,2,0:0:0:0:
187,181,201564,5,8,0:0:0:0:
377,101,201714,1,2,0:0:0:0:
314,257,201864,1,8,0:0:0:0:
504,177,202014,1,2,0:0:0:0:
435,303,202164,5,8,0:0:0:0:
414,314,202314,1,2,0:0:0:0:
314,257,202464,5,8,0:0:0:0:
318,233,202539,1,0,0:0:0:0:
323,210,202614,1,0,0:0:0:0:
328,186,202689,1,0,0:0:0:0:
333,162,202764,5,8,0:0:0:0:
299,173,202839,1,0,0:0:0:0:
263,169,202914,1,0,0:0:0:0:
232,152,202989,1,0,0:0:0:0:
200,135,203064,1,0,0:0:0:0:
166,121,203139,1,0,0:0:0:0:
131,122,203214,1,0,0:0:0:0:
98,136,203289,1,0,0:0:0:0:
55,126,203364,5,8,0:0:0:0:
59,165,203439,1,0,0:0:0:0:
64,205,203514,1,0,0:0:0:0:
69,245,203589,1,0,0:0:0:0:
71,285,203664,1,0,0:0:0:0:
91,318,203739,1,0,0:0:0:0:
128,331,203814,1,0,0:0:0:0:
164,316,203889,1,0,0:0:0:0:
200,297,203964,6,0,P|222:290|254:292,3,40,8|0|0|0,0:0|0:0|0:0|0:0,0:0:0:0:
336,297,204264,2,0,P|355:301|373:310,3,40,8|0|0|0,0:0|0:0|0:0|0:0,0:0:0:0:
200,297,204564,5,8,0:0:0:0:
206,257,204639,1,0,0:0:0:0:
213,218,204714,1,0,0:0:0:0:
220,178,204789,1,0,0:0:0:0:
227,139,204864,1,0,0:0:0:0:
250,107,204939,1,0,0:0:0:0:
287,94,205014,1,0,0:0:0:0:
325,104,205089,1,0,0:0:0:0:
400,137,205164,5,8,0:0:0:0:
352,235,205314,1,2,0:0:0:0:
364,252,205464,1,2,0:0:0:0:
66,196,205764,5,8,0:0:0:0:
166,107,205914,1,2,0:0:0:0:
193,238,206064,1,2,0:0:0:0:
68,155,206214,5,8,0:0:0:0:
199,128,206364,1,2,0:0:0:0:
156,255,206514,1,2,0:0:0:0:
90,121,206664,5,8,0:0:0:0:
216,163,206814,1,2,0:0:0:0:
117,253,206964,1,2,0:0:0:0:
125,104,207114,5,8,0:0:0:0:
251,247,207264,5,8,0:0:0:0:
267,264,207339,1,0,0:0:0:0:
288,275,207414,1,0,0:0:0:0:
312,279,207489,1,0,0:0:0:0:
336,275,207564,1,0,0:0:0:0:
357,264,207639,1,0,0:0:0:0:
374,247,207714,1,0,0:0:0:0:
385,226,207789,1,0,0:0:0:0:
421,190,207864,5,10,0:0:0:0:
391,192,207939,1,2,0:0:0:0:
363,180,208014,1,2,0:0:0:0:
344,158,208089,1,2,0:0:0:0:
310,88,208164,5,8,0:0:0:0:
313,64,208239,1,2,0:0:0:0:
316,40,208314,1,2,0:0:0:0:
227,228,208464,5,4,0:0:0:0:
138,126,208614,1,8,0:0:0:0:
141,102,208689,1,2,0:0:0:0:
144,78,208764,1,2,0:0:0:0:
29,202,208914,5,4,0:0:0:0:
110,277,209064,1,8,0:0:0:0:
113,301,209139,1,0,0:0:0:0:
116,325,209214,1,0,0:0:0:0:
114,348,209289,1,0,0:0:0:0:
136,339,209364,5,8,0:0:0:0:
181,325,209439,1,0,0:0:0:0:
229,321,209514,1,0,0:0:0:0:
277,327,209589,1,0,0:0:0:0:
323,338,209664,1,0,0:0:0:0:
367,352,209739,1,0,0:0:0:0:
402,323,209814,1,0,0:0:0:0:
395,278,209889,1,0,0:0:0:0:
368,203,209964,6,0,B|363:188|363:188|369:140,3,59.9999981689454,8|0|0|0,0:0|0:0|0:0|0:0,0:0:0:0:
264,258,210264,2,0,B|259:243|259:243|265:195,3,59.9999981689454,8|0|0|0,0:0|0:0|0:0|0:0,0:0:0:0:
87,288,210564,5,8,0:0:0:0:
54,122,210714,1,2,0:0:0:0:
17,232,210864,1,8,0:0:0:0:
200,195,211014,1,2,0:0:0:0:
120,165,211164,1,8,0:0:0:0:
163,384,211314,1,2,0:0:0:0:
78,329,211464,1,8,0:0:0:0:
279,288,211614,1,2,0:0:0:0:
360,65,211764,5,8,0:0:0:0:
432,337,211914,1,6,0:0:0:0:
65,157,212964,5,8,0:0:0:0:
69,145,213039,1,2,0:0:0:0:
73,134,213114,1,2,0:0:0:0:
159,53,213264,1,4,0:0:0:0:
172,248,213414,5,8,0:0:0:0:
176,236,213489,1,2,0:0:0:0:
180,225,213564,1,2,0:0:0:0:
266,144,213714,1,4,0:0:0:0:
279,339,213864,5,8,0:0:0:0:
283,327,213939,1,0,0:0:0:0:
287,316,214014,1,0,0:0:0:0:
291,305,214089,1,0,0:0:0:0:
287,281,214164,5,4,0:0:0:0:
297,252,214239,1,0,0:0:0:0:
308,224,214314,1,0,0:0:0:0:
319,196,214389,1,0,0:0:0:0:
369,143,214464,2,0,B|360:129|360:129|307:120,3,59.9999981689454
208,174,214764,1,8,0:0:0:0:
208,174,215064,1,4,0:0:0:0:
209,191,215139,1,0,0:0:0:0:
211,209,215214,1,0,0:0:0:0:
213,227,215289,1,0,0:0:0:0:
205,258,215364,6,0,L|275:248,3,59.9999981689454,8|0|0|0,0:0|0:0|0:0|0:0,0:0:0:0:
111,327,215664,2,0,L|41:337,3,59.9999981689454,8|0|0|0,0:0|0:0|0:0|0:0,0:0:0:0:
107,250,215964,6,2,L|151:244,1,40
284,178,216114,2,2,L|240:184,1,40
88,236,216264,2,2,L|132:230,1,40
265,164,216414,2,2,L|221:170,1,40
116,137,216564,6,0,B|121:120|110:99|125:70,3,59.9999981689454,8|0|0|0,0:0|0:0|0:0|0:0,0:0:0:0:
194,108,216864,1,4,0:0:0:0:
229,108,216939,1,0,0:0:0:0:
265,109,217014,1,0,0:0:0:0:
301,110,217089,1,0,0:0:0:0:
337,97,217164,1,8,0:0:0:0:
321,130,217239,1,0,0:0:0:0:
318,165,217314,1,0,0:0:0:0:
329,199,217389,1,0,0:0:0:0:
359,220,217464,2,0,B|361:239|361:239|390:244|410:267,3,59.9999981689454,8|0|0|0,0:0|0:0|0:0|0:0,0:0:0:0:
271,280,217764,5,8,0:0:0:0:
239,315,217839,1,0,0:0:0:0:
196,335,217914,1,0,0:0:0:0:
148,336,217989,1,0,0:0:0:0:
105,316,218064,1,0,0:0:0:0:
73,281,218139,1,0,0:0:0:0:
59,235,218214,1,0,0:0:0:0:
65,188,218289,1,0,0:0:0:0:
90,147,218364,1,0,0:0:0:0:
129,121,218439,1,0,0:0:0:0:
176,112,218514,1,0,0:0:0:0:
222,124,218589,1,0,0:0:0:0:
260,153,218664,5,8,0:0:0:0:
304,168,218739,1,0,0:0:0:0:
351,159,218814,1,0,0:0:0:0:
387,129,218889,1,0,0:0:0:0:
406,98,218964,1,4,0:0:0:0:
403,145,219039,1,0,0:0:0:0:
401,193,219114,1,0,0:0:0:0:
398,241,219189,1,0,0:0:0:0:
394,289,219264,1,0,0:0:0:0:
377,332,219339,1,0,0:0:0:0:
334,353,219414,1,0,0:0:0:0:
290,338,219489,1,0,0:0:0:0:
254,333,219564,5,8,0:0:0:0:
263,304,219639,1,0,0:0:0:0:
261,274,219714,1,0,0:0:0:0:
248,248,219789,1,0,0:0:0:0:
215,234,219864,6,0,P|229:213|229:181,3,40,8|0|0|0,0:0|0:0|0:0|0:0,0:0:0:0:
181,63,220164,5,8,0:0:0:0:
10,192,220314,1,2,0:0:0:0:
29,92,220464,1,8,0:0:0:0:
158,263,220614,1,2,0:0:0:0:
194,136,220764,1,8,0:0:0:0:
323,307,220914,1,2,0:0:0:0:
221,321,221064,1,8,0:0:0:0:
392,192,221214,1,2,0:0:0:0:
136,95,221364,5,8,0:0:0:0:
70,311,221514,1,2,0:0:0:0:
138,241,221664,1,8,0:0:0:0:
149,236,221739,1,0,0:0:0:0:
160,233,221814,1,0,0:0:0:0:
172,230,221889,1,0,0:0:0:0:
200,204,221964,1,8,0:0:0:0:
207,212,222039,1,0,0:0:0:0:
218,219,222114,1,0,0:0:0:0:
229,221,222189,1,0,0:0:0:0:
255,206,222264,1,8,0:0:0:0:
257,188,222339,1,0,0:0:0:0:
275,191,222414,1,0,0:0:0:0:
285,178,222489,1,0,0:0:0:0:
302,147,222564,5,8,0:0:0:0:
343,141,222639,1,2,0:0:0:0:
385,136,222714,1,2,0:0:0:0:
253,254,222864,1,4,0:0:0:0:
113,217,223014,5,8,0:0:0:0:
71,222,223089,1,2,0:0:0:0:
29,227,223164,1,2,0:0:0:0:
253,254,223314,1,4,0:0:0:0:
187,80,223464,5,8,0:0:0:0:
145,85,223539,1,0,0:0:0:0:
103,90,223614,1,0,0:0:0:0:
61,95,223689,1,0,0:0:0:0:
16,84,223764,5,8,0:0:0:0:
42,123,223839,1,0,0:0:0:0:
56,169,223914,1,0,0:0:0:0:
56,217,223989,1,0,0:0:0:0:
33,259,224064,1,4,0:0:0:0:
42,305,224139,1,0,0:0:0:0:
77,336,224214,1,0,0:0:0:0:
124,340,224289,1,0,0:0:0:0:
167,319,224364,1,0,0:0:0:0:
214,311,224439,1,0,0:0:0:0:
262,313,224514,1,0,0:0:0:0:
308,324,224589,1,0,0:0:0:0:
381,303,224664,6,0,B|386:324|386:324|375:366,3,59.9999981689454,8|0|0|0,0:0|0:0|0:0|0:0,0:0:0:0:
324,240,224964,5,8,0:0:0:0:
327,228,225039,1,2,0:0:0:0:
330,216,225114,1,2,0:0:0:0:
332,76,225264,1,8,0:0:0:0:
201,206,225414,1,2,0:0:0:0:
124,33,225564,1,8,0:0:0:0:
97,305,225714,1,2,0:0:0:0:
58,189,225864,1,8,0:0:0:0:
330,216,226014,1,2,0:0:0:0:
139,113,226164,5,8,0:0:0:0:
189,334,226314,1,2,0:0:0:0:
195,344,226464,1,2,0:0:0:0:
284,338,226614,5,4,0:0:0:0:
306,330,226689,1,0,0:0:0:0:
330,330,226764,5,8,0:0:0:0:
326,294,226839,1,0,0:0:0:0:
323,258,226914,1,0,0:0:0:0:
320,222,226989,1,0,0:0:0:0:
315,186,227064,1,0,0:0:0:0:
302,152,227139,1,0,0:0:0:0:
274,130,227214,1,0,0:0:0:0:
239,125,227289,1,0,0:0:0:0:
159,134,227364,6,2,L|108:143,1,40
146,155,227514,2,2,L|95:164,1,40
284,214,227664,2,2,L|335:205,1,40
271,235,227814,2,2,L|322:226,1,40
126,309,227964,2,2,L|75:318,1,40
113,330,228114,2,2,L|62:339,1,40
347,355,228264,6,2,L|387:349,1,40
495,269,228414,2,2,L|455:275,1,40
201,245,228564,6,2,L|241:239,1,40
349,159,228713,2,2,L|309:165,1,40
51,163,228864,6,2,L|91:157,1,40
199,77,229014,2,2,L|159:83,1,40
48,42,229164,6,0,L|41:94,3,40
203,220,229464,2,0,L|209:167,3,40
351,55,229764,5,8,0:0:0:0:
353,82,229839,1,0,0:0:0:0:
355,110,229914,1,0,0:0:0:0:
357,138,229989,1,0,0:0:0:0:
359,166,230064,1,0,0:0:0:0:
361,194,230139,1,0,0:0:0:0:
363,222,230214,1,0,0:0:0:0:
365,250,230289,1,0,0:0:0:0:
378,275,230364,5,8,0:0:0:0:
350,259,230439,1,0,0:0:0:0:
318,253,230514,1,0,0:0:0:0:
287,259,230589,1,0,0:0:0:0:
259,274,230664,2,0,P|241:283|208:282,3,40,4|0|0|0,0:0|0:0|0:0|0:0,0:0:0:0:
109,340,230964,5,8,0:0:0:0:
107,312,231039,1,0,0:0:0:0:
105,284,231114,1,0,0:0:0:0:
103,256,231189,1,0,0:0:0:0:
102,228,231264,1,0,0:0:0:0:
100,200,231339,1,0,0:0:0:0:
98,172,231414,1,0,0:0:0:0:
97,144,231489,1,0,0:0:0:0:
81,116,231564,5,8,0:0:0:0:
107,123,231639,1,0,0:0:0:0:
135,128,231714,1,0,0:0:0:0:
163,129,231789,1,0,0:0:0:0:
191,126,231864,1,0,0:0:0:0:
218,121,231939,1,0,0:0:0:0:
245,112,232014,1,0,0:0:0:0:
270,100,232089,1,0,0:0:0:0:
285,72,232164,5,8,0:0:0:0:
299,108,232239,1,0,0:0:0:0:
331,130,232314,1,0,0:0:0:0:
371,129,232389,1,0,0:0:0:0:
402,105,232464,2,0,P|427:99|459:105,3,40,4|0|0|0,0:0|0:0|0:0|0:0,0:0:0:0:
358,39,232764,5,8,0:0:0:0:
334,60,232839,1,0,0:0:0:0:
320,89,232914,1,0,0:0:0:0:
318,120,232989,1,0,0:0:0:0:
323,152,233064,1,0,0:0:0:0:
326,184,233139,1,0,0:0:0:0:
321,215,233214,1,0,0:0:0:0:
307,244,233289,1,0,0:0:0:0:
296,274,233364,5,8,0:0:0:0:
269,256,233439,1,0,0:0:0:0:
238,251,233514,1,0,0:0:0:0:
208,261,233589,1,0,0:0:0:0:
178,274,233664,1,0,0:0:0:0:
146,280,233739,1,0,0:0:0:0:
114,278,233814,1,0,0:0:0:0:
85,267,233889,1,0,0:0:0:0:
23,220,233964,6,0,B|13:231|13:231|10:264,3,40,8|0|0|0,0:0|0:0|0:0|0:0,0:0:0:0:
115,161,234264,2,0,B|125:172|125:172|127:197,3,40,8|0|0|0,0:0|0:0|0:0|0:0,0:0:0:0:
30,75,234564,5,8,0:0:0:0:
69,83,234639,1,0,0:0:0:0:
109,83,234714,1,0,0:0:0:0:
148,75,234789,1,0,0:0:0:0:
187,66,234864,1,0,0:0:0:0:
226,57,234939,1,0,0:0:0:0:
266,57,235014,1,0,0:0:0:0:
305,65,235089,1,0,0:0:0:0:
344,68,235164,5,8,0:0:0:0:
330,105,235239,1,0,0:0:0:0:
331,144,235314,1,0,0:0:0:0:
347,181,235389,1,0,0:0:0:0:
362,218,235464,2,0,P|368:245|362:272,3,40,4|0|0|0,0:0|0:0|0:0|0:0,0:0:0:0:
237,329,235764,5,8,0:0:0:0:
232,297,235839,1,0,0:0:0:0:
227,265,235914,1,0,0:0:0:0:
222,234,235989,1,0,0:0:0:0:
217,202,236064,1,0,0:0:0:0:
213,170,236139,1,0,0:0:0:0:
208,139,236214,1,0,0:0:0:0:
203,107,236289,1,0,0:0:0:0:
204,75,236364,6,0,L|197:35,3,40,8|0|0|0,0:0|0:0|0:0|0:0,0:0:0:0:
94,139,236664,2,0,L|101:179,3,40,8|0|0|0,0:0|0:0|0:0|0:0,0:0:0:0:
38,282,236964,5,8,0:0:0:0:
77,279,237039,1,0,0:0:0:0:
117,276,237114,1,0,0:0:0:0:
157,273,237189,1,0,0:0:0:0:
233,273,237264,2,0,B|236:285|236:285|220:311,3,40,4|0|0|0,0:0|0:0|0:0|0:0,0:0:0:0:
335,278,237564,6,0,L|342:318,3,40,8|0|0|0,0:0|0:0|0:0|0:0,0:0:0:0:
445,215,237864,2,0,L|438:175,3,40,8|0|0|0,0:0|0:0|0:0|0:0,0:0:0:0:
385,65,238164,5,4,0:0:0:0:
360,80,238239,1,0,0:0:0:0:
371,85,238314,1,0,0:0:0:0:
359,93,238389,1,0,0:0:0:0:
339,112,238464,5,4,0:0:0:0:
295,119,238539,1,0,0:0:0:0:
269,133,238614,1,0,0:0:0:0:
311,145,238689,1,0,0:0:0:0:
293,172,238764,5,4,0:0:0:0:
278,203,238839,1,0,0:0:0:0:
249,203,238914,1,0,0:0:0:0:
214,194,238989,1,0,0:0:0:0:
180,180,239064,5,4,0:0:0:0:
173,203,239139,1,0,0:0:0:0:
169,226,239214,1,0,0:0:0:0:
154,244,239289,1,0,0:0:0:0:
141,273,239364,6,0,L|136:321,3,40,8|0|0|0,0:0|0:0|0:0|0:0,0:0:0:0:
41,269,239664,2,0,L|44:229,3,40,8|0|0|0,0:0|0:0|0:0|0:0,0:0:0:0:
27,127,239964,5,8,0:0:0:0:
63,110,240039,1,0,0:0:0:0:
102,104,240114,1,0,0:0:0:0:
142,109,240189,1,0,0:0:0:0:
181,118,240264,2,0,P|213:122|228:120,3,40,2|0|0|0,0:0|0:0|0:0|0:0,0:0:0:0:
339,53,240564,5,8,0:0:0:0:
341,84,240639,1,0,0:0:0:0:
344,116,240714,1,0,0:0:0:0:
347,148,240789,1,0,0:0:0:0:
349,180,240864,1,0,0:0:0:0:
352,212,240939,1,0,0:0:0:0:
355,244,241014,1,0,0:0:0:0:
358,276,241089,1,0,0:0:0:0:
370,310,241164,5,8,0:0:0:0:
340,298,241239,1,0,0:0:0:0:
308,298,241314,1,0,0:0:0:0:
278,310,241389,1,0,0:0:0:0:
249,323,241464,1,0,0:0:0:0:
220,335,241539,1,0,0:0:0:0:
188,335,241614,1,0,0:0:0:0:
158,323,241689,1,0,0:0:0:0:
126,324,241764,6,0,L|97:274,3,40,8|0|0|0,0:0|0:0|0:0|0:0,0:0:0:0:
42,177,242064,2,0,B|51:167|51:167|94:165,3,40,4|0|0|0,0:0|0:0|0:0|0:0,0:0:0:0:
192,99,242364,5,8,0:0:0:0:
223,101,242439,1,0,0:0:0:0:
255,104,242514,1,0,0:0:0:0:
287,106,242589,1,0,0:0:0:0:
319,109,242664,1,0,0:0:0:0:
351,112,242739,1,0,0:0:0:0:
383,114,242814,1,0,0:0:0:0:
415,117,242889,1,0,0:0:0:0:
443,103,242964,5,8,0:0:0:0:
430,132,243039,1,0,0:0:0:0:
427,163,243114,1,0,0:0:0:0:
434,194,243189,1,0,0:0:0:0:
445,224,243264,1,0,0:0:0:0:
455,253,243339,1,0,0:0:0:0:
450,284,243414,1,0,0:0:0:0:
430,309,243489,1,0,0:0:0:0:
399,319,243564,6,2,B|368:301|368:301|325:332|296:274|266:276|216:304,1,179.999994506836,6|2,0:0|0:0,0:0:0:0:
138,349,243864,2,2,B|137:320|150:300|150:300|98:245|116:174,1,179.999994506836,6|2,0:0|0:0,0:0:0:0:
92,108,244164,5,8,0:0:0:0:
105,71,244239,1,0,0:0:0:0:
137,47,244314,1,0,0:0:0:0:
177,45,244389,1,0,0:0:0:0:
211,65,244464,1,0,0:0:0:0:
243,88,244539,1,0,0:0:0:0:
279,106,244614,1,0,0:0:0:0:
318,101,244689,1,0,0:0:0:0:
344,71,244764,5,8,0:0:0:0:
351,110,244839,1,0,0:0:0:0:
359,149,244914,1,0,0:0:0:0:
366,188,244989,1,0,0:0:0:0:
372,228,245064,1,0,0:0:0:0:
368,267,245139,1,0,0:0:0:0:
342,297,245214,1,0,0:0:0:0:
304,307,245289,1,0,0:0:0:0:
265,297,245364,6,0,L|214:295,3,40,8|0|0|0,0:0|0:0|0:0|0:0,0:0:0:0:
119,212,245664,2,0,L|170:214,3,40
32,145,245964,6,0,L|30:184,3,40,8|0|0|0,0:0|0:0|0:0|0:0,0:0:0:0:
114,79,246263,2,0,L|115:39,3,40
198,110,246564,5,4,0:0:0:0:
282,120,246664,1,0,0:0:0:0:
367,130,246764,1,0,0:0:0:0:
409,244,246864,1,0,0:0:0:0:
309,206,246964,1,0,0:0:0:0:
218,261,247064,1,0,0:0:0:0:
110,340,247164,5,4,0:0:0:0:
92,256,247264,1,0,0:0:0:0:
74,173,247364,1,0,0:0:0:0:
56,75,247464,1,0,0:0:0:0:
157,108,247564,1,0,0:0:0:0:
248,53,247664,1,0,0:0:0:0:
380,85,247764,6,0,L|361:151,3,40,8|0|0|0,0:0|0:0|0:0|0:0,0:0:0:0:
397,220,248064,1,4,0:0:0:0:
269,214,248164,1,0,0:0:0:0:
165,166,248264,1,0,0:0:0:0:
58,210,248364,1,0,0:0:0:0:
62,58,248964,5,8,0:0:0:0:
86,77,249039,1,0,0:0:0:0:
117,86,249114,1,0,0:0:0:0:
149,82,249189,1,0,0:0:0:0:
179,73,249264,1,0,0:0:0:0:
208,61,249339,1,0,0:0:0:0:
241,62,249414,1,0,0:0:0:0:
270,76,249489,1,0,0:0:0:0:
299,87,249564,2,0,L|338:83,3,40,8|0|0|0,0:0|0:0|0:0|0:0,0:0:0:0:
417,136,249864,6,0,B|411:148|411:148|374:171,3,40,4|0|0|0,0:0|0:0|0:0|0:0,0:0:0:0:
299,87,250164,1,8,0:0:0:0:
287,116,250239,1,0,0:0:0:0:
285,148,250314,1,0,0:0:0:0:
294,178,250389,1,0,0:0:0:0:
304,209,250464,1,0,0:0:0:0:
315,238,250539,1,0,0:0:0:0:
317,270,250614,1,0,0:0:0:0:
308,300,250689,1,0,0:0:0:0:
312,331,250764,5,8,0:0:0:0:
280,327,250839,1,0,0:0:0:0:
248,323,250914,1,0,0:0:0:0:
216,319,250989,1,0,0:0:0:0:
184,316,251064,1,0,0:0:0:0:
153,312,251139,1,0,0:0:0:0:
121,308,251214,1,0,0:0:0:0:
89,304,251289,1,0,0:0:0:0:
57,308,251364,1,8,0:0:0:0:
69,278,251439,1,0,0:0:0:0:
71,247,251514,1,0,0:0:0:0:
60,217,251589,1,0,0:0:0:0:
14,156,251664,6,0,B|18:147|18:147|58:138,3,40,4|0|0|0,0:0|0:0|0:0|0:0,0:0:0:0:
129,117,251964,1,8,0:0:0:0:
168,108,252039,1,0,0:0:0:0:
207,100,252114,1,0,0:0:0:0:
246,92,252189,1,0,0:0:0:0:
279,69,252264,1,0,0:0:0:0:
279,108,252339,1,0,0:0:0:0:
296,144,252414,1,0,0:0:0:0:
326,170,252489,1,0,0:0:0:0:
358,195,252564,5,8,0:0:0:0:
375,209,252639,1,0,0:0:0:0:
344,214,252714,1,0,0:0:0:0:
324,237,252789,1,0,0:0:0:0:
284,242,252864,1,4,0:0:0:0:
246,235,252939,1,0,0:0:0:0:
262,264,253014,1,0,0:0:0:0:
225,248,253089,1,0,0:0:0:0:
187,236,253164,5,4,0:0:0:0:
45,149,253464,5,8,0:0:0:0:
50,324,253764,5,8,0:0:0:0:
86,307,253839,1,0,0:0:0:0:
125,302,253914,1,0,0:0:0:0:
165,310,253989,1,0,0:0:0:0:
189,330,254064,1,4,0:0:0:0:
193,310,254139,1,0,0:0:0:0:
202,292,254214,1,0,0:0:0:0:
216,278,254289,1,0,0:0:0:0:
216,246,254364,5,4,0:0:0:0:
230,253,254439,1,0,0:0:0:0:
245,257,254514,1,0,0:0:0:0:
261,257,254589,1,0,0:0:0:0:
284,235,254664,2,0,B|295:241|295:241|308:274,3,40,4|0|0|0,0:0|0:0|0:0|0:0,0:0:0:0:
430,340,254964,5,12,0:0:0:0:
419,301,255039,1,0,0:0:0:0:
409,262,255114,1,0,0:0:0:0:
398,224,255189,1,0,0:0:0:0:
394,184,255264,1,4,0:0:0:0:
374,169,255339,1,0,0:0:0:0:
362,149,255414,1,0,0:0:0:0:
357,126,255489,1,0,0:0:0:0:
362,86,255564,5,4,0:0:0:0:
315,96,255639,1,0,0:0:0:0:
268,106,255714,1,0,0:0:0:0:
221,116,255789,1,0,0:0:0:0:
181,117,255864,1,0,0:0:0:0:
194,136,255939,1,0,0:0:0:0:
199,160,256014,1,0,0:0:0:0:
193,183,256089,1,0,0:0:0:0:
168,214,256164,5,4,0:0:0:0:
202,237,256239,1,0,0:0:0:0:
190,239,256314,1,0,0:0:0:0:
161,240,256389,1,0,0:0:0:0:
166,255,256464,2,0,B|158:263|158:263|160:302,3,40,8|0|0|0,0:0|0:0|0:0|0:0,0:0:0:0:
73,331,256764,5,8,0:0:0:0:
61,313,256839,1,0,0:0:0:0:
77,295,256914,1,0,0:0:0:0:
77,273,256989,1,0,0:0:0:0:
60,240,257064,1,0,0:0:0:0:
59,214,257139,1,0,0:0:0:0:
66,184,257214,1,0,0:0:0:0:
84,148,257289,1,0,0:0:0:0:
130,89,257364,6,0,B|139:79|139:79|177:63,3,50
222,146,257664,2,0,B|233:139|233:139|274:135,3,50
297,323,257964,2,0,B|288:333|288:333|250:349,3,50
205,266,258264,2,0,B|193:272|193:272|152:276,3,50
29,184,258564,6,0,B|64:160|95:174|95:174|156:143|203:141|222:199|311:181|366:106,1,350
416,51,259164,1,0,0:0:0:0:
251,100,259464,6,0,B|250:136|250:136|307:156|331:214,1,150
326,243,259764,1,0,0:0:0:0:
319,261,259914,1,0,0:0:0:0:
312,279,260064,1,0,0:0:0:0:
396,133,260364,6,0,P|344:120|238:161,1,150
217,237,260664,1,0,0:0:0:0:
105,158,260964,5,0,0:0:0:0:
107,133,261039,1,0,0:0:0:0:
109,108,261114,1,0,0:0:0:0:
111,83,261189,1,0,0:0:0:0:
113,58,261264,6,0,B|161:48|176:47|194:79|234:72|277:50,1,150
253,85,261564,1,0,0:0:0:0:
246,103,261714,1,0,0:0:0:0:
239,121,261864,1,0,0:0:0:0:
310,318,262164,6,0,L|362:170,1,150
355,144,262464,1,0,0:0:0:0:
239,205,262614,1,0,0:0:0:0:
84,143,262914,5,0,0:0:0:0:
162,292,263064,1,0,0:0:0:0:
409,342,263364,5,8,0:0:0:0:
405,318,263439,1,0,0:0:0:0:
402,294,263514,1,0,0:0:0:0:
398,270,263589,1,0,0:0:0:0:
395,247,263664,1,0,0:0:0:0:
391,223,263739,1,0,0:0:0:0:
388,199,263814,1,0,0:0:0:0:
384,175,263889,1,0,0:0:0:0:
388,152,263964,5,4,0:0:0:0:
366,162,264039,1,0,0:0:0:0:
342,166,264114,1,0,0:0:0:0:
319,162,264189,1,0,0:0:0:0:
296,156,264264,1,0,0:0:0:0:
273,149,264339,1,0,0:0:0:0:
249,148,264414,1,0,0:0:0:0:
226,155,264489,1,0,0:0:0:0:
202,159,264564,6,0,L|162:160,3,29.9999990844727,8|0|0|0,0:0|0:0|0:0|0:0,0:0:0:0:
144,256,264864,2,0,L|104:257,3,29.9999990844727,8|0|0|0,0:0|0:0|0:0|0:0,0:0:0:0:
60,138,265164,5,8,0:0:0:0:
66,114,265239,1,0,0:0:0:0:
77,93,265314,1,0,0:0:0:0:
94,76,265389,1,0,0:0:0:0:
114,64,265464,1,0,0:0:0:0:
137,57,265539,1,0,0:0:0:0:
161,56,265614,1,0,0:0:0:0:
184,61,265689,1,0,0:0:0:0:
206,68,265764,1,0,0:0:0:0:
229,74,265839,1,0,0:0:0:0:
253,76,265914,1,0,0:0:0:0:
276,71,265989,1,0,0:0:0:0:
338,24,266064,6,0,B|353:50|353:50|353:88,3,50,8|0|0|0,0:0|0:0|0:0|0:0,0:0:0:0:
368,115,266364,2,0,B|353:89|353:89|353:51,3,50,4|0|0|0,0:0|0:0|0:0|0:0,0:0:0:0:
435,201,266664,6,0,B|409:216|409:216|371:216,3,50,8|0|0|0,0:0|0:0|0:0|0:0,0:0:0:0:
312,192,266964,1,4,0:0:0:0:
288,195,267039,1,0,0:0:0:0:
261,187,267114,1,0,0:0:0:0:
233,190,267189,1,0,0:0:0:0:
210,184,267264,1,4,0:0:0:0:
195,226,267339,1,0,0:0:0:0:
180,219,267414,1,0,0:0:0:0:
148,188,267489,1,0,0:0:0:0:
109,179,267564,5,4,0:0:0:0:
96,194,267639,1,0,0:0:0:0:
78,201,267714,1,0,0:0:0:0:
59,196,267789,1,0,0:0:0:0:
34,179,267864,1,4,0:0:0:0:
29,178,267939,1,0,0:0:0:0:
24,177,268014,1,0,0:0:0:0:
19,176,268089,1,0,0:0:0:0:
14,175,268164,1,10,0:0:0:0:
446,57,269064,5,2,0:0:0:0:
256,192,269101,12,0,272964,0:0:0:0:
88,100,292179,6,2,P|151:43|245:51,2,179.999994506836
418,213,293979,5,2,0:0:0:0:
88,100,294879,1,2,0:0:0:0:
143,384,295779,1,2,0:0:0:0:
156,133,296379,5,2,0:0:0:0:
154,158,296679,1,2,0:0:0:0:
264,71,296829,1,2,0:0:0:0:
403,92,296979,1,6,0:0:0:0:
95,164,300879,6,2,L|82:102,1,59.9999981689454
98,193,301179,2,2,L|123:135,1,59.9999981689454
103,223,301479,2,2,L|157:191,1,59.9999981689454
309,110,301779,5,2,0:0:0:0:
214,304,302679,1,2,0:0:0:0:
216,94,303579,1,2,0:0:0:0:
184,341,304479,5,8,0:0:0:0:
174,208,304629,1,2,0:0:0:0:
294,150,304779,1,2,0:0:0:0:
103,275,304929,5,8,0:0:0:0:
134,145,305079,1,2,0:0:0:0:
266,127,305229,1,2,0:0:0:0:
46,187,305379,5,8,0:0:0:0:
116,73,305529,1,2,0:0:0:0:
125,61,305604,1,2,0:0:0:0:
134,49,305679,1,2,0:0:0:0:
191,208,305829,5,8,0:0:0:0:
263,58,305979,1,2,0:0:0:0:
322,263,306129,1,2,0:0:0:0:
238,146,306279,6,2,P|198:133|127:160,1,100
75,283,306579,2,2,P|115:296|186:269,1,100
419,148,306879,6,2,L|366:176,1,59.9999981689454
260,231,307179,6,2,B|243:236|243:236|273:280|240:331,1,100,6|2,0:0|0:0,0:0:0:0:
427,106,307479,6,2,L|374:134,1,59.9999981689454
231,112,307779,1,2,0:0:0:0:
223,97,307929,5,8,0:0:0:0:
160,213,308079,1,2,0:0:0:0:
399,259,308379,6,2,P|446:252|499:220,1,100
258,198,308679,2,2,P|212:199|150:216,1,100
34,247,308979,5,8,0:0:0:0:
58,149,309129,1,2,0:0:0:0:
82,51,309279,1,2,0:0:0:0:
148,195,309429,5,8,0:0:0:0:
213,117,309579,1,2,0:0:0:0:
278,40,309729,1,2,0:0:0:0:
321,208,309879,6,2,L|341:326,1,100
232,306,310179,6,2,B|209:301|193:299|178:323|164:324|116:314,2,100
256,291,310629,1,2,0:0:0:0:
414,232,310779,6,2,B|413:208|412:192|385:183|381:169|380:120,1,100
297,39,311079,2,2,B|296:68|292:82|265:91|264:107|263:131,1,100
242,153,311379,1,2,0:0:0:0:
155,65,311529,5,2,0:0:0:0:
85,255,311679,1,8,0:0:0:0:
93,272,311829,1,2,0:0:0:0:
208,304,311979,5,2,0:0:0:0:
217,286,312129,1,2,0:0:0:0:
292,185,312279,6,2,P|328:168|408:167,1,100
220,185,312579,2,2,P|184:168|104:167,1,100
31,213,312879,1,2,0:0:0:0:
46,225,313029,1,2,0:0:0:0:
61,237,313179,2,2,L|39:125,1,100
80,65,313479,6,2,B|134:47|158:45|211:107|238:107|326:55|326:55|288:172|379:242|379:242|339:285|350:344|350:344|402:299|455:303|455:303|514:184|439:77,1,920
427,20,315279,6,2,B|371:38|323:150|323:150|277:126|201:124|199:169|139:177|66:132|66:132|15:174|48:255,1,550,0|0,0:0|0:0,0:0:0:0:
47,253,316179,2,2,B|96:340|196:321|208:251|262:260|321:292|321:292|213:168|256:64,1,550
266,49,317079,2,2,B|334:14|408:74|382:137|469:140|516:138|516:138|449:185|421:217|424:263|377:282|296:270,1,550
280,270,317979,2,2,B|194:267|112:225|112:225|138:187|116:110|116:110|167:160|224:160|244:117|307:103|361:141,1,550
439,110,318879,6,2,P|391:187|419:347,1,250
392,294,319329,2,2,P|369:259|168:216,1,250
228,200,319779,2,2,P|318:186|332:39,1,250
356,92,320229,2,2,P|409:162|335:312,1,250
232,327,320679,5,14,0:0:0:0:
156,175,320979,1,2,0:0:0:0:
156,156,321129,1,2,0:0:0:0:
492,191,321429,5,2,0:0:0:0:
455,182,321579,1,8,0:0:0:0:
412,104,321729,1,2,0:0:0:0:
283,182,321879,1,2,0:0:0:0:
249,293,322029,1,2,0:0:0:0:
83,320,322179,6,2,B|98:271|101:227|75:204|91:147|115:103,1,200
137,37,322779,1,8,0:0:0:0:
186,192,322929,1,4,0:0:0:0:
186,192,323229,1,8,0:0:0:0:
137,37,323379,1,2,0:0:0:0:
255,32,323829,1,2,0:0:0:0:
255,352,323979,5,8,0:0:0:0:
432,273,324279,1,2,0:0:0:0:
417,90,324579,6,2,P|405:146|418:204,1,100
351,116,324879,2,2,P|362:164|356:213,1,100
165,299,325179,6,2,B|149:271|159:224|159:224|150:202,1,100
125,330,325479,2,2,B|116:308|116:308|126:261|108:228,1,100
44,105,325779,6,2,B|103:91|128:98|171:122|206:125|248:98,1,200
239,102,326379,1,8,0:0:0:0:
190,263,326529,1,2,0:0:0:0:
239,102,326829,1,8,0:0:0:0:
288,263,326979,1,2,0:0:0:0:
7,212,327279,5,2,0:0:0:0:
26,208,327429,1,2,0:0:0:0:
66,199,327579,1,2,0:0:0:0:
186,171,327729,1,2,0:0:0:0:
386,123,327879,2,2,B|445:103|445:103|486:157|449:243,1,200
300,330,328329,6,2,B|294:280|320:240|320:240|272:198|273:127,1,200
191,219,328779,2,2,B|235:191|269:187|311:220|338:217|384:196,1,200
431,83,329229,2,2,B|389:108|389:108|339:69|233:91,1,200
73,61,329679,6,2,L|98:267,1,200
117,275,330129,2,2,L|92:76,1,200
111,91,330579,2,2,L|136:290,1,200
155,308,331029,1,2,0:0:0:0:
165,319,331179,1,2,0:0:0:0:
229,130,331479,5,8,0:0:0:0:
439,199,331779,5,2,0:0:0:0:
392,223,331879,1,2,0:0:0:0:
339,230,331979,1,2,0:0:0:0:
286,221,332079,1,2,0:0:0:0:
233,217,332179,1,2,0:0:0:0:
183,233,332279,1,2,0:0:0:0:
93,271,332379,6,2,B|105:232|109:216|86:184|87:158|105:115,1,150
119,98,332679,1,2,0:0:0:0:
225,47,332829,5,8,0:0:0:0:
168,327,332979,1,2,0:0:0:0:
306,221,333129,1,2,0:0:0:0:
186,159,333279,5,2,0:0:0:0:
168,149,333379,1,2,0:0:0:0:
148,149,333479,1,2,0:0:0:0:
129,154,333579,1,2,0:0:0:0:
109,156,333679,1,2,0:0:0:0:
38,130,333729,5,8,0:0:0:0:
34,108,334029,1,8,0:0:0:0:
53,273,334179,5,2,0:0:0:0:
110,157,334329,1,2,0:0:0:0:
69,270,334479,1,2,0:0:0:0:
181,153,334629,1,2,0:0:0:0:
82,268,334779,1,2,0:0:0:0:
260,172,334929,1,2,0:0:0:0:
142,76,335079,6,2,P|95:74|45:98,1,100
15,182,335379,2,2,P|62:184|112:160,1,100
236,75,335679,6,2,L|300:29,1,59.9999981689454
191,175,335979,6,2,B|174:180|174:180|204:224|171:275,1,100
101,304,336279,6,2,L|75:383,1,80
96,279,336579,2,2,L|108:241,1,40
94,155,336729,2,2,L|106:115,1,40
185,69,336879,6,2,B|216:52|224:26|224:26|292:81|386:62|386:62|354:108|358:135|386:167|386:200|350:279,1,440
357,262,337779,2,2,B|264:232|200:176|200:176|237:227|223:273|223:273|139:204|35:260,1,480
45,84,338979,6,2,L|84:88,1,40
193,127,339129,2,2,B|226:135|243:127|243:127|286:158|328:129|328:129|354:151|394:143,1,200
482,157,339579,6,2,L|443:246,1,80
481,228,339879,2,2,L|417:301,1,80
356,329,340179,5,2,0:0:0:0:
367,341,340329,1,8,0:0:0:0:
256,98,340479,2,2,B|213:44|213:44|110:77|65:178|65:178|126:237|82:342,1,440
86,331,341379,2,2,B|127:312|145:308|165:344|201:344|250:308,2,160
202,64,342279,6,2,B|273:230|273:230|296:195|296:195|252:157|277:108|277:108|345:142|395:99,1,440
333,49,343179,2,2,B|306:121|364:177|364:177|312:187|267:221|251:283|251:283|200:230|111:261,1,440
168,331,344079,2,2,B|209:248|184:169|184:169|204:209|231:228|231:228|263:193|286:187|325:221|362:210|415:167,1,440
336,122,344979,2,2,B|326:209|376:252|376:252|296:251|262:291|262:291|212:194|226:115,1,440
90,52,345879,6,2,B|128:178|118:285|118:285|195:228|284:272|284:272|220:215|209:176|209:176|237:153|251:127,1,600
211,49,347079,6,2,P|244:38|304:55,1,80
96,186,347379,2,2,P|116:157|174:136,1,80
80,328,347679,5,8,0:0:0:0:
70,195,347829,1,2,0:0:0:0:
190,137,347979,1,2,0:0:0:0:
46,266,348129,5,8,0:0:0:0:
78,137,348279,1,2,0:0:0:0:
210,119,348429,1,2,0:0:0:0:
126,215,348579,5,8,0:0:0:0:
261,191,348729,1,2,0:0:0:0:
119,184,348879,1,8,0:0:0:0:
287,214,349029,1,2,0:0:0:0:
126,215,349179,1,8,0:0:0:0:
336,177,349329,1,2,0:0:0:0:
119,184,349479,5,8,0:0:0:0:
66,86,349779,5,2,0:0:0:0:
266,67,349929,1,2,0:0:0:0:
426,54,350079,5,2,0:0:0:0:
419,75,350229,1,2,0:0:0:0:
399,248,350379,5,2,0:0:0:0:
441,153,350529,1,2,0:0:0:0:
266,67,350679,5,2,0:0:0:0:
276,170,350829,1,2,0:0:0:0:
53,250,350979,5,2,0:0:0:0:
148,208,351129,1,2,0:0:0:0:
308,336,351279,6,2,B|305:291|305:291|295:248,1,80
327,319,351579,2,2,B|324:274|324:274|314:231,1,80
331,50,351879,6,2,B|344:82|344:82|368:120,1,80
356,53,352179,2,2,B|369:85|369:85|393:123,1,80
472,207,352479,6,2,L|419:211,1,40
318,200,352629,2,2,B|220:199|220:199|101:219,1,200
10,195,353079,6,2,B|46:104|147:103|147:103|130:43|130:43|198:71|238:131|238:131|197:150|176:174|176:174|259:199|297:277|297:277|330:187|386:179|386:179|378:264|461:316,1,920
475,232,354879,6,2,P|458:180|467:134,1,100
486,33,355179,1,8,0:0:0:0:
340,59,355329,1,2,0:0:0:0:
237,152,355479,6,2,B|215:148|215:148|192:170|192:170|173:156|138:170,1,100
179,250,355779,2,2,B|157:246|157:246|134:268|134:268|115:254|80:268,1,100
296,335,356079,6,2,B|318:323|318:323|318:280|340:240,1,100
401,300,356379,2,2,B|423:288|423:288|423:245|445:205,1,100
81,213,356679,5,8,0:0:0:0:
58,98,356829,1,0,0:0:0:0:
180,290,356979,5,8,0:0:0:0:
187,143,357129,1,2,0:0:0:0:
289,240,357279,6,2,P|313:190|356:148,1,100
437,80,357579,1,4,0:0:0:0:
109,99,357879,6,2,P|136:153|117:184,1,100
111,267,358179,2,2,P|92:222|120:183,1,100
234,84,358479,5,8,0:0:0:0:
257,236,358629,1,2,0:0:0:0:
345,142,358779,2,2,L|331:42,1,100
131,118,359079,2,2,B|146:165|146:165|144:217,1,100
71,319,359379,5,8,0:0:0:0:
149,304,359529,1,2,0:0:0:0:
229,244,359679,1,2,0:0:0:0:
261,128,359829,1,2,0:0:0:0:
171,20,359979,1,2,0:0:0:0:
78,150,360129,1,2,0:0:0:0:
261,128,360279,6,2,B|297:125|319:109|319:109|341:105|375:109,1,100
453,211,360579,2,2,B|417:214|395:230|395:230|373:234|356:231,1,100
107,182,360879,6,2,P|151:196|150:251,1,100
82,339,361179,2,2,L|204:334,1,100
307,350,361479,1,8,0:0:0:0:
225,178,361629,1,2,0:0:0:0:
298,336,361779,1,10,0:0:0:0:
372,154,361929,1,2,0:0:0:0:
179,274,362079,5,8,0:0:0:0:
60,282,362229,1,2,0:0:0:0:
112,174,362379,1,2,0:0:0:0:
166,291,362529,5,8,0:0:0:0:
50,262,362679,1,2,0:0:0:0:
168,110,362829,1,2,0:0:0:0:
261,216,362979,5,8,0:0:0:0:
305,291,363129,1,2,0:0:0:0:
311,302,363204,1,2,0:0:0:0:
315,311,363279,1,2,0:0:0:0:
386,218,363429,5,2,0:0:0:0:
380,207,363504,1,2,0:0:0:0:
374,197,363579,2,2,L|337:136,1,59.9999981689454
264,17,363879,5,8,0:0:0:0:
228,248,364029,1,2,0:0:0:0:
143,161,364179,1,8,0:0:0:0:
374,197,364329,1,2,0:0:0:0:
154,52,364479,1,8,0:0:0:0:
118,283,364629,1,2,0:0:0:0:
21,151,364779,5,8,0:0:0:0:
246,141,364929,1,2,0:0:0:0:
177,73,365079,1,8,0:0:0:0:
187,298,365229,1,2,0:0:0:0:
194,59,365379,6,2,B|219:41|219:41|259:57|308:49,1,119.999996337891
133,150,365679,2,2,B|158:132|158:132|198:148|247:140,1,119.999996337891
391,114,365979,5,8,0:0:0:0:
204,232,366129,1,2,0:0:0:0:
270,124,366279,1,2,0:0:0:0:
347,302,366429,1,2,0:0:0:0:
204,232,366579,2,2,B|188:249|188:249|143:243|99:278,1,119.999996337891
17,153,366879,1,2,0:0:0:0:
308,232,367029,2,2,B|324:249|324:249|369:243|413:278,1,119.999996337891
495,153,367329,1,2,0:0:0:0:
382,65,367479,5,8,0:0:0:0:
354,66,367554,1,0,0:0:0:0:
326,68,367629,1,0,0:0:0:0:
298,70,367704,1,0,0:0:0:0:
270,71,367779,1,0,0:0:0:0:
242,73,367854,1,0,0:0:0:0:
216,63,367929,5,4,0:0:0:0:
225,101,368004,1,0,0:0:0:0:
211,137,368079,1,0,0:0:0:0:
177,158,368154,1,0,0:0:0:0:
138,154,368229,1,0,0:0:0:0:
108,128,368304,1,0,0:0:0:0:
97,89,368379,5,4,0:0:0:0:
90,128,368454,1,0,0:0:0:0:
84,167,368529,1,0,0:0:0:0:
77,207,368604,1,0,0:0:0:0:
71,246,368679,1,0,0:0:0:0:
65,286,368754,1,0,0:0:0:0:
44,320,368829,5,4,0:0:0:0:
75,296,368904,1,0,0:0:0:0:
113,283,368979,1,0,0:0:0:0:
153,284,369054,1,0,0:0:0:0:
191,297,369129,1,0,0:0:0:0:
222,322,369204,1,0,0:0:0:0:
242,356,369279,5,4,0:0:0:0:
254,318,369354,1,0,0:0:0:0:
281,289,369429,1,0,0:0:0:0:
318,275,369504,1,0,0:0:0:0:
357,278,369579,1,0,0:0:0:0:
392,298,369654,1,0,0:0:0:0:
420,326,369729,5,4,0:0:0:0:
416,286,369804,1,0,0:0:0:0:
412,246,369879,1,0,0:0:0:0:
409,206,369954,1,0,0:0:0:0:
405,166,370029,1,0,0:0:0:0:
402,126,370104,1,0,0:0:0:0:
411,87,370179,5,4,0:0:0:0:
392,101,370254,1,0,0:0:0:0:
369,109,370329,1,0,0:0:0:0:
345,108,370404,1,0,0:0:0:0:
323,99,370479,1,0,0:0:0:0:
227,90,370629,5,6,0:0:0:0:
202,114,370704,1,2,0:0:0:0:
223,150,370779,1,2,0:0:0:0:
194,177,370854,1,2,0:0:0:0:
153,179,370929,1,2,0:0:0:0:
144,210,371004,1,2,0:0:0:0:
104,192,371079,5,10,0:0:0:0:
50,32,371229,1,2,0:0:0:0:
14,111,371379,1,8,0:0:0:0:
226,39,371529,1,2,0:0:0:0:
5,248,371679,1,8,0:0:0:0:
217,176,371829,1,2,0:0:0:0:
50,32,371979,5,8,0:0:0:0:
105,302,372129,1,2,0:0:0:0:
5,248,372279,1,8,0:0:0:0:
219,204,372429,1,2,0:0:0:0:
81,104,372579,5,8,0:0:0:0:
93,89,372729,1,2,0:0:0:0:
313,78,372879,5,8,0:0:0:0:
301,93,373029,1,2,0:0:0:0:
196,86,373179,5,8,0:0:0:0:
220,314,373329,1,2,0:0:0:0:
127,237,373479,1,8,0:0:0:0:
355,213,373629,1,2,0:0:0:0:
115,128,373779,5,8,0:0:0:0:
0,184,373929,1,2,0:0:0:0:
105,256,374079,1,2,0:0:0:0:
203,129,374229,5,8,0:0:0:0:
318,185,374379,1,2,0:0:0:0:
213,257,374529,1,2,0:0:0:0:
115,128,374679,5,8,0:0:0:0:
120,117,374754,1,0,0:0:0:0:
124,106,374829,1,0,0:0:0:0:
130,95,374904,1,0,0:0:0:0:
134,83,374979,1,0,0:0:0:0:
139,73,375054,1,0,0:0:0:0:
137,61,375129,5,4,0:0:0:0:
169,84,375204,1,0,0:0:0:0:
206,97,375279,1,0,0:0:0:0:
246,98,375354,1,0,0:0:0:0:
284,87,375429,1,0,0:0:0:0:
317,64,375504,1,0,0:0:0:0:
339,31,375579,5,4,0:0:0:0:
335,70,375654,1,0,0:0:0:0:
331,110,375729,1,0,0:0:0:0:
327,150,375804,1,0,0:0:0:0:
324,190,375879,1,0,0:0:0:0:
320,230,375954,1,0,0:0:0:0:
327,269,376029,5,4,0:0:0:0:
295,246,376104,1,0,0:0:0:0:
256,244,376179,1,0,0:0:0:0:
222,264,376254,1,0,0:0:0:0:
205,300,376329,1,0,0:0:0:0:
211,339,376404,1,0,0:0:0:0:
239,366,376479,5,4,0:0:0:0:
199,361,376554,1,0,0:0:0:0:
159,356,376629,1,0,0:0:0:0:
119,351,376704,1,0,0:0:0:0:
80,346,376779,1,0,0:0:0:0:
40,341,376854,1,0,0:0:0:0:
0,341,376929,5,4,0:0:0:0:
26,311,377004,1,0,0:0:0:0:
44,275,377079,1,0,0:0:0:0:
52,236,377154,1,0,0:0:0:0:
50,196,377229,1,0,0:0:0:0:
37,158,377304,1,0,0:0:0:0:
5,134,377379,5,4,0:0:0:0:
34,123,377454,1,2,0:0:0:0:
62,136,377529,1,2,0:0:0:0:
96,116,377604,1,2,0:0:0:0:
128,98,377679,1,2,0:0:0:0:
153,128,377754,1,2,0:0:0:0:
192,135,377829,1,2,0:0:0:0:
231,127,377904,1,2,0:0:0:0:
284,76,377979,2,0,B|294:85|294:85|308:120,3,40,8|0|0|0,0:0|0:0|0:0|0:0,0:0:0:0:
382,43,378279,5,8,0:0:0:0:
356,224,378429,1,2,0:0:0:0:
264,54,378579,5,8,0:0:0:0:
298,251,378729,1,2,0:0:0:0:
136,88,378879,5,8,0:0:0:0:
238,282,379029,1,2,0:0:0:0:
11,140,379179,5,8,0:0:0:0:
183,308,379329,1,2,0:0:0:0:
73,303,379479,1,2,0:0:0:0:
199,174,379629,1,2,0:0:0:0:
117,61,379779,5,8,0:0:0:0:
134,47,379929,1,2,0:0:0:0:
225,79,380079,6,2,B|255:53|255:53|300:59|339:34,1,119.999996337891
463,22,380379,1,8,0:0:0:0:
422,195,380529,1,2,0:0:0:0:
340,26,380679,5,8,0:0:0:0:
356,225,380829,1,2,0:0:0:0:
206,53,380979,5,8,0:0:0:0:
290,255,381129,1,2,0:0:0:0:
56,138,381279,5,8,0:0:0:0:
235,157,381429,1,2,0:0:0:0:
9,201,381579,5,8,0:0:0:0:
189,281,381729,1,2,0:0:0:0:
129,116,381879,5,8,0:0:0:0:
126,104,381954,1,0,0:0:0:0:
124,92,382029,1,0,0:0:0:0:
122,80,382104,1,0,0:0:0:0:
119,68,382179,1,0,0:0:0:0:
117,57,382254,1,0,0:0:0:0:
110,47,382329,5,4,0:0:0:0:
145,65,382404,1,0,0:0:0:0:
184,74,382479,1,0,0:0:0:0:
224,73,382554,1,0,0:0:0:0:
262,61,382629,1,0,0:0:0:0:
296,41,382704,1,0,0:0:0:0:
317,7,382779,5,4,0:0:0:0:
314,46,382854,1,0,0:0:0:0:
311,86,382929,1,0,0:0:0:0:
308,126,383004,1,0,0:0:0:0:
305,166,383079,1,0,0:0:0:0:
302,206,383154,1,0,0:0:0:0:
297,245,383229,5,4,0:0:0:0:
330,224,383304,1,0,0:0:0:0:
369,226,383379,1,0,0:0:0:0:
401,250,383454,1,0,0:0:0:0:
413,287,383529,1,0,0:0:0:0:
402,325,383604,1,0,0:0:0:0:
414,363,383679,5,4,0:0:0:0:
374,357,383754,1,0,0:0:0:0:
334,352,383829,1,0,0:0:0:0:
295,346,383904,1,0,0:0:0:0:
255,341,383979,1,0,0:0:0:0:
215,335,384054,1,0,0:0:0:0:
176,344,384129,5,4,0:0:0:0:
195,309,384204,1,0,0:0:0:0:
201,269,384279,1,0,0:0:0:0:
194,230,384354,1,0,0:0:0:0:
174,195,384429,1,0,0:0:0:0:
144,169,384504,1,0,0:0:0:0:
109,154,384579,5,4,0:0:0:0:
131,126,384654,1,2,0:0:0:0:
164,116,384729,1,2,0:0:0:0:
187,133,384804,1,2,0:0:0:0:
206,134,384879,1,2,0:0:0:0:
218,116,384954,1,2,0:0:0:0:
234,119,385029,1,2,0:0:0:0:
263,105,385104,1,2,0:0:0:0:
295,74,385179,2,0,B|305:82|305:82|315:124,3,40,8|0|0|0,0:0|0:0|0:0|0:0,0:0:0:0:
372,175,385479,5,8,0:0:0:0:
451,287,385629,1,2,0:0:0:0:
314,299,385779,1,2,0:0:0:0:
381,160,385929,5,8,0:0:0:0:
379,297,386079,1,2,0:0:0:0:
261,226,386229,1,2,0:0:0:0:
387,145,386379,5,8,0:0:0:0:
88,204,386529,1,2,0:0:0:0:
180,90,386679,1,2,0:0:0:0:
222,306,386829,1,2,0:0:0:0:
284,119,386979,5,8,0:0:0:0:
292,99,387129,1,2,0:0:0:0:
204,37,387279,6,2,B|196:67|196:67|159:104|169:156,1,119.999996337891
99,335,387579,1,8,0:0:0:0:
62,157,387729,1,2,0:0:0:0:
93,313,387879,1,8,0:0:0:0:
167,147,388029,1,2,0:0:0:0:
270,357,388179,5,8,0:0:0:0:
255,234,388329,1,2,0:0:0:0:
371,281,388479,1,2,0:0:0:0:
240,106,388629,5,8,0:0:0:0:
342,182,388779,1,2,0:0:0:0:
356,59,388929,1,2,0:0:0:0:
232,209,389079,5,8,0:0:0:0:
214,220,389154,1,0,0:0:0:0:
197,226,389229,1,0,0:0:0:0:
177,228,389304,1,0,0:0:0:0:
157,223,389379,1,0,0:0:0:0:
140,213,389454,1,0,0:0:0:0:
108,213,389529,5,4,0:0:0:0:
140,189,389604,1,0,0:0:0:0:
160,155,389679,1,0,0:0:0:0:
164,116,389754,1,0,0:0:0:0:
152,78,389829,1,0,0:0:0:0:
126,48,389904,1,0,0:0:0:0:
93,26,389979,5,4,0:0:0:0:
132,28,390054,1,0,0:0:0:0:
172,30,390129,1,0,0:0:0:0:
212,33,390204,1,0,0:0:0:0:
252,35,390279,1,0,0:0:0:0:
292,38,390354,1,0,0:0:0:0:
365,20,390429,6,2,B|372:30|372:30|373:65,5,40,2|2|2|2|2|0,0:0|0:0|0:0|0:0|0:0|0:0,0:0:0:0:
302,121,390879,5,4,0:0:0:0:
296,155,390954,1,2,0:0:0:0:
316,185,391029,1,2,0:0:0:0:
286,198,391104,1,2,0:0:0:0:
270,222,391179,1,2,0:0:0:0:
269,258,391254,1,2,0:0:0:0:
220,313,391329,6,0,B|238:328|238:328|271:332,5,40,8|0|0|0|0|0,0:0|0:0|0:0|0:0|0:0|0:0,0:0:0:0:
103,320,391779,5,4,0:0:0:0:
101,296,391854,1,2,0:0:0:0:
105,273,391929,1,2,0:0:0:0:
93,271,392004,1,2,0:0:0:0:
112,269,392079,1,2,0:0:0:0:
110,245,392154,1,2,0:0:0:0:
77,221,392229,5,4,0:0:0:0:
103,197,392304,1,2,0:0:0:0:
127,170,392379,1,2,0:0:0:0:
141,136,392454,1,2,0:0:0:0:
150,102,392529,1,2,0:0:0:0:
175,104,392604,1,2,0:0:0:0:
207,100,392679,6,2,L|249:107,1,40,6|2,0:0|0:0,0:0:0:0:
150,177,392829,2,2,L|189:183,1,40
93,254,392979,2,2,L|132:260,1,40
372,147,393129,6,2,L|332:153,1,40,6|2,0:0|0:0,0:0:0:0:
315,224,393279,2,2,L|275:230,1,40
258,301,393429,2,2,L|218:307,1,40
35,349,393579,6,0,L|27:322,3,20,4|0|0|0,0:0|0:0|0:0|0:0,0:0:0:0:
52,332,393729,2,0,L|46:312,3,20,2|0|0|0,0:0|0:0|0:0|0:0,0:0:0:0:
51,173,393879,6,2,L|33:126,1,40,6|2,0:0|0:0,0:0:0:0:
63,151,394029,2,2,L|45:104,1,40
227,43,394179,2,2,L|242:81,1,40,6|2,0:0|0:0,0:0:0:0:
215,65,394329,2,2,L|230:103,1,40
190,300,394479,6,2,L|172:253,1,40,6|2,0:0|0:0,0:0:0:0:
202,278,394629,2,2,L|184:231,1,40
366,170,394779,2,2,L|380:207,1,40,6|2,0:0|0:0,0:0:0:0:
354,192,394929,2,2,L|368:229,1,40
90,295,395079,5,12,0:0:0:0:
78,291,395154,1,0,0:0:0:0:
83,243,395229,1,0,0:0:0:0:
71,239,395304,1,0,0:0:0:0:
75,191,395379,1,0,0:0:0:0:
63,187,395454,1,0,0:0:0:0:
49,103,395529,5,4,0:0:0:0:
53,114,395604,1,0,0:0:0:0:
101,110,395679,1,0,0:0:0:0:
105,122,395754,1,0,0:0:0:0:
153,118,395829,1,0,0:0:0:0:
157,130,395904,1,0,0:0:0:0:
234,108,395979,5,4,0:0:0:0:
237,131,396054,1,0,0:0:0:0:
241,155,396129,1,0,0:0:0:0:
245,179,396204,1,0,0:0:0:0:
202,191,396279,5,4,0:0:0:0:
212,212,396354,1,0,0:0:0:0:
223,233,396429,1,0,0:0:0:0:
234,255,396504,1,0,0:0:0:0:
197,279,396579,5,4,0:0:0:0:
213,296,396654,1,0,0:0:0:0:
230,313,396729,1,0,0:0:0:0:
247,330,396804,1,0,0:0:0:0:
336,351,396879,5,6,0:0:0:0:
319,314,396954,1,0,0:0:0:0:
317,274,397029,1,0,0:0:0:0:
329,237,397104,1,0,0:0:0:0:
349,211,397179,1,0,0:0:0:0:
365,183,397254,1,0,0:0:0:0:
373,152,397329,1,0,0:0:0:0:
371,120,397404,1,0,0:0:0:0:
363,98,397479,1,0,0:0:0:0:
345,81,397554,1,0,0:0:0:0:
323,72,397629,1,0,0:0:0:0:
299,71,397704,1,0,0:0:0:0:
284,77,397779,1,0,0:0:0:0:
269,84,397854,1,0,0:0:0:0:
254,88,397929,1,0,0:0:0:0:
238,89,398004,1,0,0:0:0:0:
169,79,398079,6,2,B|166:93|166:93|183:140,2,50
249,170,398304,2,2,B|252:184|252:184|235:231,2,50
183,345,398529,6,2,B|186:331|186:331|169:284,2,50
103,254,398754,2,2,B|100:240|100:240|117:193,2,50
124,87,398979,5,4,0:0:0:0:
161,101,399054,1,0,0:0:0:0:
200,102,399129,1,0,0:0:0:0:
238,89,399204,1,0,0:0:0:0:
267,61,399279,5,4,0:0:0:0:
274,89,399354,1,0,0:0:0:0:
295,110,399429,1,0,0:0:0:0:
323,118,399504,1,0,0:0:0:0:
314,152,399579,1,4,0:0:0:0:
330,177,399654,1,0,0:0:0:0:
356,190,399729,1,0,0:0:0:0:
386,189,399804,1,0,0:0:0:0:
424,173,399879,6,2,L|433:221,1,40
343,215,400029,2,2,L|352:263,1,40
262,257,400179,2,2,L|271:305,1,40
154,214,400329,6,2,L|146:174,1,40
235,172,400479,2,2,L|227:132,1,40
316,130,400629,2,2,L|308:90,1,40
194,16,400779,6,2,L|203:64,1,40
113,58,400929,2,2,L|122:106,1,40
32,100,401079,2,2,L|41:148,1,40
131,225,401229,6,2,B|137:239|137:239|123:284,2,59.9999981689454
209,190,401454,2,2,B|203:176|203:176|217:131,2,59.9999981689454
341,41,401679,6,2,B|350:56|350:56|347:107,2,59.9999981689454
424,221,401904,2,2,B|415:206|415:206|418:155,2,59.9999981689454
278,78,402129,5,0,0:0:0:0:
247,68,402204,1,0,0:0:0:0:
215,67,402279,1,0,0:0:0:0:
185,75,402354,1,0,0:0:0:0:
157,91,402429,2,2,P|136:102|107:103,1,40
19,192,402579,5,8,0:0:0:0:
61,218,402654,1,0,0:0:0:0:
110,223,402729,1,0,0:0:0:0:
157,208,402804,1,0,0:0:0:0:
188,182,402879,5,4,0:0:0:0:
223,184,402954,1,0,0:0:0:0:
260,187,403029,1,0,0:0:0:0:
297,189,403104,1,0,0:0:0:0:
332,199,403179,1,0,0:0:0:0:
368,200,403254,1,0,0:0:0:0:
405,203,403329,1,0,0:0:0:0:
442,206,403404,1,0,0:0:0:0:
470,226,403479,5,8,0:0:0:0:
492,182,403554,1,0,0:0:0:0:
491,132,403629,1,0,0:0:0:0:
466,89,403704,1,0,0:0:0:0:
424,64,403779,1,0,0:0:0:0:
374,61,403854,1,0,0:0:0:0:
330,83,403929,1,0,0:0:0:0:
288,110,404004,1,0,0:0:0:0:
243,131,404079,1,0,0:0:0:0:
193,132,404154,1,0,0:0:0:0:
148,113,404229,1,0,0:0:0:0:
113,78,404304,1,0,0:0:0:0:
83,37,404379,5,8,0:0:0:0:
76,86,404454,1,0,0:0:0:0:
70,136,404529,1,0,0:0:0:0:
63,185,404604,1,0,0:0:0:0:
55,235,404679,1,0,0:0:0:0:
57,283,404754,1,0,0:0:0:0:
96,310,404829,1,0,0:0:0:0:
142,296,404904,1,0,0:0:0:0:
174,257,404979,1,0,0:0:0:0:
207,220,405054,1,0,0:0:0:0:
255,210,405129,1,0,0:0:0:0:
300,230,405204,1,0,0:0:0:0:
379,232,405279,6,0,L|387:268,5,29.9999990844727,8|0|0|0|0|0,0:0|0:0|0:0|0:0|0:0|0:0,0:0:0:0:
403,215,405729,2,0,L|411:251,5,29.9999990844727,8|0|0|0|0|0,0:0|0:0|0:0|0:0|0:0|0:0,0:0:0:0:
273,68,406179,6,0,B|266:71|266:71|255:95,3,29.9999990844727,8|0|0|0,0:0|0:0|0:0|0:0,0:0:0:0:
189,58,406479,2,0,B|182:61|182:61|171:85,3,29.9999990844727,8|0|0|0,0:0|0:0|0:0|0:0,0:0:0:0:
105,48,406779,2,0,B|98:51|98:51|87:75,3,29.9999990844727,8|0|0|0,0:0|0:0|0:0|0:0,0:0:0:0:
111,207,407079,5,14,0:0:0:0:
378,171,410679,5,8,0:0:0:0:
363,219,410754,1,2,0:0:0:0:
347,266,410829,1,2,0:0:0:0:
230,197,410979,5,8,0:0:0:0:
215,245,411054,1,2,0:0:0:0:
199,292,411129,1,2,0:0:0:0:
64,343,411279,5,8,0:0:0:0:
412,66,411579,5,8,0:0:0:0:
415,99,411879,1,2,0:0:0:0:
80,125,415479,5,8,0:0:0:0:
119,123,415554,1,0,0:0:0:0:
159,122,415629,1,0,0:0:0:0:
199,121,415704,1,0,0:0:0:0:
233,99,415779,1,8,0:0:0:0:
224,137,415854,1,0,0:0:0:0:
241,172,415929,1,0,0:0:0:0:
276,189,416004,1,0,0:0:0:0:
345,141,416079,5,4,0:0:0:0:
93,351,416679,5,8,0:0:0:0:
116,319,416754,1,0,0:0:0:0:
125,280,416829,1,0,0:0:0:0:
116,241,416904,1,0,0:0:0:0:
95,202,416979,1,0,0:0:0:0:
71,170,417054,1,0,0:0:0:0:
62,131,417129,1,0,0:0:0:0:
71,92,417204,1,0,0:0:0:0:
60,49,417279,5,8,0:0:0:0:
95,66,417354,1,0,0:0:0:0:
135,69,417429,1,0,0:0:0:0:
172,55,417504,1,0,0:0:0:0:
210,43,417579,2,0,P|232:40|260:47,3,40,4|0|0|0,0:0|0:0|0:0|0:0,0:0:0:0:
426,80,417879,5,8,0:0:0:0:
389,67,417954,1,0,0:0:0:0:
349,70,418029,1,0,0:0:0:0:
313,87,418104,1,0,0:0:0:0:
278,104,418179,1,0,0:0:0:0:
241,117,418254,1,0,0:0:0:0:
201,114,418329,1,0,0:0:0:0:
165,97,418404,1,0,0:0:0:0:
135,69,418479,5,8,0:0:0:0:
142,108,418554,1,0,0:0:0:0:
134,147,418629,1,0,0:0:0:0:
112,180,418704,1,0,0:0:0:0:
94,215,418779,1,0,0:0:0:0:
86,254,418854,1,0,0:0:0:0:
94,293,418929,1,0,0:0:0:0:
116,326,419004,1,0,0:0:0:0:
128,363,419079,5,8,0:0:0:0:
154,333,419154,1,0,0:0:0:0:
189,315,419229,1,0,0:0:0:0:
229,311,419304,1,0,0:0:0:0:
268,318,419379,2,0,P|301:323|323:315,3,40,4|0|0|0,0:0|0:0|0:0|0:0,0:0:0:0:
448,336,419679,5,8,0:0:0:0:
422,305,419754,1,0,0:0:0:0:
411,267,419829,1,0,0:0:0:0:
415,227,419904,1,0,0:0:0:0:
432,191,419979,1,0,0:0:0:0:
445,154,420054,1,0,0:0:0:0:
432,116,420129,1,0,0:0:0:0:
399,95,420204,1,0,0:0:0:0:
367,71,420279,5,8,0:0:0:0:
331,89,420354,1,0,0:0:0:0:
292,89,420429,1,0,0:0:0:0:
256,70,420504,1,0,0:0:0:0:
218,58,420579,1,0,0:0:0:0:
179,52,420654,1,0,0:0:0:0:
140,60,420729,1,0,0:0:0:0:
107,82,420804,1,0,0:0:0:0:
67,86,420879,6,0,B|61:100|61:100|66:140,3,40,4|0|0|0,0:0|0:0|0:0|0:0,0:0:0:0:
84,152,421179,1,2,0:0:0:0:
88,171,421254,1,2,0:0:0:0:
88,191,421329,1,2,0:0:0:0:
82,210,421404,1,2,0:0:0:0:
70,226,421479,5,8,0:0:0:0:
106,210,421554,1,0,0:0:0:0:
146,207,421629,1,0,0:0:0:0:
185,215,421704,1,0,0:0:0:0:
222,231,421779,1,0,0:0:0:0:
258,246,421854,1,0,0:0:0:0:
298,249,421929,1,0,0:0:0:0:
337,241,422004,1,0,0:0:0:0:
373,240,422079,1,8,0:0:0:0:
360,219,422154,1,0,0:0:0:0:
352,197,422229,1,0,0:0:0:0:
349,173,422304,1,0,0:0:0:0:
364,136,422379,5,4,0:0:0:0:
325,143,422454,1,0,0:0:0:0:
287,133,422529,1,0,0:0:0:0:
258,106,422604,1,0,0:0:0:0:
224,84,422679,1,0,0:0:0:0:
191,62,422754,1,0,0:0:0:0:
152,59,422829,1,0,0:0:0:0:
116,75,422904,1,0,0:0:0:0:
76,79,422979,1,4,0:0:0:0:
89,98,423054,1,0,0:0:0:0:
97,121,423129,1,0,0:0:0:0:
97,145,423204,1,0,0:0:0:0:
77,179,423279,5,8,0:0:0:0:
62,215,423354,1,0,0:0:0:0:
66,255,423429,1,0,0:0:0:0:
89,287,423504,1,0,0:0:0:0:
124,306,423579,1,0,0:0:0:0:
163,306,423654,1,0,0:0:0:0:
198,288,423729,1,0,0:0:0:0:
227,260,423804,1,0,0:0:0:0:
259,237,423879,1,0,0:0:0:0:
297,227,423954,1,0,0:0:0:0:
336,233,424029,1,0,0:0:0:0:
370,253,424104,1,0,0:0:0:0:
409,256,424179,6,0,L|419:310,3,40,4|0|4|0,0:0|0:0|0:0|0:0,0:0:0:0:
410,174,424479,2,0,P|412:152|402:118,3,40,8|0|0|0,0:0|0:0|0:0|0:0,0:0:0:0:
332,104,424779,2,0,P|330:126|340:160,3,40,8|0|0|0,0:0|0:0|0:0|0:0,0:0:0:0:
246,167,425079,5,8,0:0:0:0:
273,148,425154,1,0,0:0:0:0:
278,186,425229,1,0,0:0:0:0:
255,218,425304,1,0,0:0:0:0:
264,257,425379,5,8,0:0:0:0:
249,233,425454,1,0,0:0:0:0:
220,246,425529,1,0,0:0:0:0:
188,249,425604,1,0,0:0:0:0:
150,241,425679,5,8,0:0:0:0:
148,260,425754,1,0,0:0:0:0:
158,279,425829,1,0,0:0:0:0:
151,297,425904,1,0,0:0:0:0:
160,329,425979,5,8,0:0:0:0:
136,327,426054,1,0,0:0:0:0:
112,328,426129,1,0,0:0:0:0:
90,338,426204,1,0,0:0:0:0:
52,353,426279,5,8,0:0:0:0:
54,321,426354,1,0,0:0:0:0:
57,289,426429,1,0,0:0:0:0:
59,257,426504,1,0,0:0:0:0:
62,225,426579,1,0,0:0:0:0:
64,193,426654,1,0,0:0:0:0:
67,161,426729,1,0,0:0:0:0:
69,129,426804,1,0,0:0:0:0:
57,100,426879,5,8,0:0:0:0:
89,122,426954,1,0,0:0:0:0:
128,127,427029,1,0,0:0:0:0:
165,112,427104,1,0,0:0:0:0:
203,98,427179,2,0,P|223:94|255:99,3,40,4|0|0|0,0:0|0:0|0:0|0:0,0:0:0:0:
396,51,427479,5,8,0:0:0:0:
382,79,427554,1,0,0:0:0:0:
377,111,427629,1,0,0:0:0:0:
382,142,427704,1,0,0:0:0:0:
387,173,427779,1,0,0:0:0:0:
396,203,427854,1,0,0:0:0:0:
392,235,427929,1,0,0:0:0:0:
376,263,428004,1,0,0:0:0:0:
385,301,428079,5,8,0:0:0:0:
348,317,428154,1,0,0:0:0:0:
309,315,428229,1,0,0:0:0:0:
274,296,428304,1,0,0:0:0:0:
251,264,428379,1,0,0:0:0:0:
246,225,428454,1,0,0:0:0:0:
258,187,428529,1,0,0:0:0:0:
278,152,428604,1,0,0:0:0:0:
304,122,428679,5,8,0:0:0:0:
264,128,428754,1,0,0:0:0:0:
225,122,428829,1,0,0:0:0:0:
189,104,428904,1,0,0:0:0:0:
151,91,428979,2,0,P|133:86|97:92,3,40,4|0|0|0,0:0|0:0|0:0|0:0,0:0:0:0:
13,38,429279,5,8,0:0:0:0:
32,72,429354,1,0,0:0:0:0:
39,111,429429,1,0,0:0:0:0:
34,151,429504,1,0,0:0:0:0:
21,189,429579,1,0,0:0:0:0:
12,227,429654,1,0,0:0:0:0:
30,262,429729,1,0,0:0:0:0:
65,278,429804,1,0,0:0:0:0:
91,307,429879,5,8,0:0:0:0:
112,274,429954,1,0,0:0:0:0:
147,255,430029,1,0,0:0:0:0:
187,257,430104,1,0,0:0:0:0:
224,269,430179,1,0,0:0:0:0:
261,281,430254,1,0,0:0:0:0:
301,278,430329,1,0,0:0:0:0:
335,258,430404,1,0,0:0:0:0:
370,239,430479,6,2,B|400:219|432:236|432:236|406:139|451:89,1,209.999993591309,6|2,0:0|0:0,0:0:0:0:
446,23,430779,2,2,B|417:26|387:8|387:8|389:47|389:47|343:24|270:30,1,209.999993591309
145,30,431079,5,8,0:0:0:0:
147,69,431154,1,0,0:0:0:0:
141,109,431229,1,0,0:0:0:0:
125,146,431304,1,0,0:0:0:0:
106,180,431379,1,0,0:0:0:0:
89,216,431454,1,0,0:0:0:0:
88,255,431529,1,0,0:0:0:0:
103,292,431604,1,0,0:0:0:0:
100,330,431679,5,8,0:0:0:0:
134,309,431754,1,0,0:0:0:0:
173,304,431829,1,0,0:0:0:0:
211,315,431904,1,0,0:0:0:0:
243,340,431979,1,4,0:0:0:0:
261,305,432054,1,0,0:0:0:0:
296,287,432129,1,0,0:0:0:0:
334,293,432204,1,0,0:0:0:0:
373,304,432279,1,0,0:0:0:0:
411,313,432354,1,0,0:0:0:0:
445,293,432429,1,0,0:0:0:0:
455,255,432504,1,0,0:0:0:0:
467,225,432579,5,8,0:0:0:0:
448,204,432654,1,0,0:0:0:0:
438,178,432729,1,0,0:0:0:0:
436,151,432804,1,0,0:0:0:0:
443,124,432879,1,8,0:0:0:0:
409,145,432954,1,0,0:0:0:0:
369,150,433029,1,0,0:0:0:0:
331,139,433104,1,0,0:0:0:0:
294,124,433179,1,0,0:0:0:0:
256,111,433254,1,0,0:0:0:0:
217,115,433329,1,0,0:0:0:0:
183,136,433404,1,0,0:0:0:0:
111,126,433479,6,0,B|108:140|108:140|117:178,3,40,8|0|0|0,0:0|0:0|0:0|0:0,0:0:0:0:
199,224,433779,2,0,B|196:238|196:238|205:276,3,40,8|0|0|0,0:0|0:0|0:0|0:0,0:0:0:0:
447,328,434079,6,0,B|450:314|450:314|441:276,3,40,8|0|0|0,0:0|0:0|0:0|0:0,0:0:0:0:
359,230,434379,2,0,B|362:216|362:216|353:178,3,40,8|0|0|0,0:0|0:0|0:0|0:0,0:0:0:0:
295,51,434679,5,4,0:0:0:0:
190,67,434779,1,2,0:0:0:0:
84,82,434879,1,2,0:0:0:0:
202,79,434979,5,4,0:0:0:0:
261,163,435079,1,2,0:0:0:0:
241,268,435179,1,2,0:0:0:0:
100,181,435279,5,4,0:0:0:0:
401,32,435879,5,8,0:0:0:0:
420,67,435954,1,0,0:0:0:0:
425,106,436029,1,0,0:0:0:0:
418,145,436104,1,0,0:0:0:0:
406,184,436179,1,0,0:0:0:0:
399,223,436254,1,0,0:0:0:0:
408,261,436329,1,0,0:0:0:0:
432,293,436404,1,0,0:0:0:0:
458,322,436479,5,8,0:0:0:0:
420,335,436554,1,0,0:0:0:0:
381,339,436629,1,0,0:0:0:0:
341,334,436704,1,0,0:0:0:0:
302,324,436779,2,0,P|278:320|247:326,3,40,4|0|0|0,0:0|0:0|0:0|0:0,0:0:0:0:
161,329,437079,5,8,0:0:0:0:
173,299,437154,1,0,0:0:0:0:
175,267,437229,1,0,0:0:0:0:
166,237,437304,1,0,0:0:0:0:
154,207,437379,1,0,0:0:0:0:
141,177,437454,1,0,0:0:0:0:
139,146,437529,1,0,0:0:0:0:
148,115,437604,1,0,0:0:0:0:
135,85,437679,5,8,0:0:0:0:
160,104,437754,1,0,0:0:0:0:
191,111,437829,1,0,0:0:0:0:
222,104,437904,1,0,0:0:0:0:
251,91,437979,1,0,0:0:0:0:
279,76,438054,1,0,0:0:0:0:
310,73,438129,1,0,0:0:0:0:
340,85,438204,1,0,0:0:0:0:
371,79,438279,5,8,0:0:0:0:
361,101,438354,1,0,0:0:0:0:
359,124,438429,1,0,0:0:0:0:
363,148,438504,1,0,0:0:0:0:
380,175,438579,5,4,0:0:0:0:
394,212,438654,1,0,0:0:0:0:
396,251,438729,1,0,0:0:0:0:
384,289,438804,1,0,0:0:0:0:
389,329,438879,5,8,0:0:0:0:
350,301,438954,1,0,0:0:0:0:
303,289,439029,1,0,0:0:0:0:
256,296,439104,1,0,0:0:0:0:
211,311,439179,1,0,0:0:0:0:
164,314,439254,1,0,0:0:0:0:
125,288,439329,1,0,0:0:0:0:
111,243,439404,1,0,0:0:0:0:
87,201,439479,5,8,0:0:0:0:
132,215,439554,1,0,0:0:0:0:
180,214,439629,1,0,0:0:0:0:
224,197,439704,1,0,0:0:0:0:
268,176,439779,1,0,0:0:0:0:
313,159,439854,1,0,0:0:0:0:
360,163,439929,1,0,0:0:0:0:
401,187,440004,1,0,0:0:0:0:
468,233,440079,5,12,0:0:0:0:
44,151,440379,1,4,0:0:0:0:
185,54,440679,6,2,B|186:106|212:131|212:131|170:126|170:126|192:161|168:226,1,209.999993591309,6|2,0:0|0:0,0:0:0:0:
263,69,440979,1,4,0:0:0:0:
185,54,441279,5,8,0:0:0:0:
187,77,441354,1,0,0:0:0:0:
193,100,441429,1,0,0:0:0:0:
204,122,441504,1,0,0:0:0:0:
217,139,441579,5,8,0:0:0:0:
195,172,441654,1,0,0:0:0:0:
188,211,441729,1,0,0:0:0:0:
199,249,441804,1,0,0:0:0:0:
212,287,441879,1,8,0:0:0:0:
240,259,441954,1,0,0:0:0:0:
277,245,442029,1,0,0:0:0:0:
317,249,442104,1,0,0:0:0:0:
354,263,442179,1,0,0:0:0:0:
391,274,442254,1,0,0:0:0:0:
429,262,442329,1,0,0:0:0:0:
454,231,442404,1,0,0:0:0:0:
452,195,442479,6,0,L|456:147,3,40,8|0|0|0,0:0|0:0|0:0|0:0,0:0:0:0:
346,144,442779,2,0,L|349:96,3,40,8|0|0|0,0:0|0:0|0:0|0:0,0:0:0:0:
289,52,443079,1,8,0:0:0:0:
250,41,443154,1,0,0:0:0:0:
210,44,443229,1,0,0:0:0:0:
174,59,443304,1,0,0:0:0:0:
136,73,443379,2,0,P|108:78|88:71,3,40,4|0|0|0,0:0|0:0|0:0|0:0,0:0:0:0:
21,45,443679,5,8,0:0:0:0:
27,92,443754,1,0,0:0:0:0:
33,140,443829,1,0,0:0:0:0:
39,187,443904,1,0,0:0:0:0:
46,235,443979,1,0,0:0:0:0:
61,279,444054,1,0,0:0:0:0:
101,304,444129,1,0,0:0:0:0:
148,299,444204,1,0,0:0:0:0:
172,272,444279,5,8,0:0:0:0:
209,284,444354,1,0,0:0:0:0:
234,261,444429,1,0,0:0:0:0:
253,240,444504,1,0,0:0:0:0:
247,217,444579,5,4,0:0:0:0:
271,203,444654,1,0,0:0:0:0:
259,193,444729,1,0,0:0:0:0:
279,194,444804,1,0,0:0:0:0:
277,170,444879,5,4,0:0:0:0:
278,150,444954,1,0,0:0:0:0:
272,132,445029,1,0,0:0:0:0:
273,112,445104,1,0,0:0:0:0:
257,93,445179,5,4,0:0:0:0:
280,97,445254,1,0,0:0:0:0:
299,89,445329,1,0,0:0:0:0:
322,84,445404,1,0,0:0:0:0:
353,73,445479,6,2,B|393:42|432:54|432:54|388:155|441:216|441:216|387:208|342:240,1,350
251,269,446079,1,2,0:0:0:0:
81,293,446379,6,2,B|98:255|98:255|75:196|94:133,1,150
61,143,446679,1,8,0:0:0:0:
73,127,446829,1,2,0:0:0:0:
85,111,446979,1,2,0:0:0:0:
460,62,447279,6,0,B|387:39|341:45|341:45|366:88|366:88|286:40|177:84,1,350
213,92,447879,1,2,0:0:0:0:
207,116,447954,1,2,0:0:0:0:
202,140,448029,1,2,0:0:0:0:
197,165,448104,1,2,0:0:0:0:
195,190,448179,6,2,B|253:217|302:197|302:197|341:220,1,150
298,232,448479,1,8,0:0:0:0:
291,251,448629,1,2,0:0:0:0:
285,270,448779,1,2,0:0:0:0:
155,326,449079,6,0,B|142:283|142:283|156:237|153:197|153:197|148:176,1,150
69,153,449379,1,8,0:0:0:0:
77,135,449529,1,2,0:0:0:0:
72,39,449829,5,8,0:0:0:0:
249,104,449979,1,2,0:0:0:0:
72,39,450279,5,8,0:0:0:0:
78,68,450354,1,0,0:0:0:0:
79,98,450429,1,0,0:0:0:0:
76,127,450504,1,0,0:0:0:0:
69,158,450579,1,0,0:0:0:0:
63,187,450654,1,0,0:0:0:0:
75,214,450729,1,0,0:0:0:0:
99,230,450804,1,0,0:0:0:0:
127,220,450879,5,8,0:0:0:0:
124,249,450954,1,0,0:0:0:0:
132,278,451029,1,0,0:0:0:0:
151,301,451104,1,0,0:0:0:0:
176,317,451179,1,0,0:0:0:0:
205,322,451254,1,0,0:0:0:0:
235,316,451329,1,0,0:0:0:0:
260,300,451404,1,0,0:0:0:0:
282,280,451479,5,8,0:0:0:0:
311,273,451554,1,0,0:0:0:0:
341,274,451629,1,0,0:0:0:0:
370,281,451704,1,0,0:0:0:0:
397,293,451779,1,0,0:0:0:0:
422,307,451854,1,0,0:0:0:0:
451,301,451929,1,0,0:0:0:0:
468,278,452004,1,0,0:0:0:0:
483,252,452079,5,8,0:0:0:0:
454,245,452154,1,0,0:0:0:0:
432,225,452229,1,0,0:0:0:0:
421,197,452304,1,0,0:0:0:0:
422,167,452379,1,0,0:0:0:0:
423,138,452454,1,0,0:0:0:0:
407,113,452529,1,0,0:0:0:0:
380,102,452604,1,0,0:0:0:0:
309,80,452679,5,8,0:0:0:0:
297,75,452754,1,0,0:0:0:0:
285,70,452829,2,2,L|270:103,1,29.9999990844727
287,220,452979,1,4,0:0:0:0:
299,225,453054,1,0,0:0:0:0:
311,230,453129,2,2,L|326:197,1,29.9999990844727
141,263,453279,5,8,0:0:0:0:
129,268,453354,1,0,0:0:0:0:
117,273,453429,2,2,L|102:240,1,29.9999990844727
119,123,453579,1,4,0:0:0:0:
131,118,453654,1,0,0:0:0:0:
143,113,453729,2,2,L|158:146,1,29.9999990844727
266,88,453879,5,8,0:0:0:0:
294,77,453954,1,0,0:0:0:0:
323,80,454029,1,0,0:0:0:0:
352,86,454104,1,0,0:0:0:0:
382,80,454179,5,8,0:0:0:0:
373,109,454254,1,0,0:0:0:0:
372,139,454329,1,0,0:0:0:0:
380,168,454404,1,0,0:0:0:0:
392,193,454479,2,0,L|392:234,3,29.9999990844727,8|0|0|0,0:0|0:0|0:0|0:0,0:0:0:0:
168,322,454779,5,8,0:0:0:0:
170,301,454854,1,0,0:0:0:0:
173,280,454929,1,0,0:0:0:0:
175,259,455004,1,0,0:0:0:0:
178,238,455079,5,8,0:0:0:0:
173,69,455229,1,2,0:0:0:0:
100,174,455379,1,8,0:0:0:0:
294,168,455529,1,2,0:0:0:0:
251,277,455679,1,8,0:0:0:0:
246,108,455829,1,2,0:0:0:0:
155,237,455979,1,8,0:0:0:0:
349,231,456129,1,2,0:0:0:0:
119,113,456279,5,8,0:0:0:0:
73,311,456429,1,2,0:0:0:0:
155,237,456579,5,8,0:0:0:0:
173,213,456654,1,0,0:0:0:0:
199,200,456729,1,0,0:0:0:0:
229,202,456804,1,0,0:0:0:0:
259,184,456879,6,0,B|274:192|274:192|287:185|314:194,3,50,8|0|0|0,0:0|0:0|0:0|0:0,0:0:0:0:
367,108,457179,2,0,B|352:100|352:100|339:107|312:98,3,50,8|0|0|0,0:0|0:0|0:0|0:0,0:0:0:0:
185,43,457479,5,8,0:0:0:0:
179,72,457554,1,0,0:0:0:0:
182,102,457629,1,0,0:0:0:0:
193,130,457704,1,0,0:0:0:0:
200,158,457779,1,0,0:0:0:0:
206,187,457854,1,0,0:0:0:0:
203,217,457929,1,0,0:0:0:0:
192,245,458004,1,0,0:0:0:0:
172,267,458079,5,8,0:0:0:0:
210,256,458154,1,0,0:0:0:0:
250,257,458229,1,0,0:0:0:0:
287,271,458304,1,0,0:0:0:0:
321,285,458379,1,0,0:0:0:0:
359,294,458454,1,0,0:0:0:0:
399,288,458529,1,0,0:0:0:0:
433,269,458604,1,0,0:0:0:0:
494,220,458679,6,0,B|507:233|507:233|512:281,3,50,8|0|0|0,0:0|0:0|0:0|0:0,0:0:0:0:
499,130,458979,1,8,0:0:0:0:
474,132,459054,1,0,0:0:0:0:
449,135,459129,1,0,0:0:0:0:
424,137,459204,1,0,0:0:0:0:
399,140,459279,5,8,0:0:0:0:
251,98,459429,1,2,0:0:0:0:
322,324,459579,1,2,0:0:0:0:
362,48,459879,5,8,0:0:0:0:
313,151,460029,1,2,0:0:0:0:
427,143,460179,1,2,0:0:0:0:
168,40,460329,5,8,0:0:0:0:
232,134,460479,1,2,0:0:0:0:
281,31,460629,1,2,0:0:0:0:
64,205,460779,5,8,0:0:0:0:
177,196,460929,1,2,0:0:0:0:
112,102,461079,1,2,0:0:0:0:
12,310,461229,5,8,0:0:0:0:
103,266,461379,1,8,0:0:0:0:
140,248,461454,1,0,0:0:0:0:
182,243,461529,1,0,0:0:0:0:
223,251,461604,1,0,0:0:0:0:
253,270,461679,5,8,0:0:0:0:
269,256,461754,1,0,0:0:0:0:
289,250,461829,1,0,0:0:0:0:
309,252,461904,1,0,0:0:0:0:
328,260,461979,1,2,0:0:0:0:
348,231,462054,1,2,0:0:0:0:
356,198,462129,1,2,0:0:0:0:
351,163,462204,1,2,0:0:0:0:
314,94,462279,5,8,0:0:0:0:
315,66,462354,1,2,0:0:0:0:
317,38,462429,1,2,0:0:0:0:
212,197,462579,5,0,0:0:0:0:
153,96,462729,1,8,0:0:0:0:
154,68,462804,1,2,0:0:0:0:
156,40,462879,1,2,0:0:0:0:
32,163,463029,5,4,0:0:0:0:
100,247,463179,1,8,0:0:0:0:
99,275,463254,1,0,0:0:0:0:
97,303,463329,1,0,0:0:0:0:
97,331,463404,1,0,0:0:0:0:
88,357,463479,5,8,0:0:0:0:
124,337,463554,1,0,0:0:0:0:
166,331,463629,1,0,0:0:0:0:
206,340,463704,1,0,0:0:0:0:
244,359,463779,1,8,0:0:0:0:
256,318,463854,1,0,0:0:0:0:
258,277,463929,1,0,0:0:0:0:
249,236,464004,1,0,0:0:0:0:
236,196,464079,1,8,0:0:0:0:
269,222,464154,1,0,0:0:0:0:
309,231,464229,1,0,0:0:0:0:
350,221,464304,1,0,0:0:0:0:
387,203,464379,1,8,0:0:0:0:
443,43,464679,5,8,0:0:0:0:
387,289,464829,1,2,0:0:0:0:
265,95,464979,1,8,0:0:0:0:
499,149,465129,1,2,0:0:0:0:
350,44,465279,1,8,0:0:0:0:
294,290,465429,1,2,0:0:0:0:
489,154,465579,1,8,0:0:0:0:
229,213,465729,1,2,0:0:0:0:
173,27,465879,5,8,0:0:0:0:
169,46,466029,1,2,0:0:0:0:
76,95,466179,5,8,0:0:0:0:
79,119,466254,1,0,0:0:0:0:
77,144,466329,1,0,0:0:0:0:
71,168,466404,1,0,0:0:0:0:
54,193,466479,1,2,0:0:0:0:
83,197,466554,1,0,0:0:0:0:
113,194,466629,1,0,0:0:0:0:
141,185,466704,1,0,0:0:0:0:
166,168,466779,1,0,0:0:0:0:
194,159,466854,1,0,0:0:0:0:
224,160,466929,1,0,0:0:0:0:
252,171,467004,1,0,0:0:0:0:
280,160,467079,5,8,0:0:0:0:
282,199,467154,1,0,0:0:0:0:
280,239,467229,1,0,0:0:0:0:
273,279,467304,1,0,0:0:0:0:
266,318,467379,1,0,0:0:0:0:
286,352,467454,1,0,0:0:0:0:
322,368,467529,1,0,0:0:0:0:
361,361,467604,1,0,0:0:0:0:
388,333,467679,6,0,P|415:322|448:326,3,50,8|0|0|0,0:0|0:0|0:0|0:0,0:0:0:0:
422,231,467979,2,0,P|451:228|481:242,3,50,8|0|0|0,0:0|0:0|0:0|0:0,0:0:0:0:
412,32,468279,5,8,0:0:0:0:
335,210,468429,1,2,0:0:0:0:
283,39,468579,5,8,0:0:0:0:
275,261,468729,1,2,0:0:0:0:
130,65,468879,5,8,0:0:0:0:
141,173,469029,1,2,0:0:0:0:
30,247,469179,1,2,0:0:0:0:
446,188,469479,5,8,0:0:0:0:
346,277,469629,1,2,0:0:0:0:
319,146,469779,1,2,0:0:0:0:
444,229,469929,5,8,0:0:0:0:
313,256,470079,1,2,0:0:0:0:
356,129,470229,1,2,0:0:0:0:
422,263,470379,5,8,0:0:0:0:
296,221,470529,1,2,0:0:0:0:
395,131,470679,1,2,0:0:0:0:
387,280,470829,5,8,0:0:0:0:
281,140,470979,5,8,0:0:0:0:
263,128,471054,1,0,0:0:0:0:
249,112,471129,1,0,0:0:0:0:
238,94,471204,1,0,0:0:0:0:
234,74,471279,1,0,0:0:0:0:
223,56,471354,1,0,0:0:0:0:
207,42,471429,1,0,0:0:0:0:
187,34,471504,1,0,0:0:0:0:
161,25,471579,5,8,0:0:0:0:
153,51,471654,1,2,0:0:0:0:
153,79,471729,1,2,0:0:0:0:
160,106,471804,1,2,0:0:0:0:
177,138,471879,5,8,0:0:0:0:
179,165,471954,1,2,0:0:0:0:
181,193,472029,1,2,0:0:0:0:
112,293,472179,1,4,0:0:0:0:
278,132,472329,5,8,0:0:0:0:
305,130,472404,1,2,0:0:0:0:
333,128,472479,1,2,0:0:0:0:
433,197,472629,1,4,0:0:0:0:
262,326,472779,5,8,0:0:0:0:
260,298,472854,1,0,0:0:0:0:
258,271,472929,1,0,0:0:0:0:
256,244,473004,1,0,0:0:0:0:
222,177,473079,6,0,B|245:167|245:167|303:173,3,69.9999978637696,8|0|0|0,0:0|0:0|0:0|0:0,0:0:0:0:
188,79,473379,2,0,B|165:89|165:89|107:83,3,69.9999978637696,8|0|0|0,0:0|0:0|0:0|0:0,0:0:0:0:
50,156,473679,1,8,0:0:0:0:
52,183,473754,1,0,0:0:0:0:
55,211,473829,1,0,0:0:0:0:
57,239,473904,1,0,0:0:0:0:
50,273,473979,5,8,0:0:0:0:
88,255,474054,1,0,0:0:0:0:
129,248,474129,1,0,0:0:0:0:
171,251,474204,1,0,0:0:0:0:
210,265,474279,5,8,0:0:0:0:
406,330,474429,1,2,0:0:0:0:
306,348,474579,1,8,0:0:0:0:
376,134,474729,1,2,0:0:0:0:
408,241,474879,1,8,0:0:0:0:
192,169,475029,1,2,0:0:0:0:
210,265,475179,1,8,0:0:0:0:
280,51,475329,1,2,0:0:0:0:
91,108,475479,5,8,0:0:0:0:
404,69,475629,1,6,0:0:0:0:
140,208,476679,5,8,0:0:0:0:
145,184,476754,1,2,0:0:0:0:
150,161,476829,1,2,0:0:0:0:
232,68,476979,1,4,0:0:0:0:
280,300,477129,5,8,0:0:0:0:
256,294,477204,1,2,0:0:0:0:
233,289,477279,1,2,0:0:0:0:
140,208,477429,1,4,0:0:0:0:
232,68,477579,5,8,0:0:0:0:
256,74,477654,1,0,0:0:0:0:
279,79,477729,1,0,0:0:0:0:
302,84,477804,1,0,0:0:0:0:
330,75,477879,5,8,0:0:0:0:
323,110,477954,1,0,0:0:0:0:
332,144,478029,1,0,0:0:0:0:
355,171,478104,1,0,0:0:0:0:
387,188,478179,5,8,0:0:0:0:
396,216,478254,1,0,0:0:0:0:
384,243,478329,5,6,0:0:0:0:
372,275,478404,1,0,0:0:0:0:
385,308,478479,5,8,0:0:0:0:
343,304,478554,1,0,0:0:0:0:
301,301,478629,1,0,0:0:0:0:
259,298,478704,1,0,0:0:0:0:
220,281,478779,6,0,L|144:276,3,59.9999981689454,8|0|0|0,0:0|0:0|0:0|0:0,0:0:0:0:
55,164,479079,2,2,L|108:167,1,40
250,196,479229,2,2,L|196:192,1,40
108,69,479379,2,2,L|161:72,1,40
303,101,479529,2,2,L|249:97,1,40
7,42,479679,6,2,L|2:87,1,40
55,164,479829,2,2,L|50:209,1,40
205,34,479979,2,2,L|200:79,1,40
253,156,480129,2,2,L|248:201,1,40
365,51,480279,6,0,B|370:48|370:48|420:51,3,40,8|0|0|0,0:0|0:0|0:0|0:0,0:0:0:0:
436,140,480579,1,4,0:0:0:0:
405,145,480654,1,0,0:0:0:0:
384,169,480729,1,0,0:0:0:0:
382,200,480804,1,0,0:0:0:0:
396,229,480879,5,8,0:0:0:0:
356,221,480954,1,0,0:0:0:0:
316,220,481029,1,0,0:0:0:0:
277,228,481104,1,0,0:0:0:0:
252,207,481179,5,8,0:0:0:0:
224,221,481254,1,0,0:0:0:0:
210,250,481329,1,0,0:0:0:0:
215,281,481404,1,0,0:0:0:0:
229,309,481479,5,8,0:0:0:0:
188,334,481554,1,0,0:0:0:0:
141,334,481629,1,0,0:0:0:0:
100,310,481704,1,0,0:0:0:0:
78,268,481779,1,0,0:0:0:0:
82,220,481854,1,0,0:0:0:0:
109,182,481929,1,0,0:0:0:0:
153,163,482004,1,0,0:0:0:0:
200,167,482079,1,0,0:0:0:0:
247,169,482154,1,0,0:0:0:0:
286,142,482229,1,0,0:0:0:0:
300,97,482304,1,0,0:0:0:0:
284,53,482379,1,0,0:0:0:0:
244,28,482454,1,0,0:0:0:0:
198,32,482529,1,0,0:0:0:0:
163,64,482604,1,0,0:0:0:0:
95,89,482679,6,2,B|97:101|97:101|128:126,1,40
56,97,482829,2,2,B|58:109|58:109|89:134,1,40
122,267,482979,6,2,P|145:239|161:226,1,40
149,265,483129,2,2,P|179:245|198:238,1,40
276,116,483279,6,2,L|321:118,1,40
288,132,483429,2,2,L|333:134,1,40
466,91,483579,5,6,0:0:0:0:
381,308,483879,5,8,0:0:0:0:
364,56,484029,1,2,0:0:0:0:
472,141,484179,1,8,0:0:0:0:
220,158,484329,1,2,0:0:0:0:
467,38,484479,5,8,0:0:0:0:
241,289,484629,1,2,0:0:0:0:
242,73,484779,1,8,0:0:0:0:
425,305,484929,1,2,0:0:0:0:
371,30,485079,5,8,0:0:0:0:
297,156,485229,1,2,0:0:0:0:
293,160,485304,1,2,0:0:0:0:
289,164,485379,2,0,L|234:213,3,59.9999981689454,8|0|0|0,0:0|0:0|0:0|0:0,0:0:0:0:
82,197,485679,2,0,P|116:181|137:148,3,59.9999981689454,8|0|0|0,0:0|0:0|0:0|0:0,0:0:0:0:
184,40,485979,2,0,B|189:59|189:59|223:84,3,59.9999981689454,8|0|0|0,0:0|0:0|0:0|0:0,0:0:0:0:
368,145,486279,5,8,0:0:0:0:
365,168,486354,1,2,0:0:0:0:
363,192,486429,1,2,0:0:0:0:
268,321,486579,1,4,0:0:0:0:
205,111,486729,5,8,0:0:0:0:
202,134,486804,1,2,0:0:0:0:
200,158,486879,1,2,0:0:0:0:
105,287,487029,1,4,0:0:0:0:
276,140,487179,5,8,0:0:0:0:
299,143,487254,1,0,0:0:0:0:
323,145,487329,1,0,0:0:0:0:
347,147,487404,1,0,0:0:0:0:
374,136,487479,5,8,0:0:0:0:
360,169,487554,1,0,0:0:0:0:
360,204,487629,1,0,0:0:0:0:
374,237,487704,1,0,0:0:0:0:
398,264,487779,1,8,0:0:0:0:
362,270,487854,1,0,0:0:0:0:
331,288,487929,1,0,0:0:0:0:
295,283,488004,1,0,0:0:0:0:
248,294,488079,5,8,0:0:0:0:
251,246,488154,1,0,0:0:0:0:
255,198,488229,1,0,0:0:0:0:
258,150,488304,1,0,0:0:0:0:
252,121,488379,6,0,B|264:109|264:109|270:54,3,59.9999981689454,8|0|0|0,0:0|0:0|0:0|0:0,0:0:0:0:
112,60,488679,1,8,0:0:0:0:
400,34,488829,1,2,0:0:0:0:
96,61,488979,1,8,0:0:0:0:
447,142,489129,1,2,0:0:0:0:
206,26,489279,5,8,0:0:0:0:
188,291,489429,1,2,0:0:0:0:
96,199,489579,1,8,0:0:0:0:
414,220,489729,1,2,0:0:0:0:
111,87,489879,5,8,0:0:0:0:
200,105,490029,1,2,0:0:0:0:
218,105,490104,1,2,0:0:0:0:
234,97,490179,1,8,0:0:0:0:
268,105,490254,1,0,0:0:0:0:
304,106,490329,1,0,0:0:0:0:
339,98,490404,1,0,0:0:0:0:
369,77,490479,5,8,0:0:0:0:
355,116,490554,1,0,0:0:0:0:
351,158,490629,1,0,0:0:0:0:
357,199,490704,1,0,0:0:0:0:
374,231,490779,1,8,0:0:0:0:
328,244,490854,1,0,0:0:0:0:
280,241,490929,1,0,0:0:0:0:
236,221,491004,1,0,0:0:0:0:
198,192,491079,5,8,0:0:0:0:
152,179,491154,1,0,0:0:0:0:
107,193,491229,1,0,0:0:0:0:
77,230,491304,1,0,0:0:0:0:
71,277,491379,1,0,0:0:0:0:
93,319,491454,1,0,0:0:0:0:
133,343,491529,1,0,0:0:0:0:
181,341,491604,1,0,0:0:0:0:
224,320,491679,1,0,0:0:0:0:
268,304,491754,1,0,0:0:0:0:
316,300,491829,1,0,0:0:0:0:
363,311,491904,1,0,0:0:0:0:
402,338,491979,5,8,0:0:0:0:
397,290,492054,1,0,0:0:0:0:
392,242,492129,1,0,0:0:0:0:
387,194,492204,1,0,0:0:0:0:
395,147,492279,5,8,0:0:0:0:
353,169,492354,1,0,0:0:0:0:
305,170,492429,1,0,0:0:0:0:
263,149,492504,1,0,0:0:0:0:
215,146,492579,5,8,0:0:0:0:
227,101,492654,1,0,0:0:0:0:
204,60,492729,1,0,0:0:0:0:
159,48,492804,1,0,0:0:0:0:
89,25,492879,6,0,B|83:43|83:43|89:93,3,59.9999981689454,8|0|0|0,0:0|0:0|0:0|0:0,0:0:0:0:
213,204,493179,2,0,B|219:186|219:186|213:136,3,59.9999981689454,8|0|0|0,0:0|0:0|0:0|0:0,0:0:0:0:
39,167,493479,5,8,0:0:0:0:
44,208,493554,1,2,0:0:0:0:
49,250,493629,1,2,0:0:0:0:
16,358,493779,1,4,0:0:0:0:
171,190,493929,5,8,0:0:0:0:
213,195,494004,1,2,0:0:0:0:
255,200,494079,1,2,0:0:0:0:
362,166,494229,1,4,0:0:0:0:
264,54,494379,5,8,0:0:0:0:
205,59,494454,1,2,0:0:0:0:
145,63,494529,1,2,0:0:0:0:
85,67,494604,1,2,0:0:0:0:
7,82,494679,5,14,0:0:0:0:
