osu file format v14

[General]
AudioFilename: audio.mp3
AudioLeadIn: 0
PreviewTime: 59636
Countdown: 0
SampleSet: Soft
StackLeniency: 0.3
Mode: 0
LetterboxInBreaks: 0
WidescreenStoryboard: 0

[Editor]
Bookmarks: 11636,170636,194636,253196,407293,513794
DistanceSpacing: 1
BeatDivisor: 4
GridSize: 16
TimelineZoom: 3.199999

[Metadata]
Title:Subtle Change (Including The Forest of Transition and Dissatisfaction Dance)
TitleUnicode:Subtle Change (Including The Forest of Transition and Dissatisfaction Dance)
Artist:Rivers of Nihil
ArtistUnicode:Rivers of Nihil
Creator:Daycore
Version:The Ringed City
Source:osu!
Tags:fa featured artist mg mpg mappers' guild death metal marathon where owls know my name fcl rock english
BeatmapID:2285281
BeatmapSetID:1093385

[Difficulty]
HPDrainRate:6.5
CircleSize:4.5
OverallDifficulty:9.5
ApproachRate:9.7
SliderMultiplier:1.65
SliderTickRate:0.5

[Events]
//Background and Video events
0,0,"where-only-owls-would-know-me.jpg",0,0
//Break Periods
2,89836,105573
2,284116,306859
//Storyboard Layer 0 (Background)
//Storyboard Layer 1 (Fail)
//Storyboard Layer 2 (Pass)
//Storyboard Layer 3 (Foreground)
//Storyboard Layer 4 (Overlay)
//Storyboard Sound Samples

[TimingPoints]
11636,375,4,2,1,40,1,0
11636,-166.666666666667,4,2,1,40,0,0
12011,-163.934426229508,4,2,1,40,0,0
12386,-161.290322580645,4,2,1,40,0,0
12761,-158.730158730159,4,2,1,40,0,0
13136,-156.25,4,2,1,40,0,0
14636,-153.846153846154,4,2,1,40,0,0
15386,-149.253731343284,4,2,1,40,0,0
15761,-147.058823529412,4,2,1,40,0,0
16136,-144.927536231884,4,2,1,40,0,0
17636,-142.857142857143,4,2,1,40,0,0
18386,-138.888888888889,4,2,1,40,0,0
18761,-136.986301369863,4,2,1,40,0,0
19136,-135.135135135135,4,2,1,40,0,0
20636,-133.333333333333,4,2,1,40,0,0
20917,-133.333333333333,4,2,1,5,0,0
21011,-131.578947368421,4,2,1,40,0,0
21386,-129.87012987013,4,2,1,40,0,0
21761,-128.205128205128,4,2,1,40,0,0
22136,-126.582278481013,4,2,1,40,0,0
23354,-83.3333333333333,4,2,1,40,0,0
23542,-83.3333333333333,4,2,1,5,0,0
23636,-125,4,2,1,40,0,0
24761,-215.05376344086,4,2,1,40,0,0
24948,-100,4,2,1,40,0,0
26261,-125,4,2,1,40,0,0
27198,-250,4,2,1,40,0,0
28136,-125,4,2,1,40,0,0
35636,-100,4,2,1,60,0,0
59636,-83.3333333333333,4,2,1,65,0,0
83636,-423.728813559322,4,2,1,60,0,0
107636,-100,4,2,1,60,0,0
115511,375,4,2,1,60,1,0
123386,375,4,2,1,60,1,0
131261,375,4,2,1,60,1,0
139136,375,4,2,1,60,1,0
147011,375,4,2,1,60,1,0
154886,375,4,2,1,65,1,0
154886,-83.3333333333333,4,2,1,65,0,0
159386,-63.6942675159236,4,2,1,65,0,0
160511,-83.3333333333333,4,2,1,65,0,0
162761,375,4,2,1,65,1,0
162761,-83.3333333333333,4,2,1,65,0,0
170636,375,4,2,1,65,1,0
173636,-71.4285714285714,4,2,1,65,0,0
174479,-100,4,2,1,65,0,0
179636,-71.4285714285714,4,2,1,65,0,0
180761,-100,4,2,1,65,0,0
191636,-71.4285714285714,4,2,1,65,0,0
191823,-100,4,2,1,65,0,0
192198,-71.4285714285714,4,2,1,65,0,0
192479,-100,4,2,1,65,0,0
194636,-83.3333333333333,4,2,1,65,0,0
218636,240,4,2,1,20,1,0
218636,-1000,4,2,1,20,0,0
222356,-1000,4,2,1,5,0,0
222476,-100,4,2,1,55,0,1
230156,-133.333333333333,4,2,1,55,0,0
230396,-100,4,2,1,55,0,1
237596,-100,4,2,1,55,0,0
237836,-100,4,2,1,55,0,1
252716,-100,4,2,1,55,0,0
253196,-100,4,2,1,55,0,1
253436,-100,4,2,1,55,0,1
257036,-100,4,2,1,55,0,0
257276,-100,4,2,1,55,0,1
260876,-100,4,2,1,55,0,0
261116,-100,4,2,1,55,0,1
261836,-83.3333333333333,4,2,1,55,0,1
264716,-100,4,2,1,55,0,0
264956,-76.9230769230769,4,2,1,55,0,1
268556,-133.333333333333,4,2,1,55,0,0
283917,375,4,2,1,50,1,0
307354,-100,4,2,1,50,0,0
331917,-399.999999999997,4,2,1,60,0,0
333042,-133.333333333333,4,2,1,60,0,0
355917,-66.6666666666667,4,2,1,60,0,0
369792,-80,4,2,1,60,0,0
370167,-66.6666666666667,4,2,1,60,0,0
370542,-80,4,2,1,60,0,0
370917,-100,4,2,1,60,0,0
371667,-66.6666666666667,4,2,1,60,0,0
372229,-80,4,2,1,60,0,0
372604,-100,4,2,1,60,0,0
372979,-80,4,2,1,60,0,0
373542,-66.6666666666667,4,2,1,60,0,0
373917,-80,4,2,1,60,0,0
374292,-100,4,2,1,60,0,0
375042,-66.6666666666667,4,2,1,60,0,0
376168,375,4,2,1,65,1,0
376168,-100,4,2,1,65,0,0
384043,-66.6666666666667,4,2,1,65,0,0
384418,-100,4,2,1,65,0,0
407294,375,4,2,1,65,1,0
407294,-83.3333333333333,4,2,1,65,0,0
455294,413.793103448276,4,2,1,25,1,0
455294,-222.222222222221,4,2,1,25,0,0
456055,384.615384615385,4,2,1,25,1,0
456055,-222.222222222221,4,2,1,25,0,0
456810,390.879478827362,4,2,1,25,1,0
456810,-222.222222222221,4,2,1,25,0,0
457569,372.670807453416,4,2,1,25,1,0
457569,-222.222222222221,4,2,1,25,0,0
458314,382.165605095542,4,2,1,25,1,0
458314,-222.222222222221,4,2,1,25,0,0
459068,376.175548589342,4,2,1,25,1,0
459068,-222.222222222221,4,2,1,25,0,0
459812,383.386581469648,4,2,1,25,1,0
459812,-222.222222222221,4,2,1,25,0,0
460548,375,4,2,1,25,1,0
460548,-222.222222222221,4,2,1,25,0,0
460923,387.096774193548,4,2,1,25,1,0
461310,380.952380952381,4,2,1,25,1,0
461310,-222.222222222221,4,2,1,25,0,0
462055,388.349514563107,4,2,1,25,1,0
462055,-222.222222222221,4,2,1,25,0,0
462805,389.61038961039,4,2,1,25,1,0
462805,-222.222222222221,4,2,1,25,0,0
463565,371.517027863777,4,2,1,25,1,0
463565,-222.222222222221,4,2,1,25,0,0
463936,377.358490566038,4,2,1,25,1,0
464313,384.615384615385,4,2,1,25,1,0
464313,-222.222222222221,4,2,1,25,0,0
465056,388.349514563107,4,2,1,25,1,0
465056,-222.222222222221,4,2,1,25,0,0
465800,394.736842105263,4,2,1,25,1,0
465800,-222.222222222221,4,2,1,25,0,0
466552,390.879478827362,4,2,1,25,1,0
466552,-222.222222222221,4,2,1,25,0,0
467311,390.879478827362,4,2,1,25,1,0
467311,-222.222222222221,4,2,1,25,0,0
468056,390.879478827362,4,2,1,25,1,0
468056,-222.222222222221,4,2,1,25,0,0
468814,392.156862745098,4,2,1,25,1,0
468814,-222.222222222221,4,2,1,25,0,0
469558,377.358490566038,4,2,1,25,1,0
469558,-222.222222222221,4,2,1,25,0,0
469935,380.952380952381,4,2,1,25,1,0
470315,379.746835443038,4,2,1,25,1,0
470315,-222.222222222221,4,2,1,25,0,0
471064,380.952380952381,4,2,1,25,1,0
471064,-222.222222222221,4,2,1,25,0,0
471811,385.852090032154,4,2,1,25,1,0
471811,-222.222222222221,4,2,1,25,0,0
472552,361.44578313253,4,2,1,25,1,0
472552,-222.222222222221,4,2,1,25,0,0
472913,398.671096345515,4,2,1,25,1,0
473311,379.746835443038,4,2,1,25,1,0
473311,-222.222222222221,4,2,1,25,0,0
474064,387.096774193549,4,2,1,25,1,0
474064,-222.222222222221,4,2,1,25,0,0
474808,383.386581469649,4,2,1,25,1,0
474808,-222.222222222221,4,2,1,25,0,0
475566,369.230769230769,4,2,1,25,1,0
475566,-222.222222222221,4,2,1,25,0,0
475935,375,4,2,1,25,1,0
476310,385.852090032154,4,2,1,25,1,0
476310,-222.222222222221,4,2,1,25,0,0
477058,388.349514563107,4,2,1,25,1,0
477058,-222.222222222221,4,2,1,25,0,0
477812,377.358490566038,4,2,1,25,1,0
477812,-222.222222222221,4,2,1,25,0,0
478189,361.44578313253,4,2,1,25,1,0
478550,389.61038961039,4,2,1,25,1,0
478550,-222.222222222221,4,2,1,25,0,0
479311,394.736842105263,4,2,1,25,1,0
479311,-222.222222222221,4,2,1,25,0,0
480076,392.156862745098,4,2,1,25,1,0
480076,-222.222222222221,4,2,1,25,0,0
480842,377.358490566038,4,2,1,25,1,0
480842,-222.222222222221,4,2,1,25,0,0
481582,370.37037037037,4,2,1,25,1,0
481582,-222.222222222221,4,2,1,25,0,0
482312,390.879478827362,4,2,1,25,1,0
482312,-222.222222222221,4,2,1,25,0,0
483071,377.358490566038,4,2,1,25,1,0
483071,-222.222222222221,4,2,1,25,0,0
483820,379.746835443038,4,2,1,25,1,0
483820,-222.222222222221,4,2,1,25,0,0
484570,410.958904109589,4,2,1,25,1,0
484570,-222.222222222221,4,2,1,25,0,0
485315,389.61038961039,4,2,1,25,1,0
485315,-222.222222222221,4,2,1,25,0,0
486080,385.852090032155,4,2,1,25,1,0
486080,-222.222222222221,4,2,1,25,0,0
486845,373.831775700935,4,2,1,25,1,0
486845,-222.222222222221,4,2,1,25,0,0
487582,373.831775700935,4,2,1,25,1,0
487582,-222.222222222221,4,2,1,25,0,0
488315,378.548895899054,4,2,1,25,1,0
488315,-222.222222222221,4,2,1,25,0,0
489062,388.349514563107,4,2,1,25,1,0
489062,-222.222222222221,4,2,1,25,0,0
489809,384.615384615385,4,2,1,25,1,0
489809,-222.222222222221,4,2,1,25,0,0
490558,393.44262295082,4,2,1,25,1,0
490558,-222.222222222221,4,2,1,25,0,0
491315,389.61038961039,4,2,1,25,1,0
491315,-222.222222222221,4,2,1,25,0,0
492068,375,4,2,1,25,1,0
492068,-222.222222222221,4,2,1,25,0,0
492818,389.610389610389,4,2,1,25,1,0
492818,-222.222222222221,4,2,1,25,0,0
493207,359.281437125748,4,2,1,25,1,0
493566,372.670807453416,4,2,1,25,1,0
493566,-222.222222222221,4,2,1,25,0,0
493938,380.952380952381,4,2,1,25,1,0
494318,-222.222222222221,4,2,1,25,0,0
495070,379.746835443038,4,2,1,25,1,0
495070,-222.222222222221,4,2,1,25,0,0
495817,389.61038961039,4,2,1,25,1,0
495817,-222.222222222221,4,2,1,25,0,0
496555,368.098159509202,4,2,1,25,1,0
496555,-222.222222222221,4,2,1,25,0,0
496923,389.61038961039,4,2,1,25,1,0
497312,384.615384615385,4,2,1,25,1,0
497312,-222.222222222221,4,2,1,25,0,0
498060,384.615384615384,4,2,1,25,1,0
498060,-222.222222222221,4,2,1,25,0,0
498820,380.952380952381,4,2,1,25,1,0
498820,-222.222222222221,4,2,1,25,0,0
499564,372.670807453416,4,2,1,25,1,0
499564,-222.222222222221,4,2,1,25,0,0
499936,382.165605095541,4,2,1,25,1,0
500318,-222.222222222221,4,2,1,25,0,0
501060,392.156862745098,4,2,1,25,1,0
501060,-222.222222222221,4,2,1,25,0,0
501818,372.670807453416,4,2,1,25,1,0
501818,-222.222222222221,4,2,1,25,0,0
502563,384.615384615384,4,2,1,25,1,0
502563,-222.222222222221,4,2,1,25,0,0
502947,379.746835443038,4,2,1,25,1,0
503326,384.615384615385,4,2,1,25,1,0
503326,-222.222222222221,4,2,1,25,0,0
504075,389.61038961039,4,2,1,25,1,0
504075,-222.222222222221,4,2,1,25,0,0
504846,372.670807453416,4,2,1,25,1,0
504846,-222.222222222221,4,2,1,25,0,0
505583,366.97247706422,4,2,1,25,1,0
505583,-222.222222222221,4,2,1,25,0,0
506316,384.615384615385,4,2,1,25,1,0
506316,-222.222222222221,4,2,1,25,0,0
507076,377.358490566038,4,2,1,25,1,0
507076,-222.222222222221,4,2,1,25,0,0
507822,379.746835443038,4,2,1,25,1,0
507822,-222.222222222221,4,2,1,25,0,0
508581,408.163265306122,4,2,1,25,1,0
508581,-222.222222222221,4,2,1,25,0,0
509322,370.37037037037,4,2,1,25,1,0
510803,377.358490566038,4,2,1,25,1,0
512312,373.831775700935,4,2,1,25,1,0
513830,-222.222222222221,4,2,1,5,0,0

[Colours]
Combo1 : 0,64,0
Combo2 : 0,128,255
Combo3 : 47,47,79
Combo4 : 128,128,255

[HitObjects]
426,145,11448,5,2,0:0:0:0:
426,145,11542,1,2,0:0:0:0:
426,145,11636,6,0,L|417:87,1,49.49999848938,4|0,0:0|0:0,0:0:0:0:
352,156,12011,2,0,L|343:95,1,50.324997926674
275,164,12386,2,0,L|268:114,1,51.1499979707338
193,126,12761,6,0,L|202:178,1,51.974998413849
130,191,13136,1,0,0:0:0:0:
130,191,13323,2,0,L|121:138,1,52.8000000000001
113,131,13604,1,0,0:0:0:0:
105,123,13698,1,0,0:0:0:0:
96,116,13792,1,0,0:0:0:0:
87,109,13886,1,0,0:0:0:0:
185,261,14073,2,0,L|177:311,2,26.4
223,347,14448,1,0,0:0:0:0:
118,327,14636,6,0,L|237:350,1,107.249995090485,4|4,0:3|0:3,0:0:0:0:
306,328,15198,1,0,0:0:0:0:
306,328,15386,2,0,P|340:329|373:307,1,55.2749973853686
427,357,15761,2,0,P|437:335|434:309,2,28.0500001712036
509,289,16042,1,0,0:0:0:0:
509,279,16136,6,0,P|487:252|447:237,1,56.9250000868607
389,136,16511,2,0,L|400:211,1,56.9250000868607
341,262,16886,1,0,0:0:0:0:
304,114,17073,2,0,L|296:165,2,28.4625000434303
342,274,17448,1,0,0:0:0:0:
220,206,17636,6,0,L|212:144,1,57.7499982376099,4|0,0:0|0:0,0:0:0:0:
109,106,18011,2,0,L|101:163,1,57.7499982376099
163,263,18386,2,0,P|211:290|230:288,1,59.4000014501954
302,310,18761,2,0,L|353:305,2,30.1125008270645
400,342,19042,1,0,0:0:0:0:
407,332,19136,5,0,0:0:0:0:
253,373,19323,2,0,L|200:361,2,30.5250007452393
302,310,19698,1,0,0:0:0:0:
149,338,19886,2,0,L|78:348,1,61.0500014904786
77,351,20167,2,0,L|42:342,1,30.5250007452393
74,233,20448,1,0,0:0:0:0:
70,242,20542,1,0,0:0:0:0:
66,252,20636,6,0,P|114:243|165:239,1,92.8125035405162,4|0,0:3|0:0,0:0:0:0:
167,231,21011,2,0,P|197:246|232:244,1,62.6999992346192,4|0,0:3|0:0,0:0:0:0:
263,133,21386,2,0,P|226:152|204:186,1,63.5249987398911
349,152,21667,1,0,0:0:0:0:
349,152,21761,2,0,P|350:111|334:78,1,64.3500021601869
433,207,22136,6,0,L|423:286,1,65.1750015911866
433,281,22417,1,0,0:0:0:0:
441,290,22511,1,0,0:0:0:0:
319,230,22698,1,0,0:0:0:0:
509,248,22886,1,0,0:0:0:0:
397,355,23073,6,0,P|419:368|449:369,1,32.5875007955933,4|0,0:0|0:0,0:0:0:0:
441,290,23261,2,0,P|418:293|400:359,1,97.7625023867798,4|0,0:0|0:0,0:0:0:0:
397,355,23636,6,0,B|321:364|350:313|241:328,1,132,4|0,0:0|0:0,0:0:0:0:
180,305,24198,2,0,B|182:276|211:251|211:251|188:229|190:182,1,132,2|0,0:0|0:0,0:0:0:0:
218,110,24761,1,0,0:0:0:0:
269,193,24948,2,0,B|88:183|88:183|121:202|123:256,2,247.5
82,314,26261,2,0,P|77:362|80:383,1,66.0000000000001
19,238,26636,6,0,P|-5:191|5:152,1,66.0000000000001,4|0,0:3|0:0,0:0:0:0:
95,75,27011,1,4,0:3:0:0:
95,75,27198,2,0,P|116:99|71:179,1,132,2|4,0:0|0:3,0:0:0:0:
20,48,28136,6,0,P|31:22|72:2,1,66.0000000000001
160,81,28511,1,4,0:3:0:0:
160,81,28698,2,0,L|90:74,1,66.0000000000001
235,44,29073,1,0,0:0:0:0:
235,44,29261,2,0,P|241:98|223:128,1,66.0000000000001
237,189,29636,6,0,L|314:178,1,66.0000000000001,4|0,0:0|0:0,0:0:0:0:
359,239,30011,1,4,0:3:0:0:
359,239,30198,2,0,L|214:179,1,132,2|0,0:0|0:0,0:0:0:0:
432,205,30761,2,0,P|441:241|386:316,1,132,2|0,0:0|0:0,0:0:0:0:
291,275,31323,2,0,P|282:239|337:164,1,132,2|0,0:0|0:0,0:0:0:0:
280,359,31886,2,0,B|244:355|222:329|222:329|188:351|150:345|150:345|139:294|167:267,1,198,2|0,0:0|0:0,0:0:0:0:
156,211,32636,6,0,P|119:216|80:257,1,66.0000000000001,4|0,0:3|0:0,0:0:0:0:
42,102,33011,1,4,0:3:0:0:
42,102,33198,2,0,L|55:179,1,66.0000000000001,2|0,0:0|0:0,0:0:0:0:
156,211,33573,2,0,L|166:145,1,66.0000000000001
151,288,33948,1,2,0:0:0:0:
70,321,34136,5,0,0:0:0:0:
256,192,34229,12,0,35448,0:0:0:0:
261,156,35636,6,0,B|258:42|258:42|213:83,1,165,12|0,0:3|0:0,0:0:0:0:
209,216,36198,2,0,P|248:236|286:235,1,82.5,4|8,0:3|0:3,0:0:0:0:
261,156,36573,1,0,0:0:0:0:
158,276,36761,1,0,0:0:0:0:
311,308,36948,6,0,P|247:317|152:270,1,165,12|0,0:3|0:0,0:0:0:0:
376,247,37511,2,0,P|400:296|396:340,1,82.5,4|0,0:3|0:0,0:0:0:0:
468,236,37886,2,0,L|481:144,1,82.5,0|8,0:0|0:3,0:0:0:0:
434,84,38261,1,8,0:3:0:0:
336,127,38448,1,8,0:3:0:0:
221,60,38636,6,0,B|214:13|192:33|173:-2|173:-2|142:29|120:4|116:61,1,165,12|0,0:3|0:0,0:0:0:0:
117,52,39198,1,0,0:0:0:0:
203,136,39386,2,0,P|151:142|117:127,1,82.5,4|0,0:3|0:0,0:0:0:0:
221,60,39761,1,0,0:0:0:0:
222,217,39948,2,0,L|216:303,1,82.5,8|0,0:3|0:0,0:0:0:0:
142,247,40323,1,0,0:0:0:0:
294,315,40511,6,0,L|109:333,1,165,8|0,0:3|0:0,0:0:0:0:
222,217,41073,2,0,L|340:231,1,82.5,8|8,0:3|0:3,0:0:0:0:
211,227,41448,1,8,0:3:0:0:
386,208,41636,6,0,L|215:217,1,165,12|0,0:3|0:0,0:0:0:0:
461,247,42198,2,0,P|471:201|448:155,1,82.5,0|4,0:0|0:3,0:0:0:0:
359,291,42573,2,0,L|367:384,1,82.5
342,215,42948,6,0,B|383:205|416:237|416:237|424:192|460:167,1,165,8|0,0:3|0:0,0:0:0:0:
254,125,43511,2,0,B|212:134|179:102|179:102|171:147|135:172,1,165,8|0,0:3|0:0,0:0:0:0:
207,297,44073,2,8,P|219:257|218:193,1,82.5,8|8,0:3|0:3,0:3:0:0:
127,329,44448,1,8,0:3:0:0:
291,331,44636,6,0,L|108:328,1,165,4|8,0:3|0:3,0:0:0:0:
349,273,45198,2,0,P|374:325|365:364,1,82.5,0|8,0:0|0:3,0:0:0:0:
430,236,45573,2,0,L|431:142,1,82.5
349,273,45948,6,0,P|274:268|304:335,1,165,8|0,0:3|0:0,0:0:0:0:
430,153,46511,2,0,L|430:236,1,82.5,8|0,0:3|0:0,0:0:0:0:
421,138,46886,1,0,0:0:0:0:
392,70,47073,2,8,P|372:80|353:105,1,41.25,8|8,0:3|0:3,0:3:0:0:
269,168,47261,1,4,0:3:0:0:
253,173,47354,1,4,0:3:0:0:
236,173,47448,1,4,0:3:0:0:
220,167,47542,1,4,0:3:0:0:
208,155,47636,6,0,B|163:154|132:119|132:119|113:164|65:172,1,165,12|0,0:3|0:0,0:0:0:0:
158,311,48198,1,0,0:0:0:0:
158,311,48386,2,0,L|149:221,1,82.5,8|0,0:3|0:0,0:0:0:0:
79,350,48761,1,0,0:0:0:0:
239,333,48948,6,0,P|175:354|69:347,1,165,8|0,0:3|0:0,0:0:0:0:
283,264,49511,2,0,P|316:296|320:347,1,82.5,12|0,0:3|0:0,0:0:0:0:
220,186,49886,1,0,0:0:0:0:
195,116,50073,1,8,0:3:0:0:
262,43,50261,1,8,0:3:0:0:
237,189,50448,1,8,0:3:0:0:
84,236,50636,6,0,B|45:233|28:257|28:257|54:311|18:377,1,165,4|8,0:3|0:3,0:0:0:0:
99,250,51198,1,0,0:0:0:0:
187,340,51386,1,0,0:0:0:0:
237,189,51573,2,0,P|226:226|228:295,1,82.5,8|0,0:3|0:0,0:0:0:0:
329,210,51948,2,0,P|327:168|315:129,1,82.5,8|0,0:3|0:0,0:0:0:0:
328,293,52323,5,0,0:0:0:0:
442,205,52511,2,0,P|488:212|526:260,1,82.5,8|0,0:3|0:0,0:0:0:0:
447,287,52886,1,0,0:0:0:0:
447,287,53073,2,0,L|440:182,1,82.5,8|0,0:3|0:0,0:0:0:0:
437,304,53448,1,0,0:0:0:0:
499,145,53636,5,6,0:3:0:0:
423,125,53823,1,8,0:3:0:0:
380,53,54011,2,8,P|336:48|293:65,1,82.5,8|0,0:3|0:0,0:3:0:0:
276,141,54386,2,0,B|358:169|358:169|425:122,1,165,8|0,0:3|0:0,0:0:0:0:
202,105,54948,2,0,P|194:158|226:206,1,82.5,8|0,0:3|0:0,0:0:0:0:
279,313,55323,5,0,0:0:0:0:
279,313,55511,2,0,L|273:227,1,82.5,8|0,0:3|0:0,0:0:0:0:
208,361,55886,1,0,0:0:0:0:
351,352,56073,1,0,0:0:0:0:
223,374,56261,1,0,0:0:0:0:
337,366,56448,1,0,0:0:0:0:
135,267,56636,6,4,P|115:240|-13:278,1,165,4|4,0:3|0:3,0:3:0:0:
63,302,57198,1,4,0:3:0:0:
63,302,57386,2,4,P|91:335|140:347,1,82.5,4|4,0:3|0:3,0:3:0:0:
208,361,57761,1,4,0:3:0:0:
208,361,57948,1,4,0:3:0:0:
237,261,58136,5,4,0:3:0:0:
237,261,58323,1,4,0:3:0:0:
346,361,58511,1,4,0:3:0:0:
346,361,58698,1,4,0:3:0:0:
356,173,58886,1,4,0:3:0:0:
247,152,59073,1,4,0:3:0:0:
140,270,59261,1,4,0:3:0:0:
240,236,59448,1,4,0:3:0:0:
279,74,59636,5,6,0:0:0:0:
346,361,59823,1,6,0:3:0:0:
124,116,60011,2,0,B|112:60|46:78|16:145|100:202,1,197.99999395752,6|0,0:3|0:0,0:0:0:0:
120,314,60573,2,0,L|125:105,1,197.99999395752,2|4,0:0|0:3,0:0:0:0:
186,358,61136,6,0,B|38:329|38:329|59:389,1,197.99999395752,8|0,0:0|0:0,0:0:0:0:
263,263,61698,2,0,P|312:234|388:233,1,98.9999969787599,2|0,0:0|0:0,0:0:0:0:
256,280,62073,1,0,0:0:0:0:
420,176,62261,2,0,P|434:205|421:277,1,98.9999969787599,2|0,0:0|0:0,0:0:0:0:
372,100,62636,5,4,0:3:0:0:
494,145,62823,2,0,L|93:117,1,395.999987915039,2|0,0:0|0:0,0:0:0:0:
109,129,63761,1,4,0:3:0:0:
218,26,63948,1,4,0:3:0:0:
112,215,64136,5,8,0:0:0:0:
112,263,64229,1,8,0:0:0:0:
139,304,64323,1,8,0:3:0:0:
183,325,64417,1,8,0:3:0:0:
232,319,64511,1,4,0:3:0:0:
251,297,64604,1,4,0:3:0:0:
247,272,64698,5,8,0:0:0:0:
245,223,64792,1,8,0:0:0:0:
275,184,64886,1,8,0:3:0:0:
299,180,64979,1,8,0:3:0:0:
317,187,65073,5,8,0:0:0:0:
275,184,65167,1,8,0:0:0:0:
250,153,65261,1,8,0:3:0:0:
260,136,65354,1,8,0:3:0:0:
261,116,65448,1,4,0:3:0:0:
251,98,65542,1,4,0:3:0:0:
233,89,65636,6,0,P|180:97|117:90,1,98.9999969787599,6|6,0:0|0:3,0:0:0:0:
35,205,66011,2,0,P|27:143|168:122,1,197.99999395752,6|0,0:3|0:0,0:0:0:0:
149,222,66573,2,0,P|87:214|66:355,1,197.99999395752,2|4,0:0|0:3,0:0:0:0:
222,270,67136,6,0,B|245:213|219:176|219:176|261:208|327:180,1,197.99999395752,8|0,0:0|0:0,0:0:0:0:
297,23,67698,2,0,P|272:92|274:134,1,98.9999969787599,2|0,0:0|0:0,0:0:0:0:
307,8,68073,1,0,0:0:0:0:
313,185,68261,2,0,P|247:189|206:163,1,98.9999969787599,2|0,0:0|0:0,0:0:0:0:
376,119,68636,5,4,0:3:0:0:
351,254,68823,2,0,P|237:264|108:19,1,395.999987915039,2|0,0:0|0:0,0:0:0:0:
113,47,69761,1,2,0:0:0:0:
243,20,69948,1,2,0:0:0:0:
0,91,70136,5,8,0:0:0:0:
229,38,70323,1,8,0:0:0:0:
251,66,71636,5,6,0:0:0:0:
452,102,71823,1,6,0:3:0:0:
185,0,72011,2,0,P|206:55|209:213,1,197.99999395752,6|0,0:3|0:0,0:0:0:0:
319,219,72573,2,0,P|260:209|122:133,1,197.99999395752,2|4,0:0|0:3,0:0:0:0:
61,228,73136,6,0,P|98:182|233:100,1,197.99999395752,8|0,0:0|0:0,0:0:0:0:
141,273,73698,2,0,P|131:322|129:380,1,98.9999969787599,2|0,0:0|0:0,0:0:0:0:
148,255,74073,1,0,0:0:0:0:
295,291,74261,1,6,0:3:0:0:
339,202,74448,1,4,0:3:0:0:
229,240,74636,1,4,0:3:0:0:
43,345,74823,6,0,P|29:236|177:-18,1,395.999987915039,2|0,0:0|0:0,0:0:0:0:
181,0,75761,1,4,0:3:0:0:
213,107,75948,1,4,0:3:0:0:
181,211,76136,5,8,0:0:0:0:
225,231,76229,1,8,0:0:0:0:
274,225,76323,1,8,0:3:0:0:
318,202,76417,1,8,0:3:0:0:
339,157,76511,1,4,0:3:0:0:
335,142,76604,1,4,0:3:0:0:
331,127,76698,5,8,0:0:0:0:
333,176,76792,1,8,0:0:0:0:
335,225,76886,1,8,0:3:0:0:
344,237,76979,5,8,0:0:0:0:
384,265,77073,1,8,0:0:0:0:
432,265,77167,1,8,0:0:0:0:
475,241,77261,1,8,0:3:0:0:
461,226,77354,1,8,0:3:0:0:
454,207,77448,1,4,0:3:0:0:
452,187,77542,1,4,0:3:0:0:
457,167,77636,6,0,L|358:171,1,98.9999969787599,6|6,0:0|0:3,0:0:0:0:
243,34,78011,2,0,L|440:42,1,197.99999395752,6|0,0:3|0:0,0:0:0:0:
185,149,78573,2,0,B|202:9|202:9|146:21,1,197.99999395752,2|4,0:0|0:3,0:0:0:0:
115,209,79136,6,0,P|179:237|274:168,1,197.99999395752,8|0,0:0|0:0,0:0:0:0:
66,112,79698,2,0,P|74:182|71:334,1,197.99999395752,2|0,0:0|0:0,0:0:0:0:
85,325,80261,1,2,0:0:0:0:
0,231,80448,1,4,0:3:0:0:
185,149,80636,1,4,0:3:0:0:
180,347,80823,6,0,P|243:354|355:243,1,197.99999395752,2|0,0:0|0:0,0:0:0:0:
230,76,81386,2,0,B|218:119|218:119|255:220|255:220|231:275,1,197.99999395752,2|0,0:0|0:0,0:0:0:0:
170,216,81948,1,0,0:0:0:0:
356,198,82136,5,4,0:3:0:0:
399,220,82229,1,8,0:0:0:0:
448,219,82323,1,8,0:0:0:0:
491,196,82417,1,8,0:0:0:0:
512,155,82511,1,8,0:0:0:0:
512,106,82604,1,8,0:0:0:0:
503,61,82698,1,8,0:3:0:0:
483,62,82792,1,8,0:3:0:0:
463,62,82886,5,8,0:0:0:0:
440,79,82979,1,8,0:3:0:0:
417,96,83073,1,8,0:3:0:0:
395,113,83167,1,8,0:3:0:0:
386,135,83261,5,4,0:3:0:0:
390,163,83354,1,4,0:3:0:0:
395,191,83448,1,4,0:3:0:0:
400,219,83542,1,4,0:3:0:0:
404,240,83636,6,0,B|458:215|513:243|531:306|510:357|483:359|449:365|421:340|433:304|433:304|383:326|336:287|334:246|334:246|285:308|219:290|223:214|268:211|268:211|243:200|225:205,1,623.039989352344,4|0,0:0|0:0,0:0:0:0:
256,192,106136,12,0,107448,0:0:0:0:
179,209,107636,6,0,L|170:119,2,82.5,4|0|0,0:0|0:0|0:0,0:0:0:0:
89,132,108198,1,6,0:3:0:0:
129,57,108386,2,0,P|177:46|234:77,1,82.5,8|0,0:0|0:0,0:0:0:0:
222,280,108761,2,0,P|172:290|124:268,1,82.5
305,174,109136,2,0,B|294:238|294:238|307:266|307:266|295:367,1,165,2|4,0:0|0:3,0:0:0:0:
379,225,109698,5,4,0:3:0:0:
222,280,109886,1,8,0:0:0:0:
445,290,110073,2,0,P|470:227|409:135,1,165,2|0,0:0|0:0,0:0:0:0:
379,225,110636,5,4,0:3:0:0:
512,43,110823,2,0,L|504:221,1,165,2|0,0:0|0:0,0:0:0:0:
379,225,111386,1,8,0:0:0:0:
306,170,111573,1,0,0:0:0:0:
275,84,111761,1,0,0:0:0:0:
326,303,111948,1,8,0:0:0:0:
275,379,112136,6,0,B|246:376|246:376|226:362|226:362|186:358,2,82.5,0|0|4,0:0|0:3|0:3,0:0:0:0:
225,218,112698,1,2,0:0:0:0:
225,218,112886,2,0,B|249:252|249:252|240:300,1,82.5,8|0,0:0|0:0,0:0:0:0:
121,200,113261,1,0,0:0:0:0:
306,170,113448,1,8,0:0:0:0:
77,100,113636,6,0,L|64:298,1,165,4|0,0:3|0:0,0:0:0:0:
121,200,114198,1,0,0:0:0:0:
121,200,114386,1,4,0:3:0:0:
24,37,114573,2,0,B|62:17|62:17|114:28,1,82.5,8|0,0:0|0:0,0:0:0:0:
268,129,114948,5,2,0:0:0:0:
121,200,115136,1,6,0:3:0:0:
258,270,115323,1,10,0:0:0:0:
56,244,115511,6,0,P|41:200|68:141,2,82.5,4|0|0,0:0|0:0|0:0,0:0:0:0:
203,196,116073,1,4,0:3:0:0:
203,196,116261,2,0,L|111:200,1,82.5,8|0,0:0|0:0,0:0:0:0:
279,150,116636,2,0,P|291:205|268:252,1,82.5
203,78,117011,6,0,P|282:107|372:87,1,165,2|4,0:0|0:3,0:0:0:0:
362,69,117573,1,4,0:3:0:0:
116,79,117761,1,8,0:0:0:0:
203,78,117948,2,0,B|206:116|173:146|173:146|231:168|230:205,1,165,2|0,0:0|0:0,0:0:0:0:
65,193,118511,5,4,0:3:0:0:
229,205,118698,2,0,L|55:192,1,165,10|0,0:0|0:0,0:0:0:0:
246,214,119261,2,0,L|346:213,1,82.5,4|0,0:3|0:0,0:0:0:0:
279,141,119636,2,0,P|247:202|309:307,1,165,2|8,0:0|0:0,0:0:0:0:
328,213,120198,5,0,0:0:0:0:
278,287,120386,1,0,0:0:0:0:
279,141,120573,1,10,0:0:0:0:
325,358,120761,2,0,P|272:371|222:346,1,82.5,4|0,0:3|0:0,0:0:0:0:
103,292,121136,2,0,L|191:296,1,82.5
78,364,121511,6,0,P|83:254|71:174,1,165,6|0,0:3|0:0,0:0:0:0:
164,83,122073,1,0,0:0:0:0:
148,164,122261,1,4,0:3:0:0:
91,22,122448,2,0,B|170:0|170:0|251:41,1,165,10|0,0:0|0:0,0:0:0:0:
164,83,123011,1,6,0:3:0:0:
324,26,123198,1,10,0:0:0:0:
304,105,123386,6,0,P|358:105|392:80,2,82.5,4|0|0,0:0|0:0|0:0,0:0:0:0:
435,168,123948,1,4,0:3:0:0:
434,16,124136,2,0,B|398:42|409:94|409:94|443:193,1,165,8|0,0:0|0:0,0:0:0:0:
480,73,124698,1,0,0:0:0:0:
324,26,124886,6,0,P|279:17|167:69,1,165,2|4,0:0|0:3,0:0:0:0:
320,164,125448,1,4,0:3:0:0:
89,37,125636,1,8,0:0:0:0:
249,115,125823,2,0,P|276:146|321:286,1,165,2|0,0:0|0:0,0:0:0:0:
360,334,126386,5,6,0:3:0:0:
200,312,126573,2,0,B|267:313|267:313|299:333|299:333|366:334,1,165,2|4,0:0|0:3,0:0:0:0:
138,260,127136,2,0,P|118:296|124:342,1,82.5,8|0,0:0|0:0,0:0:0:0:
200,312,127511,1,0,0:0:0:0:
54,235,127698,1,10,0:0:0:0:
2,281,127886,6,0,P|-16:238|10:182,2,82.5,0|0|4,0:0|0:3|0:3,0:0:0:0:
54,235,128448,1,2,0:0:0:0:
80,359,128636,2,0,P|25:385|-22:371,1,82.5,0|4,0:0|0:3,0:0:0:0:
124,291,129011,2,0,L|237:307,1,82.5,8|0,0:0|0:0,0:0:0:0:
239,377,129386,6,0,P|227:290|223:181,1,165,6|0,0:3|0:0,0:0:0:0:
314,116,129948,1,4,0:3:0:0:
317,256,130136,1,8,0:0:0:0:
182,137,130323,2,0,P|141:130|85:136,1,82.5,2|0,0:0|0:0,0:0:0:0:
306,93,130698,1,2,0:0:0:0:
383,167,130886,1,2,0:0:0:0:
471,146,131073,1,2,0:0:0:0:
288,89,131261,6,0,P|283:151|305:201,2,82.5,4|0|2,0:0|0:0|0:0,0:0:0:0:
343,244,131823,1,4,0:3:0:0:
203,197,132011,2,0,P|262:250|342:243,1,165,10|2,0:0|0:0,0:0:0:0:
288,169,132573,1,0,0:0:0:0:
153,134,132761,6,0,P|87:144|56:228,1,165,2|2,0:0|0:0,0:0:0:0:
203,197,133323,2,0,P|227:162|217:95,1,82.5,4|10,0:3|0:0,0:0:0:0:
149,10,133698,2,0,B|118:7|91:41|111:76|111:76|164:149,1,165,2|0,0:0|0:0,0:0:0:0:
310,131,134261,5,4,0:3:0:0:
310,131,134448,2,0,P|237:122|198:130,1,82.5,2|0,0:0|0:0,0:0:0:0:
348,58,134823,1,4,0:3:0:0:
358,200,135011,2,0,L|357:288,1,82.5,10|0,0:0|0:0,0:0:0:0:
375,190,135386,1,2,0:0:0:0:
272,299,135573,1,8,0:0:0:0:
333,356,135761,6,0,P|403:346|425:311,1,82.5,2|0,0:0|0:0,0:0:0:0:
272,299,136136,1,8,0:0:0:0:
234,283,136229,1,8,0:0:0:0:
193,284,136323,1,8,0:3:0:0:
156,301,136417,1,8,0:3:0:0:
130,333,136511,5,4,0:3:0:0:
134,313,136604,1,4,0:3:0:0:
136,292,136698,2,0,P|97:258|46:251,1,82.5,4|0,0:0|0:0,0:0:0:0:
209,210,137073,1,4,0:3:0:0:
261,121,137261,5,4,0:3:0:0:
122,136,137448,1,8,0:0:0:0:
287,200,137636,1,4,0:3:0:0:
180,51,137823,1,8,0:0:0:0:
270,38,138011,5,4,0:3:0:0:
261,121,138198,1,4,0:3:0:0:
95,30,138386,2,0,L|0:25,1,82.5,8|4,0:0|0:3,0:0:0:0:
178,71,138761,1,8,0:0:0:0:
326,26,138948,1,4,0:3:0:0:
465,99,139136,5,6,0:0:0:0:
464,111,139229,1,0,0:0:0:0:
464,123,139323,1,0,0:0:0:0:
464,135,139417,1,0,0:0:0:0:
464,147,139511,2,0,P|445:180|423:197,1,41.25,2|0,0:0|0:0,0:0:0:0:
389,239,139698,2,0,P|369:206|366:178,1,41.25,4|0,0:3|0:0,0:0:0:0:
394,324,139886,6,0,L|325:330,1,41.25,10|0,0:0|0:0,0:0:0:0:
279,271,140073,2,0,L|208:258,1,41.25
175,317,140261,2,0,L|106:323,3,41.25,2|0|0|0,0:0|0:0|0:0|0:0,0:0:0:0:
40,284,140636,5,2,0:0:0:0:
16,250,140729,1,0,0:0:0:0:
15,209,140823,1,0,0:0:0:0:
36,175,140917,1,0,0:0:0:0:
73,155,141011,5,2,0:0:0:0:
102,128,141104,1,0,0:0:0:0:
103,88,141198,1,4,0:3:0:0:
73,62,141292,1,0,0:0:0:0:
32,63,141386,5,10,0:0:0:0:
69,47,141479,1,0,0:0:0:0:
96,16,141573,1,0,0:0:0:0:
134,0,141667,1,0,0:0:0:0:
174,9,141761,5,2,0:0:0:0:
212,25,141854,1,0,0:0:0:0:
239,56,141948,1,0,0:0:0:0:
276,72,142042,1,0,0:0:0:0:
310,94,142136,6,0,P|325:127|319:167,1,41.25,4|0,0:3|0:0,0:0:0:0:
288,203,142323,2,0,P|255:217|215:211,1,41.25,2|0,0:0|0:0,0:0:0:0:
382,184,142511,1,2,0:0:0:0:
381,214,142604,1,0,0:0:0:0:
393,243,142698,1,4,0:3:0:0:
415,264,142792,1,0,0:0:0:0:
450,262,142886,5,10,0:0:0:0:
423,246,142979,1,0,0:0:0:0:
393,243,143073,1,0,0:0:0:0:
363,251,143167,1,0,0:0:0:0:
339,270,143261,6,0,L|347:326,3,41.25,2|0|8|0,0:0|0:0|0:0|0:0,0:0:0:0:
254,319,143636,2,0,L|246:375,3,41.25,2|0|0|0,0:0|0:0|0:0|0:0,0:0:0:0:
170,289,144011,5,4,0:3:0:0:
140,278,144104,1,0,0:0:0:0:
110,276,144198,1,0,0:0:0:0:
79,282,144292,1,0,0:0:0:0:
52,296,144386,5,0,0:0:0:0:
53,279,144479,1,0,0:0:0:0:
54,262,144573,1,4,0:3:0:0:
55,245,144667,1,0,0:0:0:0:
57,228,144761,2,0,P|88:209|125:206,3,41.25,10|0|0|0,0:0|0:0|0:0|0:0,0:0:0:0:
50,101,145136,6,2,L|250:114,1,165,6|0,0:3|0:0,0:1:0:0:
313,61,145698,2,2,L|148:71,1,165,6|0,0:3|0:0,0:1:0:0:
332,70,146261,1,2,0:0:0:0:
102,135,146448,2,2,P|73:88|132:-5,1,165,2|0,0:0|0:0,0:1:0:0:
378,6,147011,5,4,0:0:0:0:
402,38,147104,1,0,0:0:0:0:
407,78,147198,1,0,0:0:0:0:
392,116,147292,1,0,0:0:0:0:
405,155,147386,5,2,0:0:0:0:
400,192,147479,1,0,0:0:0:0:
377,221,147573,1,4,0:3:0:0:
344,235,147667,1,0,0:0:0:0:
333,275,147761,5,10,0:0:0:0:
306,296,147854,1,0,0:0:0:0:
273,299,147948,1,0,0:0:0:0:
243,288,148042,1,0,0:0:0:0:
205,305,148136,5,2,0:0:0:0:
172,300,148229,1,0,0:0:0:0:
145,280,148323,1,0,0:0:0:0:
133,250,148417,1,0,0:0:0:0:
136,217,148511,5,2,0:0:0:0:
171,206,148604,1,0,0:0:0:0:
198,230,148698,2,0,L|199:167,1,41.25
272,136,148886,5,2,0:0:0:0:
269,123,148979,1,0,0:0:0:0:
264,107,149073,2,0,P|301:89|330:84,2,41.25,0|0|8,0:0|0:0|0:0,0:0:0:0:
274,206,149354,1,0,0:0:0:0:
281,208,149448,1,0,0:0:0:0:
288,211,149542,1,0,0:0:0:0:
295,216,149636,5,2,0:0:0:0:
326,243,149729,1,0,0:0:0:0:
366,252,149823,1,0,0:0:0:0:
405,241,149917,1,0,0:0:0:0:
432,210,150011,6,0,L|427:149,2,41.25,6|0|0,0:3|0:0|0:0,0:0:0:0:
449,296,150292,1,0,0:0:0:0:
447,304,150386,1,2,0:0:0:0:
419,321,150479,1,0,0:0:0:0:
386,325,150573,2,0,L|398:377,1,41.25
305,317,150761,5,8,0:0:0:0:
299,310,150854,1,0,0:0:0:0:
293,303,150948,1,0,0:0:0:0:
276,274,151042,1,0,0:0:0:0:
252,252,151136,1,2,0:0:0:0:
221,241,151229,1,0,0:0:0:0:
188,241,151323,1,8,0:0:0:0:
157,252,151417,1,0,0:0:0:0:
132,273,151511,6,0,P|100:264|65:260,3,41.25,2|0|4|0,0:0|0:0|0:3|0:0,0:0:0:0:
229,145,151886,1,8,0:0:0:0:
282,133,151979,1,8,0:0:0:0:
337,138,152073,1,8,0:3:0:0:
387,160,152167,1,8,0:3:0:0:
422,194,152261,1,4,0:3:0:0:
440,235,152354,1,4,0:3:0:0:
452,274,152448,6,0,L|465:81,1,165,4|4,0:0|0:3,0:0:0:0:
327,56,153011,1,4,0:3:0:0:
327,56,153198,2,0,L|340:170,1,82.5,8|4,0:0|0:3,0:0:0:0:
406,83,153573,1,8,0:0:0:0:
327,56,153761,1,4,0:3:0:0:
336,137,153948,1,4,0:3:0:0:
35,178,154136,5,8,0:0:0:0:
122,132,154323,1,4,0:3:0:0:
336,225,154511,1,8,0:0:0:0:
423,179,154698,1,4,0:3:0:0:
269,172,154886,5,14,0:3:0:0:
251,217,154979,1,4,0:3:0:0:
262,265,155073,1,6,0:3:0:0:
296,300,155167,1,4,0:3:0:0:
344,310,155261,1,8,0:0:0:0:
390,293,155354,1,4,0:3:0:0:
419,254,155448,1,6,0:3:0:0:
429,276,155542,1,4,0:3:0:0:
439,299,155636,6,4,L|381:291,1,49.4999984893799,14|4,0:3|0:3,0:3:0:0:
318,165,155823,2,4,L|260:173,1,49.4999984893799,6|4,0:3|0:3,0:3:0:0:
153,260,156011,1,8,0:0:0:0:
153,260,156104,1,4,0:3:0:0:
153,260,156198,1,6,0:3:0:0:
153,260,156292,1,4,0:3:0:0:
153,260,156386,5,14,0:3:0:0:
111,233,156479,1,4,0:3:0:0:
62,230,156573,1,6,0:3:0:0:
17,251,156667,1,4,0:3:0:0:
0,290,156761,5,8,0:0:0:0:
27,330,156854,1,4,0:3:0:0:
76,337,156948,1,6,0:3:0:0:
98,330,157042,1,4,0:3:0:0:
122,333,157136,1,12,0:3:0:0:
170,337,157229,1,4,0:3:0:0:
212,313,157323,5,6,0:3:0:0:
240,273,157417,1,4,0:3:0:0:
283,248,157511,1,8,0:0:0:0:
331,242,157604,1,4,0:3:0:0:
378,257,157698,1,6,0:3:0:0:
415,290,157792,1,6,0:3:0:0:
434,335,157886,5,14,0:3:0:0:
386,322,157979,1,4,0:3:0:0:
348,289,158073,1,6,0:3:0:0:
331,242,158167,1,4,0:3:0:0:
340,193,158261,1,8,0:0:0:0:
372,156,158354,1,4,0:3:0:0:
418,139,158448,5,6,0:3:0:0:
392,96,158542,1,6,0:3:0:0:
355,64,158636,1,14,0:3:0:0:
309,46,158729,1,4,0:3:0:0:
260,43,158823,1,6,0:3:0:0:
212,56,158917,1,4,0:3:0:0:
171,84,159011,5,8,0:0:0:0:
175,146,159104,1,4,0:3:0:0:
180,207,159198,1,6,0:3:0:0:
184,269,159292,1,4,0:3:0:0:
188,331,159386,6,6,B|173:300|173:300|166:221|166:221|186:188|186:188|183:110|183:110|167:69,1,259.050000988197,6|8,0:3|0:0,0:1:0:0:
109,65,159854,1,4,0:3:0:0:
109,65,159948,2,6,P|119:125|227:44,1,259.050000988197,6|4,0:3|0:3,0:1:0:0:
313,16,160511,5,8,0:0:0:0:
373,15,160604,1,4,0:3:0:0:
423,50,160698,1,4,0:3:0:0:
442,108,160792,1,4,0:3:0:0:
424,166,160886,5,14,0:3:0:0:
435,226,160979,1,4,0:3:0:0:
420,285,161073,1,4,0:3:0:0:
380,332,161167,1,4,0:3:0:0:
324,358,161261,1,8,0:0:0:0:
263,357,161354,1,4,0:3:0:0:
208,330,161448,5,6,0:3:0:0:
233,270,161542,1,4,0:3:0:0:
220,207,161636,1,12,0:3:0:0:
173,162,161729,1,4,0:3:0:0:
108,153,161823,5,6,0:3:0:0:
158,194,161917,1,4,0:3:0:0:
220,207,162011,1,8,0:0:0:0:
281,190,162104,1,4,0:3:0:0:
328,146,162198,5,6,0:3:0:0:
290,92,162292,1,4,0:3:0:0:
235,55,162386,1,14,0:3:0:0:
171,42,162479,1,4,0:3:0:0:
106,52,162573,5,8,0:0:0:0:
64,100,162667,1,4,0:3:0:0:
0,107,162761,6,4,L|15:233,2,98.9999969787599,4|4|4,0:3|0:3|0:3,0:3:0:0:
120,271,163323,1,4,0:3:0:0:
35,350,163511,2,0,L|168:348,1,98.9999969787599,8|0,0:0|0:0,0:0:0:0:
219,275,163886,2,4,L|93:270,1,98.9999969787599,4|4,0:3|0:3,0:3:0:0:
251,356,164261,6,0,L|275:152,1,197.99999395752,6|4,0:3|0:3,0:0:0:0:
287,283,164823,1,4,0:3:0:0:
194,163,165011,1,8,0:0:0:0:
360,253,165198,2,0,P|365:305|232:342,1,197.99999395752,6|4,0:3|0:3,0:0:0:0:
408,316,165761,5,4,0:3:0:0:
194,163,165948,2,0,P|115:156|-3:217,1,197.99999395752,10|4,0:0|0:3,0:0:0:0:
121,119,166511,1,4,0:3:0:0:
210,238,166698,1,4,0:3:0:0:
281,87,166886,2,0,B|258:105|268:146|268:146|287:210|287:210|299:250|277:289,1,197.99999395752,10|4,0:0|0:3,0:0:0:0:
210,238,167448,5,4,0:3:0:0:
390,180,167636,1,4,0:3:0:0:
120,178,167823,2,0,B|128:226|184:242|184:242|137:287|163:369,1,197.99999395752,10|4,0:0|0:3,0:0:0:0:
83,269,168386,1,4,0:3:0:0:
194,163,168573,1,4,0:3:0:0:
38,199,168761,6,0,P|4:287|84:350,1,197.99999395752,10|4,0:0|0:3,0:0:0:0:
83,269,169323,1,4,0:3:0:0:
83,269,169511,1,4,0:3:0:0:
36,116,169698,2,0,P|24:76|33:11,1,98.9999969787599,10|0,0:0|0:0,0:0:0:0:
46,129,170073,1,4,0:3:0:0:
199,36,170261,1,4,0:3:0:0:
146,134,170448,1,4,0:3:0:0:
247,216,170636,5,6,0:3:0:0:
288,212,170729,1,4,0:3:0:0:
329,208,170823,1,4,0:3:0:0:
370,204,170917,1,4,0:3:0:0:
411,200,171011,1,4,0:3:0:0:
445,178,171104,1,4,0:3:0:0:
462,141,171198,1,4,0:3:0:0:
457,100,171292,1,4,0:3:0:0:
432,69,171386,5,8,0:0:0:0:
413,105,171479,1,4,0:3:0:0:
413,146,171573,1,4,0:3:0:0:
432,182,171667,1,4,0:3:0:0:
466,204,171761,1,4,0:3:0:0:
499,226,171854,1,4,0:3:0:0:
512,262,171948,1,4,0:3:0:0:
512,303,172042,1,4,0:3:0:0:
500,339,172136,1,4,0:3:0:0:
467,313,172229,1,4,0:3:0:0:
428,301,172323,1,4,0:3:0:0:
387,302,172417,1,4,0:3:0:0:
349,317,172511,1,4,0:3:0:0:
318,345,172604,1,4,0:3:0:0:
283,365,172698,1,4,0:3:0:0:
242,364,172792,1,4,0:3:0:0:
208,343,172886,5,8,0:0:0:0:
213,302,172979,1,4,0:3:0:0:
218,261,173073,1,4,0:3:0:0:
224,220,173167,1,4,0:3:0:0:
229,179,173261,1,4,0:3:0:0:
234,138,173354,1,4,0:3:0:0:
240,97,173448,1,4,0:3:0:0:
245,56,173542,1,4,0:3:0:0:
250,15,173636,6,4,B|272:39|272:39|261:143,1,115.49999647522,6|4,0:3|0:3,0:3:0:0:
353,186,173917,1,4,0:3:0:0:
353,180,174011,1,4,0:3:0:0:
354,174,174104,1,4,0:3:0:0:
354,168,174198,6,0,L|363:88,1,57.7499982376099,6|4,0:3|0:3,0:0:0:0:
456,63,174386,2,0,L|449:120,1,57.7499982376099,8|4,0:0|0:3,0:0:0:0:
438,221,174573,1,4,0:3:0:0:
439,227,174667,1,4,0:3:0:0:
439,235,174761,5,4,0:3:0:0:
402,217,174854,1,4,0:3:0:0:
361,216,174948,1,4,0:3:0:0:
323,232,175042,1,4,0:3:0:0:
297,263,175136,1,4,0:3:0:0:
270,293,175229,1,4,0:3:0:0:
232,310,175323,1,6,0:3:0:0:
191,309,175417,1,4,0:3:0:0:
155,291,175511,5,6,0:3:0:0:
199,271,175604,1,4,0:3:0:0:
248,267,175698,1,4,0:3:0:0:
296,279,175792,1,4,0:3:0:0:
338,306,175886,5,8,0:0:0:0:
387,278,175979,1,4,0:3:0:0:
412,227,176073,1,6,0:3:0:0:
404,171,176167,1,4,0:3:0:0:
365,130,176261,1,6,0:3:0:0:
309,118,176354,1,4,0:3:0:0:
256,139,176448,1,4,0:3:0:0:
226,187,176542,1,4,0:3:0:0:
228,244,176636,5,4,0:3:0:0:
240,242,176729,1,4,0:3:0:0:
252,240,176823,1,4,0:3:0:0:
264,238,176917,1,4,0:3:0:0:
272,235,177011,2,4,L|345:237,1,41.25,4|4,0:3|0:3,0:3:0:0:
194,330,177198,2,4,L|121:332,1,41.25,4|4,0:3|0:3,0:3:0:0:
33,225,177386,5,8,0:0:0:0:
34,228,177479,1,4,0:3:0:0:
36,232,177573,2,4,L|109:230,1,41.25,4|4,0:3|0:3,0:3:0:0:
221,111,177761,5,4,0:3:0:0:
213,151,177854,1,4,0:3:0:0:
206,192,177948,1,4,0:3:0:0:
198,232,178042,1,4,0:3:0:0:
191,273,178136,1,4,0:3:0:0:
227,253,178229,1,4,0:3:0:0:
267,256,178323,1,4,0:3:0:0:
300,281,178417,1,4,0:3:0:0:
314,319,178511,1,4,0:3:0:0:
345,345,178604,1,4,0:3:0:0:
386,350,178698,1,4,0:3:0:0:
422,332,178792,1,4,0:3:0:0:
443,297,178886,5,8,0:0:0:0:
394,301,178979,1,4,0:3:0:0:
344,304,179073,1,4,0:3:0:0:
295,307,179167,1,4,0:3:0:0:
251,311,179261,5,4,0:3:0:0:
308,318,179354,1,4,0:3:0:0:
365,325,179448,1,4,0:3:0:0:
422,332,179542,1,4,0:3:0:0:
480,340,179636,6,4,L|470:202,1,115.49999647522,6|4,0:3|0:3,0:3:0:0:
382,42,179917,1,4,0:3:0:0:
383,54,180011,2,4,L|374:169,1,115.49999647522,4|6,0:3|0:3,0:3:0:0:
240,256,180292,1,0,0:0:0:0:
240,256,180386,6,4,L|319:251,1,57.7499982376099,8|4,0:0|0:3,0:3:0:0:
160,319,180573,2,4,L|81:314,1,57.7499982376099,4|4,0:3|0:3,0:3:0:0:
34,235,180761,5,4,0:3:0:0:
33,230,180854,1,4,0:3:0:0:
32,226,180948,1,4,0:3:0:0:
32,222,181042,1,4,0:3:0:0:
29,216,181136,5,4,0:3:0:0:
65,235,181229,1,4,0:3:0:0:
105,237,181323,1,6,0:3:0:0:
143,222,181417,1,4,0:3:0:0:
171,191,181511,5,6,0:3:0:0:
203,155,181604,1,4,0:3:0:0:
248,134,181698,1,4,0:3:0:0:
297,133,181792,1,4,0:3:0:0:
342,153,181886,5,10,0:0:0:0:
305,95,181979,1,4,0:3:0:0:
239,80,182073,1,4,0:3:0:0:
181,117,182167,1,4,0:3:0:0:
172,192,182261,5,6,0:3:0:0:
190,272,182354,1,4,0:3:0:0:
140,340,182448,1,4,0:3:0:0:
57,346,182542,1,4,0:3:0:0:
0,286,182636,5,12,0:3:0:0:
512,224,182823,1,12,0:3:0:0:
477,231,184136,5,4,0:3:0:0:
449,230,184198,1,4,0:3:0:0:
425,219,184261,1,4,0:3:0:0:
407,197,184323,1,4,0:3:0:0:
401,171,184386,1,4,0:3:0:0:
406,144,184448,1,4,0:3:0:0:
423,122,184511,2,4,L|456:118,5,27.5,4|4|4|4|4|4,0:3|0:3|0:3|0:3|0:3|0:3,0:3:0:0:
360,45,184886,2,4,L|327:42,5,27.5,8|4|4|4|4|4,0:0|0:3|0:3|0:3|0:3|0:3,0:3:0:0:
270,80,185261,5,4,0:3:0:0:
270,85,185323,1,4,0:3:0:0:
271,90,185386,1,4,0:3:0:0:
272,96,185448,1,4,0:3:0:0:
273,101,185511,1,4,0:3:0:0:
273,107,185573,1,4,0:3:0:0:
273,112,185636,5,4,0:3:0:0:
245,108,185698,1,4,0:3:0:0:
218,105,185761,1,4,0:3:0:0:
191,101,185823,1,4,0:3:0:0:
163,98,185886,1,4,0:3:0:0:
136,95,185948,1,4,0:3:0:0:
109,91,186011,2,4,L|119:132,2,27.5,4|4|4,0:3|0:3|0:3,0:3:0:0:
62,206,186198,5,4,0:3:0:0:
89,202,186261,1,4,0:3:0:0:
116,199,186323,1,4,0:3:0:0:
143,195,186386,1,8,0:0:0:0:
171,192,186448,1,4,0:3:0:0:
198,189,186511,1,4,0:3:0:0:
225,186,186573,1,4,0:3:0:0:
252,184,186636,1,4,0:3:0:0:
279,181,186698,1,4,0:3:0:0:
306,178,186761,2,4,L|298:226,5,27.5,4|4|4|4|4|4,0:3|0:3|0:3|0:3|0:3|0:3,0:3:0:0:
325,320,187136,5,4,0:3:0:0:
346,336,187198,1,4,0:3:0:0:
373,339,187261,1,4,0:3:0:0:
397,326,187323,1,4,0:3:0:0:
410,303,187386,1,4,0:3:0:0:
407,276,187448,1,4,0:3:0:0:
391,254,187511,2,4,P|380:236|372:208,5,27.5,4|4|4|4|4|4,0:3|0:3|0:3|0:3|0:3|0:3,0:3:0:0:
366,159,187886,5,8,0:0:0:0:
393,146,187948,1,4,0:3:0:0:
410,122,188011,1,4,0:3:0:0:
414,92,188073,1,4,0:3:0:0:
403,65,188136,1,4,0:3:0:0:
379,46,188198,1,4,0:3:0:0:
349,42,188261,5,8,0:0:0:0:
355,82,188323,1,4,0:3:0:0:
384,111,188386,1,4,0:3:0:0:
424,118,188448,1,4,0:3:0:0:
460,100,188511,1,4,0:3:0:0:
479,65,188573,1,4,0:3:0:0:
474,24,188636,6,4,L|412:19,1,41.25,4|4,0:3|0:3,0:3:0:0:
426,188,188823,1,4,0:3:0:0:
424,191,188917,1,4,0:3:0:0:
423,195,189011,2,4,L|430:262,1,41.25,4|4,0:3|0:3,0:3:0:0:
295,315,189198,2,4,L|298:273,1,41.25,4|4,0:3|0:3,0:3:0:0:
183,216,189386,5,8,0:0:0:0:
150,240,189479,1,4,0:3:0:0:
109,243,189573,1,4,0:3:0:0:
73,223,189667,1,4,0:3:0:0:
54,188,189761,1,4,0:3:0:0:
56,147,189854,1,4,0:3:0:0:
80,114,189948,1,4,0:3:0:0:
117,99,190042,1,4,0:3:0:0:
157,107,190136,5,4,0:3:0:0:
180,141,190229,1,4,0:3:0:0:
213,165,190323,1,4,0:3:0:0:
253,174,190417,1,4,0:3:0:0:
294,168,190511,1,4,0:3:0:0:
333,158,190604,1,4,0:3:0:0:
372,169,190698,1,4,0:3:0:0:
398,200,190792,1,4,0:3:0:0:
406,236,190886,5,8,0:0:0:0:
366,228,190979,1,4,0:3:0:0:
338,198,191073,1,4,0:3:0:0:
333,158,191167,1,4,0:3:0:0:
352,122,191261,5,4,0:3:0:0:
380,83,191354,1,4,0:3:0:0:
367,37,191448,1,4,0:3:0:0:
323,20,191542,1,4,0:3:0:0:
282,45,191636,6,4,B|300:76|300:76|281:189,1,115.49999647522,6|4,0:3|0:3,0:3:0:0:
171,262,191917,1,4,0:3:0:0:
172,265,192011,1,4,0:3:0:0:
173,268,192104,1,4,0:3:0:0:
174,273,192198,6,4,B|273:259,1,57.7499982376099,6|4,0:3|0:3,0:3:0:0:
359,244,192386,2,4,B|458:230,1,57.7499982376099,8|4,0:0|0:3,0:3:0:0:
462,319,192573,1,4,0:3:0:0:
460,322,192667,1,4,0:3:0:0:
460,326,192761,5,4,0:3:0:0:
420,334,192854,1,4,0:3:0:0:
382,318,192948,1,4,0:3:0:0:
359,285,193042,1,4,0:3:0:0:
359,244,193136,1,4,0:3:0:0:
382,210,193229,1,4,0:3:0:0:
428,199,193323,5,4,0:3:0:0:
473,172,193417,1,4,0:3:0:0:
493,123,193511,1,4,0:3:0:0:
480,72,193604,1,4,0:3:0:0:
439,39,193698,1,4,0:3:0:0:
386,38,193792,1,4,0:3:0:0:
323,76,193886,5,8,0:0:0:0:
275,142,193979,1,4,0:3:0:0:
204,182,194073,1,4,0:3:0:0:
122,188,194167,1,4,0:3:0:0:
46,158,194261,1,12,0:3:0:0:
493,123,194448,1,12,0:3:0:0:
294,36,194636,5,6,0:0:0:0:
420,293,194823,1,6,0:3:0:0:
148,68,195011,2,0,P|93:50|51:172,1,197.99999395752,6|0,0:3|0:0,0:0:0:0:
140,265,195573,2,0,L|148:57,1,197.99999395752,2|4,0:0|0:3,0:0:0:0:
223,316,196136,6,0,P|136:355|57:303,1,197.99999395752,8|0,0:0|0:0,0:0:0:0:
293,159,196698,2,0,L|282:277,1,98.9999969787599,2|0,0:0|0:0,0:0:0:0:
296,140,197073,1,0,0:0:0:0:
392,348,197261,2,0,L|382:249,1,98.9999969787599,2|4,0:0|0:3,0:0:0:0:
458,232,197636,5,4,0:3:0:0:
138,209,197823,2,0,B|367:200|264:311|522:307,1,395.999987915039,2|0,0:0|0:0,0:0:0:0:
458,232,198761,1,4,0:3:0:0:
232,308,198948,1,4,0:3:0:0:
161,128,199136,5,8,0:0:0:0:
112,127,199229,1,8,0:0:0:0:
70,152,199323,1,8,0:3:0:0:
48,195,199417,1,8,0:3:0:0:
52,244,199511,1,4,0:3:0:0:
55,258,199604,1,4,0:3:0:0:
57,272,199698,5,8,0:0:0:0:
106,266,199792,1,8,0:0:0:0:
148,292,199886,1,8,0:3:0:0:
197,298,199979,1,8,0:3:0:0:
242,278,200073,5,8,0:0:0:0:
291,272,200167,1,8,0:0:0:0:
331,300,200261,1,8,0:3:0:0:
367,307,200354,1,8,0:3:0:0:
401,320,200448,1,4,0:3:0:0:
433,340,200542,1,4,0:3:0:0:
460,366,200636,6,0,P|447:312|459:247,1,98.9999969787599,6|6,0:0|0:3,0:0:0:0:
492,119,201011,2,0,P|505:173|375:191,1,197.99999395752,6|0,0:3|0:0,0:0:0:0:
405,24,201573,2,0,B|371:20|349:66|368:96|368:96|428:109|443:181,1,197.99999395752,2|4,0:0|0:3,0:0:0:0:
254,289,202136,6,0,B|282:249|341:265|341:265|306:212|228:224,1,197.99999395752,8|0,0:0|0:0,0:0:0:0:
395,216,202698,2,0,P|413:269|383:325,1,98.9999969787599,2|0,0:0|0:0,0:0:0:0:
382,202,203073,1,0,0:0:0:0:
240,369,203261,2,0,L|340:370,1,98.9999969787599,2|4,0:0|0:3,0:0:0:0:
203,300,203636,1,4,0:3:0:0:
98,364,203823,6,0,B|119:312|101:269|101:269|137:201|137:201|97:136|128:71|170:46|255:99|196:170,1,395.999987915039,2|0,0:0|0:0,0:0:0:0:
48,197,204761,5,2,0:0:0:0:
213,132,204948,1,2,0:0:0:0:
33,317,205136,5,8,0:0:0:0:
264,225,205323,1,8,0:0:0:0:
264,225,206636,5,6,0:0:0:0:
12,117,206823,1,6,0:3:0:0:
322,169,207011,2,0,P|345:230|236:303,1,197.99999395752,6|0,0:3|0:0,0:0:0:0:
357,74,207573,2,0,P|334:135|443:208,1,197.99999395752,2|4,0:0|0:3,0:0:0:0:
450,32,208136,6,0,B|409:29|366:-18|366:-18|314:22|251:15,1,197.99999395752,8|0,0:0|0:0,0:0:0:0:
347,173,208698,2,0,L|356:73,1,98.9999969787599,2|0,0:0|0:0,0:0:0:0:
359,187,209073,1,0,0:0:0:0:
178,208,209261,2,0,L|277:218,1,98.9999969787599,2|4,0:0|0:3,0:0:0:0:
149,132,209636,5,4,0:3:0:0:
251,340,209823,2,0,P|371:359|273:219,1,395.999987915039,2|4,0:0|0:3,0:0:0:0:
321,289,210761,1,4,0:3:0:0:
321,289,210948,1,6,0:3:0:0:
180,74,211136,5,8,0:0:0:0:
131,74,211229,1,8,0:0:0:0:
91,103,211323,1,8,0:0:0:0:
75,149,211417,1,8,0:0:0:0:
88,196,211511,1,8,0:3:0:0:
108,181,211604,1,8,0:3:0:0:
129,168,211698,5,8,0:0:0:0:
177,167,211792,1,8,0:0:0:0:
211,201,211886,1,8,0:0:0:0:
212,249,211979,1,8,0:0:0:0:
178,284,212073,5,4,0:3:0:0:
228,283,212167,1,8,0:0:0:0:
277,282,212261,1,8,0:0:0:0:
327,281,212354,1,8,0:3:0:0:
376,281,212448,1,4,0:3:0:0:
368,268,212542,1,4,0:3:0:0:
360,255,212636,6,0,P|406:243|467:301,1,98.9999969787599,6|6,0:0|0:3,0:0:0:0:
321,369,213011,2,0,L|337:143,1,197.99999395752,6|0,0:3|0:0,0:0:0:0:
263,85,213573,2,0,L|276:282,1,197.99999395752,2|4,0:0|0:3,0:0:0:0:
339,51,214136,6,0,P|235:8|180:87,1,197.99999395752,8|0,0:0|0:0,0:0:0:0:
370,121,214698,2,0,B|414:96|414:96|415:31,1,98.9999969787599,2|0,0:0|0:0,0:0:0:0:
357,133,215073,1,0,0:0:0:0:
492,169,215261,2,0,P|502:218|488:277,1,98.9999969787599,2|4,0:0|0:3,0:0:0:0:
488,63,215636,5,4,0:3:0:0:
453,343,215823,2,0,P|410:319|256:311,1,197.99999395752,2|0,0:0|0:0,0:0:0:0:
267,196,216386,2,0,P|224:220|70:228,1,197.99999395752,2|0,0:0|0:0,0:0:0:0:
36,162,216948,1,4,0:3:0:0:
278,181,217136,5,4,0:3:0:0:
277,230,217229,1,8,0:0:0:0:
300,273,217323,1,8,0:0:0:0:
340,301,217417,1,8,0:0:0:0:
389,308,217511,1,8,0:0:0:0:
435,291,217604,1,8,0:0:0:0:
467,254,217698,1,8,0:3:0:0:
480,207,217792,1,8,0:3:0:0:
466,159,217886,5,8,0:0:0:0:
433,194,217979,1,8,0:3:0:0:
385,195,218073,1,8,0:3:0:0:
352,160,218167,1,8,0:3:0:0:
355,112,218261,1,8,0:3:0:0:
318,82,218354,1,8,0:3:0:0:
272,96,218448,1,8,0:3:0:0:
256,141,218542,1,8,0:3:0:0:
278,181,218636,6,2,B|230:193|180:161|180:161|123:194|123:194|84:165|38:175,1,255.75,0|0,0:0|0:0,0:2:0:0:
65,246,222476,5,4,0:3:0:0:
67,253,222536,1,8,0:0:0:0:
71,261,222596,1,4,0:3:0:0:
76,267,222656,1,8,0:0:0:0:
81,274,222716,1,4,0:3:0:0:
87,279,222776,1,8,0:0:0:0:
94,283,222836,1,4,0:3:0:0:
102,287,222896,1,8,0:0:0:0:
110,289,222956,1,4,0:3:0:0:
118,290,223016,1,8,0:0:0:0:
126,290,223076,1,4,0:3:0:0:
134,290,223136,1,8,0:0:0:0:
142,287,223196,1,4,0:3:0:0:
150,284,223256,1,8,0:0:0:0:
157,280,223316,1,4,0:3:0:0:
164,275,223376,1,8,0:0:0:0:
169,269,223436,1,4,0:3:0:0:
174,263,223496,1,8,0:0:0:0:
178,255,223556,1,4,0:3:0:0:
181,248,223616,1,8,0:0:0:0:
183,240,223676,1,4,0:3:0:0:
184,231,223736,1,8,0:0:0:0:
183,223,223796,1,4,0:3:0:0:
182,215,223856,1,8,0:0:0:0:
180,208,223916,6,0,L|171:150,7,41.25,6|8|4|8|4|8|4|8,0:3|0:0|0:3|0:0|0:3|0:0|0:3|0:0,0:0:0:0:
256,133,224396,2,0,L|263:92,3,41.25,6|8|4|8,0:3|0:0|0:3|0:0,0:0:0:0:
346,58,224636,2,0,L|339:17,7,41.25,6|8|4|8|4|8|4|8,0:3|0:0|0:3|0:0|0:3|0:0|0:3|0:0,0:0:0:0:
418,101,225116,2,0,L|425:60,11,41.25,6|8|4|8|4|8|4|8|4|8|4|8,0:3|0:0|0:3|0:0|0:3|0:0|0:3|0:0|0:3|0:0|0:3|0:0,0:0:0:0:
470,158,225836,6,8,P|469:180|456:223,1,41.25,12|12,0:3|0:3,0:0:0:0:
508,254,225956,2,8,P|491:268|452:290,1,41.25
473,350,226076,2,8,P|451:349|408:336,1,41.25,12|12,0:3|0:3,0:0:0:0:
373,383,226196,2,8,P|358:366|336:327,1,41.25
322,279,226316,5,4,0:3:0:0:
314,274,226376,1,8,0:0:0:0:
307,271,226436,1,4,0:3:0:0:
299,268,226496,1,8,0:0:0:0:
291,267,226556,1,4,0:3:0:0:
283,266,226616,1,8,0:0:0:0:
275,266,226676,1,4,0:3:0:0:
266,267,226736,1,8,0:0:0:0:
258,269,226796,1,4,0:3:0:0:
251,272,226856,1,8,0:0:0:0:
243,276,226916,1,4,0:3:0:0:
237,280,226976,1,8,0:0:0:0:
230,286,227036,1,4,0:3:0:0:
225,292,227096,1,8,0:0:0:0:
220,298,227156,1,4,0:3:0:0:
216,306,227216,1,8,0:0:0:0:
212,313,227276,1,4,0:3:0:0:
210,321,227336,1,8,0:0:0:0:
208,329,227396,1,4,0:3:0:0:
208,337,227456,1,8,0:0:0:0:
209,346,227516,6,0,L|144:333,3,41.25,6|8|4|8,0:3|0:0|0:3|0:0,0:0:0:0:
142,252,227756,2,0,L|77:265,3,41.25,6|8|4|8,0:3|0:0|0:3|0:0,0:0:0:0:
109,171,227996,2,0,L|44:158,3,41.25,6|8|4|8,0:3|0:0|0:3|0:0,0:0:0:0:
139,80,228236,6,0,L|204:67,5,41.25,6|8|4|8|4|8,0:3|0:0|0:3|0:0|0:3|0:0,0:0:0:0:
237,17,228596,2,0,L|302:30,5,41.25,6|8|4|8|4|8,0:3|0:0|0:3|0:0|0:3|0:0,0:0:0:0:
352,28,228956,2,0,L|417:15,3,41.25,6|8|4|8,0:3|0:0|0:3|0:0,0:0:0:0:
340,99,229196,5,4,0:3:0:0:
325,113,229256,1,4,0:3:0:0:
314,131,229316,1,4,0:3:0:0:
310,151,229376,1,4,0:3:0:0:
310,171,229436,1,4,0:3:0:0:
317,191,229496,1,4,0:3:0:0:
328,208,229556,1,4,0:3:0:0:
344,221,229616,1,4,0:3:0:0:
368,230,229676,6,8,P|404:246|419:262,1,41.25,10|8,0:0|0:0,0:0:0:0:
358,306,229796,2,8,P|372:342|371:364,1,41.25
295,347,229916,2,8,P|279:383|263:398,1,41.25,4|8,0:3|0:0,0:0:0:0:
221,336,230036,2,8,P|184:350|162:349,1,41.25
181,264,230156,6,2,P|141:237|51:263,1,123.750004720688,2|4,0:0|0:3,0:1:0:0:
71,254,230456,1,8,0:0:0:0:
72,262,230516,1,4,0:3:0:0:
73,270,230576,1,8,0:0:0:0:
75,278,230636,1,6,0:3:0:0:
76,287,230696,1,8,0:0:0:0:
77,295,230756,1,4,0:3:0:0:
79,303,230816,1,8,0:0:0:0:
80,311,230876,1,4,0:3:0:0:
81,319,230936,1,8,0:0:0:0:
83,327,230996,1,4,0:3:0:0:
84,335,231056,1,8,0:0:0:0:
85,343,231116,6,0,L|44:335,7,41.25,6|8|4|8|4|8|4|8,0:3|0:0|0:3|0:0|0:3|0:0|0:3|0:0,0:0:0:0:
69,246,231596,2,0,L|110:238,7,41.25,6|8|4|8|4|8|4|8,0:3|0:0|0:3|0:0|0:3|0:0|0:3|0:0,0:0:0:0:
173,172,232076,5,6,0:3:0:0:
178,178,232136,1,8,0:0:0:0:
184,184,232196,1,4,0:3:0:0:
191,188,232256,1,8,0:0:0:0:
198,191,232316,1,4,0:3:0:0:
206,193,232376,1,8,0:0:0:0:
214,194,232436,1,4,0:3:0:0:
223,194,232496,1,8,0:0:0:0:
230,191,232556,6,0,P|254:189|302:206,3,41.25,6|8|4|8,0:3|0:0|0:3|0:0,0:0:0:0:
315,248,232796,2,0,P|339:250|387:233,7,41.25,6|8|4|8|4|8|4|8,0:3|0:0|0:3|0:0|0:3|0:0|0:3|0:0,0:0:0:0:
413,190,233276,6,8,P|422:168|413:115,1,41.25
409,76,233396,2,8,P|399:54|355:22,1,41.25
318,13,233516,2,8,P|296:4|243:13,1,41.25
204,17,233636,2,8,P|182:26|150:70,1,41.25
124,103,233756,2,8,P|115:125|124:178,1,41.25
128,217,233876,2,8,P|137:239|181:271,1,41.25
219,288,233996,6,0,L|395:266,1,165,0|8,0:0|0:0,0:0:0:0:
390,270,234296,1,4,0:3:0:0:
397,272,234356,1,8,0:0:0:0:
405,275,234416,1,4,0:3:0:0:
413,278,234476,1,10,0:0:0:0:
421,280,234536,1,4,0:3:0:0:
428,283,234596,1,8,0:0:0:0:
436,286,234656,1,4,0:3:0:0:
444,289,234716,1,8,0:0:0:0:
452,291,234776,1,4,0:3:0:0:
460,294,234836,1,8,0:0:0:0:
467,297,234896,1,4,0:3:0:0:
473,301,234956,5,10,0:0:0:0:
472,292,235016,1,4,0:3:0:0:
472,284,235076,1,8,0:0:0:0:
471,276,235136,1,4,0:3:0:0:
471,268,235196,1,8,0:0:0:0:
471,259,235256,1,4,0:3:0:0:
473,252,235316,1,8,0:0:0:0:
477,244,235376,1,4,0:3:0:0:
481,237,235436,1,10,0:0:0:0:
484,230,235496,1,4,0:3:0:0:
484,221,235556,1,8,0:0:0:0:
483,213,235616,1,4,0:3:0:0:
483,205,235676,1,8,0:0:0:0:
482,197,235736,1,4,0:3:0:0:
481,189,235796,1,8,0:0:0:0:
481,180,235856,1,4,0:3:0:0:
480,172,235916,6,0,L|483:128,15,41.25,10|4|8|4|8|4|8|4|8|4|10|4|8|4|8|4,0:0|0:3|0:0|0:3|0:0|0:3|0:0|0:3|0:0|0:3|0:0|0:3|0:0|0:3|0:0|0:3,0:0:0:0:
464,43,236876,2,8,P|436:35|399:38,1,41.25
348,42,236996,2,8,P|321:53|294:79,1,41.25
261,117,237116,2,4,P|248:143|244:180,1,41.25,4|4,0:3|0:3,0:3:0:0:
244,228,237236,2,4,P|253:255|276:284,1,41.25,4|4,0:3|0:3,0:3:0:0:
363,210,237356,6,8,L|309:219,1,41.25
165,178,237476,1,4,0:3:0:0:
152,180,237536,1,4,0:3:0:0:
140,185,237596,6,8,P|140:218|148:242,1,41.25
167,294,237716,2,8,P|183:322|201:338,1,41.25
251,374,237836,6,0,P|295:386|352:368,1,82.5,4|8,0:0|0:0,0:0:0:0:
512,266,238076,2,0,P|468:254|411:272,1,82.5,4|8,0:3|0:0,0:0:0:0:
295,311,238316,1,4,0:3:0:0:
468,340,238436,1,8,0:0:0:0:
407,176,238556,1,4,0:3:0:0:
295,311,238676,1,8,0:0:0:0:
479,125,238796,6,0,P|428:95|371:106,1,82.5,4|8,0:3|0:0,0:0:0:0:
347,232,239036,2,0,P|398:262|455:251,1,82.5,4|8,0:3|0:0,0:0:0:0:
274,82,239276,2,0,L|291:170,1,82.5,4|8,0:3|0:0,0:0:0:0:
479,125,239516,2,0,L|463:43,1,82.5,4|8,0:3|0:0,0:0:0:0:
274,82,239756,5,4,0:3:0:0:
400,270,239876,1,8,0:0:0:0:
274,82,239996,1,4,0:3:0:0:
258,261,240116,1,8,0:0:0:0:
464,232,240236,2,0,P|474:285|447:330,1,82.5,4|8,0:3|0:0,0:0:0:0:
206,121,240476,2,0,P|196:68|223:23,1,82.5,4|8,0:3|0:0,0:0:0:0:
175,302,240716,6,0,L|78:294,1,82.5,4|8,0:3|0:0,0:0:0:0:
320,176,240956,2,0,L|417:168,1,82.5,4|8,0:3|0:0,0:0:0:0:
206,121,241196,1,4,0:3:0:0:
235,206,241316,1,8,0:0:0:0:
320,176,241436,1,4,0:3:0:0:
291,91,241556,1,8,0:0:0:0:
135,69,241676,6,0,P|86:52|38:54,1,82.5,4|8,0:3|0:0,0:0:0:0:
291,91,241916,2,0,P|332:88|370:73,1,82.5,4|8,0:3|0:0,0:0:0:0:
219,39,242156,1,4,0:3:0:0:
237,223,242276,1,8,0:0:0:0:
219,39,242396,1,4,0:3:0:0:
139,206,242516,1,8,0:0:0:0:
135,69,242636,5,4,0:3:0:0:
303,185,242756,1,8,0:0:0:0:
41,202,242876,2,0,P|30:259|58:301,1,82.5,4|8,0:3|0:0,0:0:0:0:
301,263,243116,2,0,P|312:206|284:164,1,82.5,4|8,0:3|0:0,0:0:0:0:
131,323,243356,2,0,L|232:312,1,82.5,4|8,0:3|0:0,0:0:0:0:
303,185,243596,6,0,P|292:242|320:284,1,82.5,4|8,0:3|0:0,0:0:0:0:
398,147,243836,2,0,L|409:39,1,82.5,4|8,0:3|0:0,0:0:0:0:
242,126,244076,2,0,L|148:125,1,82.5,4|8,0:3|0:0,0:0:0:0:
429,222,244316,2,0,L|523:221,1,82.5,4|8,0:3|0:0,0:0:0:0:
342,295,244556,5,8,0:0:0:0:
324,284,244616,1,8,0:0:0:0:
304,280,244676,1,8,0:0:0:0:
283,281,244736,1,8,0:0:0:0:
264,289,244796,1,8,0:0:0:0:
245,294,244856,1,8,0:0:0:0:
224,294,244916,1,8,0:0:0:0:
204,288,244976,1,8,0:0:0:0:
188,274,245036,5,8,0:3:0:0:
188,263,245096,1,8,0:3:0:0:
188,253,245156,1,8,0:3:0:0:
189,243,245216,1,8,0:3:0:0:
190,230,245276,2,8,P|184:198|173:177,1,41.25
261,159,245396,2,8,P|267:127|278:106,1,41.25
175,56,245516,6,0,L|83:53,1,82.5,4|8,0:3|0:0,0:0:0:0:
274,6,245756,2,0,L|366:3,1,82.5,4|8,0:3|0:0,0:0:0:0:
340,163,245996,1,4,0:3:0:0:
274,20,246116,1,8,0:0:0:0:
340,163,246236,1,4,0:3:0:0:
427,33,246356,1,8,0:0:0:0:
271,119,246476,6,0,P|258:161|273:210,1,82.5,4|8,0:3|0:0,0:0:0:0:
497,78,246716,2,0,P|510:36|495:-13,1,82.5,4|8,0:3|0:0,0:0:0:0:
224,264,246956,2,0,B|265:282|265:282|311:265,1,82.5,4|8,0:3|0:0,0:0:0:0:
494,160,247196,2,0,B|453:142|453:142|407:159,1,82.5,4|8,0:3|0:0,0:0:0:0:
435,339,247436,5,4,0:3:0:0:
452,227,247556,1,8,0:0:0:0:
265,197,247676,1,4,0:3:0:0:
276,361,247796,1,8,0:0:0:0:
295,128,247916,2,0,P|236:122|207:144,1,82.5,4|8,0:3|0:0,0:0:0:0:
374,231,248156,2,0,P|433:237|462:215,1,82.5,4|8,0:3|0:0,0:0:0:0:
230,264,248396,6,0,L|144:270,1,82.5,4|8,0:3|0:0,0:0:0:0:
417,155,248636,2,0,L|503:161,1,82.5,4|8,0:3|0:0,0:0:0:0:
264,76,248876,2,8,L|211:68,1,41.25
151,50,248996,2,8,L|107:81,1,41.25
66,129,249116,1,8,0:3:0:0:
66,139,249176,1,8,0:3:0:0:
66,149,249236,1,8,0:3:0:0:
66,159,249296,1,8,0:3:0:0:
66,172,249356,5,4,0:3:0:0:
73,167,249416,1,4,0:3:0:0:
81,165,249476,1,8,0:0:0:0:
89,166,249536,1,4,0:3:0:0:
97,168,249596,1,4,0:3:0:0:
103,173,249656,1,4,0:3:0:0:
108,180,249716,1,8,0:0:0:0:
111,188,249776,1,4,0:3:0:0:
111,196,249836,1,4,0:3:0:0:
109,204,249896,1,4,0:3:0:0:
105,211,249956,1,8,0:0:0:0:
98,216,250016,1,4,0:3:0:0:
91,220,250076,1,4,0:3:0:0:
83,221,250136,1,4,0:3:0:0:
75,219,250196,1,8,0:0:0:0:
67,216,250256,1,4,0:3:0:0:
61,210,250316,5,4,0:3:0:0:
74,209,250376,1,4,0:3:0:0:
88,208,250436,1,8,0:0:0:0:
102,208,250496,1,4,0:3:0:0:
115,207,250556,1,4,0:3:0:0:
129,206,250616,1,4,0:3:0:0:
143,206,250676,1,8,0:0:0:0:
155,211,250736,1,4,0:3:0:0:
167,218,250796,1,4,0:3:0:0:
180,222,250856,1,4,0:3:0:0:
193,221,250916,1,8,0:0:0:0:
207,220,250976,1,4,0:3:0:0:
221,220,251036,1,4,0:3:0:0:
234,219,251096,1,4,0:3:0:0:
248,218,251156,1,8,0:0:0:0:
262,217,251216,1,4,0:3:0:0:
274,216,251276,5,4,0:3:0:0:
280,207,251336,1,4,0:3:0:0:
285,197,251396,1,8,0:0:0:0:
288,186,251456,1,4,0:3:0:0:
288,175,251516,1,4,0:3:0:0:
287,165,251576,1,4,0:3:0:0:
283,154,251636,1,8,0:0:0:0:
277,145,251696,1,4,0:3:0:0:
269,137,251756,1,4,0:3:0:0:
260,131,251816,1,4,0:3:0:0:
250,127,251876,1,8,0:0:0:0:
239,125,251936,1,4,0:3:0:0:
228,125,251996,1,4,0:3:0:0:
218,127,252056,1,4,0:3:0:0:
208,132,252116,1,8,0:0:0:0:
199,138,252176,1,4,0:3:0:0:
189,145,252236,6,4,L|191:70,7,41.25,4|4|8|4|4|4|8|4,0:3|0:3|0:0|0:3|0:3|0:3|0:0|0:3,0:3:0:0:
192,25,252716,2,8,P|170:19|122:19,1,41.25
105,76,252836,2,8,P|85:87|51:121,1,41.25
97,169,252956,1,8,0:3:0:0:
97,179,253016,1,8,0:3:0:0:
97,189,253076,1,8,0:3:0:0:
97,199,253136,1,8,0:3:0:0:
97,210,253196,6,0,B|161:204|161:204|190:219|190:219|297:209,1,165,4|0,0:0|0:0,0:0:0:0:
274,224,253496,1,8,0:0:0:0:
296,233,253556,1,4,0:3:0:0:
321,235,253616,1,8,0:0:0:0:
345,229,253676,1,6,0:3:0:0:
365,215,253736,1,8,0:0:0:0:
380,196,253796,1,4,0:3:0:0:
388,172,253856,1,8,0:0:0:0:
387,148,253916,1,4,0:3:0:0:
379,124,253976,1,8,0:0:0:0:
363,105,254036,1,4,0:3:0:0:
342,92,254096,1,8,0:0:0:0:
323,109,254156,6,0,L|388:103,1,41.25,6|8,0:3|0:0,0:0:0:0:
310,118,254276,2,0,L|375:112,1,41.25,4|8,0:3|0:0,0:0:0:0:
303,126,254396,2,0,L|368:120,1,41.25,4|8,0:3|0:0,0:0:0:0:
291,135,254516,2,0,L|356:129,1,41.25,4|8,0:3|0:0,0:0:0:0:
183,202,254636,6,0,L|118:196,1,41.25,6|8,0:3|0:0,0:0:0:0:
196,211,254756,2,0,L|131:205,1,41.25,4|8,0:3|0:0,0:0:0:0:
203,219,254876,2,0,L|138:213,1,41.25,4|8,0:3|0:0,0:0:0:0:
215,228,254996,2,0,L|150:222,1,41.25,4|8,0:3|0:0,0:0:0:0:
83,335,255116,5,6,0:3:0:0:
106,327,255176,1,8,0:0:0:0:
130,319,255236,1,4,0:3:0:0:
153,312,255296,1,8,0:0:0:0:
177,305,255356,1,4,0:3:0:0:
197,319,255416,1,8,0:0:0:0:
218,332,255476,1,4,0:3:0:0:
239,346,255536,1,8,0:0:0:0:
260,359,255596,2,0,L|324:351,1,41.25,6|8,0:3|0:0,0:0:0:0:
421,320,255716,5,4,0:3:0:0:
416,295,255776,1,8,0:0:0:0:
411,271,255836,1,6,0:3:0:0:
416,248,255896,1,8,0:0:0:0:
427,225,255956,1,4,0:3:0:0:
425,201,256016,1,8,0:0:0:0:
420,177,256076,6,0,L|409:115,1,41.25,4|8,0:3|0:0,0:0:0:0:
331,82,256196,2,0,L|338:122,1,41.25,4|8,0:3|0:0,0:0:0:0:
427,182,256316,2,0,L|415:119,1,41.25,6|8,0:3|0:0,0:0:0:0:
324,81,256436,2,0,L|331:121,1,41.25,4|8,0:3|0:0,0:0:0:0:
281,210,256556,5,8,0:0:0:0:
248,217,256616,1,8,0:0:0:0:
216,224,256676,1,8,0:0:0:0:
184,232,256736,1,8,0:0:0:0:
164,258,256796,5,4,0:3:0:0:
144,251,256856,1,4,0:3:0:0:
125,244,256916,1,4,0:3:0:0:
105,237,256976,1,4,0:3:0:0:
91,213,257036,6,0,B|134:201|134:201|204:228|204:228|282:207,1,165,4|4,0:3|0:3,0:0:0:0:
278,227,257336,1,8,0:0:0:0:
301,220,257396,1,4,0:3:0:0:
319,203,257456,1,8,0:0:0:0:
329,181,257516,6,0,L|317:118,1,41.25,6|8,0:3|0:0,0:0:0:0:
340,191,257636,2,0,L|328:128,1,41.25,4|8,0:3|0:0,0:0:0:0:
217,68,257756,6,0,L|205:131,1,41.25,6|8,0:3|0:0,0:0:0:0:
228,58,257876,2,0,L|216:121,1,41.25,4|8,0:3|0:0,0:0:0:0:
45,142,257996,5,6,0:3:0:0:
25,157,258056,1,8,0:0:0:0:
12,178,258116,1,4,0:3:0:0:
7,202,258176,1,8,0:0:0:0:
11,227,258236,1,4,0:3:0:0:
22,248,258296,1,8,0:0:0:0:
40,265,258356,1,4,0:3:0:0:
62,275,258416,1,8,0:0:0:0:
87,277,258476,5,6,0:3:0:0:
63,285,258536,1,8,0:0:0:0:
46,302,258596,1,4,0:3:0:0:
40,326,258656,1,8,0:0:0:0:
45,350,258716,1,4,0:3:0:0:
60,369,258776,1,8,0:0:0:0:
83,378,258836,1,4,0:3:0:0:
107,376,258896,1,8,0:0:0:0:
128,363,258956,6,0,L|137:309,1,41.25,6|8,0:3|0:0,0:0:0:0:
211,265,259076,2,0,L|217:224,1,41.25,4|8,0:3|0:0,0:0:0:0:
132,367,259196,6,0,L|140:312,1,41.25,6|8,0:3|0:0,0:0:0:0:
215,269,259316,2,0,L|221:228,1,41.25,4|8,0:3|0:0,0:0:0:0:
136,371,259436,6,0,L|144:316,1,41.25,6|8,0:3|0:0,0:0:0:0:
218,272,259556,2,0,L|224:231,1,41.25,4|8,0:3|0:0,0:0:0:0:
140,375,259676,6,0,L|148:320,1,41.25,6|8,0:3|0:0,0:0:0:0:
222,276,259796,2,0,L|228:235,1,41.25,4|8,0:3|0:0,0:0:0:0:
308,316,259916,5,8,0:0:0:0:
348,311,259976,1,8,0:0:0:0:
389,306,260036,1,8,0:0:0:0:
430,301,260096,1,8,0:0:0:0:
471,296,260156,5,4,0:3:0:0:
451,292,260216,1,4,0:3:0:0:
431,289,260276,1,4,0:3:0:0:
410,286,260336,1,4,0:3:0:0:
390,283,260396,5,8,0:0:0:0:
437,286,260456,1,8,0:0:0:0:
467,249,260516,1,8,0:0:0:0:
455,203,260576,1,8,0:0:0:0:
410,187,260636,5,8,0:3:0:0:
383,177,260696,1,8,0:3:0:0:
369,153,260756,1,8,0:3:0:0:
377,126,260816,1,8,0:3:0:0:
401,111,260876,6,2,L|383:298,1,165,4|8,0:3|0:0,0:0:0:0:
365,298,261176,1,4,0:3:0:0:
343,273,261236,1,8,0:0:0:0:
313,260,261296,1,4,0:3:0:0:
280,260,261356,1,10,0:0:0:0:
250,274,261416,1,4,0:3:0:0:
229,299,261476,1,8,0:0:0:0:
207,323,261536,1,4,0:3:0:0:
178,337,261596,1,8,0:0:0:0:
145,338,261656,1,4,0:3:0:0:
115,325,261716,1,8,0:0:0:0:
93,300,261776,1,4,0:3:0:0:
101,285,261836,6,0,L|161:282,1,49.4999984893799,10|4,0:0|0:3,0:0:0:0:
91,280,261956,2,0,L|151:277,1,49.4999984893799,8|4,0:0|0:3,0:0:0:0:
82,275,262076,2,0,L|142:272,1,49.4999984893799,8|4,0:0|0:3,0:0:0:0:
72,270,262196,2,0,L|132:267,1,49.4999984893799,8|4,0:0|0:3,0:0:0:0:
50,166,262316,6,0,L|110:169,1,49.4999984893799,10|4,0:0|0:3,0:0:0:0:
40,171,262436,2,0,L|100:174,1,49.4999984893799,8|4,0:0|0:3,0:0:0:0:
31,176,262556,2,0,L|91:179,1,49.4999984893799,8|4,0:0|0:3,0:0:0:0:
21,181,262676,2,0,L|81:184,1,49.4999984893799,8|4,0:0|0:3,0:0:0:0:
172,193,262796,5,10,0:0:0:0:
201,207,262856,1,4,0:3:0:0:
234,208,262916,1,8,0:0:0:0:
264,196,262976,1,4,0:3:0:0:
287,173,263036,1,8,0:0:0:0:
299,143,263096,1,4,0:3:0:0:
298,110,263156,1,8,0:0:0:0:
283,81,263216,1,4,0:3:0:0:
258,60,263276,2,0,L|265:138,1,49.4999984893799,10|4,0:0|0:3,0:0:0:0:
264,196,263396,5,8,0:0:0:0:
296,193,263456,1,4,0:3:0:0:
329,191,263516,1,10,0:0:0:0:
362,188,263576,1,4,0:3:0:0:
395,186,263636,1,8,0:0:0:0:
428,184,263696,1,4,0:3:0:0:
461,181,263756,2,0,L|449:252,3,49.4999984893799,8|4|8|4,0:0|0:3|0:0|0:3,0:0:0:0:
396,279,263996,5,8,0:0:0:0:
375,275,264056,1,8,0:0:0:0:
355,271,264116,1,8,0:0:0:0:
335,267,264176,1,8,0:0:0:0:
314,264,264236,5,10,0:0:0:0:
332,300,264296,1,8,0:0:0:0:
367,321,264356,1,8,0:0:0:0:
408,321,264416,1,8,0:0:0:0:
442,299,264476,1,8,0:0:0:0:
459,262,264536,1,8,0:0:0:0:
453,221,264596,1,8,0:0:0:0:
427,190,264656,1,8,0:0:0:0:
389,178,264716,6,0,B|391:228|391:228|408:253|408:253|409:369,1,165,4|8,0:0|0:0,0:0:0:0:
349,379,265016,1,4,0:3:0:0:
308,383,265076,1,8,0:0:0:0:
269,371,265136,1,4,0:3:0:0:
239,343,265196,1,10,0:0:0:0:
223,305,265256,1,4,0:3:0:0:
224,264,265316,1,8,0:0:0:0:
242,228,265376,1,4,0:3:0:0:
274,202,265436,1,8,0:0:0:0:
306,176,265496,1,4,0:3:0:0:
324,140,265556,1,8,0:0:0:0:
325,99,265616,1,4,0:3:0:0:
309,61,265676,5,10,0:0:0:0:
283,93,265736,1,4,0:3:0:0:
274,133,265796,1,8,0:0:0:0:
283,173,265856,1,4,0:3:0:0:
307,206,265916,1,8,0:0:0:0:
343,225,265976,1,4,0:3:0:0:
384,227,266036,1,8,0:0:0:0:
422,212,266096,1,4,0:3:0:0:
451,183,266156,6,0,L|457:119,3,53.6249975452424,10|4|8|4,0:0|0:3|0:0|0:3,0:0:0:0:
350,304,266396,2,0,L|354:357,3,53.6249975452424,8|4|8|4,0:0|0:3|0:0|0:3,0:0:0:0:
265,175,266636,6,0,L|270:110,1,53.6249975452424,8|4,0:0|0:3,0:0:0:0:
163,295,266756,2,0,L|167:348,1,53.6249975452424,8|4,0:0|0:3,0:0:0:0:
24,188,266876,5,8,0:0:0:0:
50,158,266936,1,4,0:3:0:0:
88,146,266996,1,8,0:0:0:0:
126,157,267056,1,4,0:3:0:0:
153,186,267116,1,8,0:0:0:0:
192,203,267176,1,4,0:3:0:0:
234,194,267236,1,10,0:0:0:0:
262,162,267296,1,4,0:3:0:0:
267,119,267356,1,8,0:0:0:0:
245,82,267416,1,4,0:3:0:0:
206,65,267476,1,8,0:0:0:0:
164,74,267536,1,4,0:3:0:0:
136,106,267596,5,8,0:0:0:0:
126,157,267656,1,8,0:0:0:0:
151,206,267716,1,8,0:0:0:0:
195,236,267776,1,8,0:0:0:0:
248,238,267836,5,8,0:0:0:0:
274,241,267896,1,8,0:0:0:0:
290,261,267956,1,8,0:0:0:0:
288,287,268016,1,8,0:0:0:0:
268,304,268076,5,8,0:3:0:0:
289,274,268136,1,8,0:3:0:0:
325,271,268196,1,8,0:3:0:0:
350,297,268256,1,8,0:3:0:0:
346,333,268316,5,4,0:3:0:0:
351,342,268376,1,4,0:3:0:0:
360,347,268436,1,4,0:3:0:0:
371,346,268496,1,4,0:3:0:0:
378,338,268556,6,4,L|328:347,15,30.937501180172,4|4|4|4|4|4|4|4|4|4|4|4|4|4|4|4,0:3|0:3|0:3|0:3|0:3|0:3|0:3|0:3|0:3|0:3|0:3|0:3|0:3|0:3|0:3|0:3,0:3:0:0:
246,309,269516,2,4,L|296:317,7,30.937501180172,8|4|4|4|4|4|4|4,0:0|0:3|0:3|0:3|0:3|0:3|0:3|0:3,0:3:0:0:
183,353,269996,2,4,L|132:361,7,30.937501180172,4|4|4|4|4|4|4|4,0:3|0:3|0:3|0:3|0:3|0:3|0:3|0:3,0:3:0:0:
100,268,270476,6,4,L|95:298,3,30.937501180172,6|4|4|4,0:3|0:3|0:3|0:3,0:3:0:0:
144,198,270716,2,4,L|139:167,3,30.937501180172,6|4|4|4,0:3|0:3|0:3|0:3,0:3:0:0:
103,277,270956,2,4,L|98:307,3,30.937501180172,6|4|4|4,0:3|0:3|0:3|0:3,0:3:0:0:
147,207,271196,2,4,L|142:176,3,30.937501180172,4|4|4|4,0:3|0:3|0:3|0:3,0:3:0:0:
220,237,271436,5,8,0:0:0:0:
235,235,271496,1,4,0:3:0:0:
250,234,271556,1,4,0:3:0:0:
266,233,271616,1,4,0:3:0:0:
281,234,271676,2,4,L|325:237,3,30.937501180172,4|4|4|4,0:3|0:3|0:3|0:3,0:3:0:0:
410,289,271916,5,8,0:0:0:0:
407,273,271976,1,4,0:3:0:0:
405,258,272036,1,4,0:3:0:0:
403,242,272096,1,4,0:3:0:0:
431,217,272156,5,8,0:0:0:0:
433,201,272216,1,4,0:3:0:0:
435,186,272276,1,4,0:3:0:0:
437,170,272336,1,4,0:3:0:0:
406,139,272396,6,4,L|416:186,7,30.937501180172,4|4|4|4|4|4|4|4,0:0|0:3|0:3|0:3|0:3|0:3|0:3|0:3,0:3:0:0:
301,78,272876,2,4,L|331:84,3,30.937501180172,4|4|4|4,0:3|0:3|0:3|0:3,0:3:0:0:
230,120,273116,2,4,L|199:126,3,30.937501180172,4|4|4|4,0:3|0:3|0:3|0:3,0:3:0:0:
88,80,273356,5,8,0:0:0:0:
99,90,273416,1,4,0:3:0:0:
108,103,273476,1,4,0:3:0:0:
116,116,273536,1,4,0:3:0:0:
121,130,273596,1,4,0:3:0:0:
125,145,273656,1,4,0:3:0:0:
127,161,273716,1,4,0:3:0:0:
126,176,273776,1,4,0:3:0:0:
110,202,273836,6,4,L|116:244,3,30.937501180172,4|4|4|4,0:3|0:3|0:3|0:3,0:3:0:0:
209,289,274076,2,4,L|215:331,3,30.937501180172,4|4|4|4,0:3|0:3|0:3|0:3,0:3:0:0:
314,232,274316,6,0,L|254:227,1,41.2500015735627,6|0,0:0|0:0,0:0:0:0:
364,162,274476,2,0,L|398:112,1,41.2500015735627,6|0,0:0|0:0,0:0:0:0:
402,245,274636,2,0,L|427:299,1,41.2500015735627,6|0,0:0|0:0,0:0:0:0:
321,356,274796,6,4,P|302:349|271:340,3,30.937501180172,4|4|4|4,0:3|0:3|0:3|0:3,0:3:0:0:
185,353,275036,2,4,P|177:335|161:307,3,30.937501180172,4|4|4|4,0:3|0:3|0:3|0:3,0:3:0:0:
92,257,275276,6,4,P|99:237|108:207,7,30.937501180172,8|4|4|4|4|4|4|4,0:0|0:3|0:3|0:3|0:3|0:3|0:3|0:3,0:3:0:0:
94,121,275756,5,8,0:0:0:0:
102,118,275816,1,4,0:3:0:0:
110,114,275876,1,4,0:3:0:0:
119,110,275936,1,4,0:3:0:0:
121,78,275996,5,8,0:0:0:0:
143,99,276056,1,4,0:3:0:0:
169,115,276116,1,4,0:3:0:0:
199,124,276176,1,4,0:3:0:0:
229,126,276236,6,4,L|313:119,1,61.875002360344,4|4,0:0|0:3,0:3:0:0:
458,167,276476,2,4,L|374:159,1,61.875002360344,4|4,0:3|0:3,0:3:0:0:
207,198,276716,2,4,L|290:190,1,61.875002360344,4|4,0:3|0:3,0:3:0:0:
435,238,276956,2,4,L|351:230,1,61.875002360344,4|4,0:3|0:3,0:3:0:0:
249,351,277196,5,8,0:0:0:0:
188,290,277316,1,4,0:3:0:0:
166,207,277436,1,4,0:3:0:0:
188,124,277556,1,4,0:3:0:0:
248,63,277676,5,4,0:3:0:0:
166,207,277796,1,4,0:3:0:0:
93,69,277916,1,4,0:3:0:0:
188,124,278036,1,4,0:3:0:0:
76,202,278156,6,4,P|85:223|88:261,1,41.2500015735627,6|0,0:3|0:3,0:3:0:0:
187,332,278316,2,4,L|193:276,1,41.2500015735627,6|0,0:3|0:3,0:3:0:0:
306,213,278476,2,4,P|297:234|294:272,1,41.2500015735627,6|0,0:3|0:3,0:3:0:0:
410,340,278636,5,4,0:3:0:0:
485,249,278876,1,4,0:3:0:0:
0,125,279116,1,12,0:0:0:0:
151,240,279356,1,4,0:3:0:0:
66,41,279596,5,4,0:3:0:0:
111,363,279836,1,4,0:3:0:0:
396,334,280076,5,4,0:3:0:0:
396,330,280136,1,4,0:3:0:0:
396,327,280196,1,4,0:3:0:0:
397,324,280256,1,4,0:3:0:0:
397,321,280316,1,4,0:3:0:0:
398,318,280376,1,4,0:3:0:0:
398,315,280436,1,4,0:3:0:0:
399,312,280496,1,4,0:3:0:0:
399,309,280556,1,4,0:3:0:0:
400,306,280616,1,4,0:3:0:0:
400,303,280676,1,4,0:3:0:0:
401,300,280736,1,4,0:3:0:0:
401,297,280796,1,4,0:3:0:0:
402,294,280856,1,4,0:3:0:0:
402,291,280916,1,4,0:3:0:0:
403,288,280976,1,4,0:3:0:0:
402,284,281036,5,8,0:0:0:0:
397,281,281096,1,4,0:3:0:0:
391,279,281156,1,4,0:3:0:0:
385,277,281216,1,4,0:3:0:0:
379,275,281276,1,4,0:3:0:0:
373,273,281336,1,4,0:3:0:0:
368,271,281396,1,4,0:3:0:0:
362,268,281456,1,4,0:3:0:0:
356,266,281516,1,4,0:3:0:0:
350,264,281576,1,4,0:3:0:0:
344,262,281636,1,4,0:3:0:0:
339,260,281696,1,4,0:3:0:0:
333,258,281756,1,4,0:3:0:0:
327,255,281816,1,4,0:3:0:0:
321,253,281876,1,4,0:3:0:0:
315,251,281936,1,4,0:3:0:0:
310,247,281996,6,4,P|317:214|332:193,1,41.2500015735627,6|0,0:3|0:3,0:3:0:0:
276,102,282156,2,4,P|301:124|311:148,1,41.2500015735627,6|0,0:3|0:3,0:3:0:0:
416,148,282316,2,4,P|383:158|358:155,1,41.2500015735627,6|0,0:3|0:3,0:3:0:0:
245,170,282476,5,6,0:3:0:0:
245,173,282536,1,4,0:3:0:0:
245,176,282596,1,4,0:3:0:0:
246,179,282656,1,4,0:3:0:0:
246,182,282716,1,4,0:3:0:0:
246,185,282776,1,4,0:3:0:0:
247,188,282836,1,4,0:3:0:0:
247,191,282896,1,4,0:3:0:0:
248,194,282956,5,8,0:0:0:0:
217,191,283016,1,8,0:0:0:0:
186,187,283076,1,8,0:0:0:0:
155,184,283136,1,8,0:0:0:0:
125,180,283196,1,8,0:0:0:0:
94,177,283256,1,8,0:0:0:0:
63,173,283316,1,8,0:0:0:0:
32,170,283376,1,8,0:0:0:0:
0,146,283436,5,8,0:3:0:0:
14,140,283496,1,8,0:3:0:0:
28,134,283556,1,8,0:3:0:0:
43,128,283616,1,8,0:3:0:0:
82,122,283676,5,8,0:3:0:0:
82,131,283736,1,8,0:3:0:0:
83,140,283796,1,8,0:3:0:0:
84,149,283856,1,8,0:3:0:0:
63,173,283916,5,4,0:0:0:0:
215,167,307354,5,8,0:3:0:0:
230,162,307448,1,8,0:3:0:0:
264,196,307542,5,8,0:3:0:0:
194,186,307635,1,8,0:3:0:0:
124,200,307729,1,8,0:3:0:0:
54,190,307823,1,8,0:3:0:0:
11,253,307917,6,0,P|77:260|200:299,1,165,8|0,0:3|0:0,0:0:0:0:
269,370,308479,2,0,P|264:333|263:281,1,82.5
256,279,308854,2,0,P|256:320|262:361,1,82.5
380,315,309229,5,4,0:3:0:0:
382,313,309417,2,2,P|393:267|379:218,1,82.5,8|0,0:3|0:0,0:1:0:0:
512,131,309792,2,2,B|451:179|397:147|397:147|325:100|289:178|217:181|150:137|166:63|189:11|274:3|303:66,1,495,8|0,0:3|0:0,0:1:0:0:
283,41,311292,6,2,P|265:83|232:125,1,82.5,0|0,0:0|0:0,0:1:0:0:
131,180,311667,2,2,B|46:248|-2:230|0:167|48:137|208:142|332:332,1,495,0|0,0:0|0:0,0:1:0:0:
332,332,313167,6,2,P|319:289|311:214,1,82.5,0|0,0:0|0:0,0:1:0:0:
314,243,313448,5,8,0:3:0:0:
315,226,313542,5,8,0:3:0:0:
307,199,313635,5,8,0:3:0:0:
276,170,313729,5,8,0:3:0:0:
222,166,313823,5,8,0:3:0:0:
173,216,313917,6,0,P|221:212|360:170,1,165
495,256,314479,1,4,0:3:0:0:
493,258,314667,2,2,P|438:245|387:225,1,82.5,8|0,0:3|0:0,0:1:0:0:
56,345,315042,2,2,B|148:373|263:280|274:162|274:162|267:237|338:364,1,495,0|0,0:0|0:0,0:1:0:0:
468,133,316542,1,8,0:3:0:0:
466,131,316729,1,8,0:3:0:0:
464,129,316917,6,0,P|387:122|264:112,1,165,4|8,0:3|0:3,0:0:0:0:
136,207,317479,1,4,0:3:0:0:
212,257,317667,2,2,P|208:216|213:75,1,165,0|0,0:0|0:0,0:1:0:0:
340,7,318229,2,2,P|344:29|348:78,1,41.25,8|0,0:3|0:0,0:1:0:0:
338,192,318417,6,2,P|322:230|200:250,1,165,4|8,0:3|0:3,0:1:0:0:
38,218,318979,2,2,P|58:225|83:257,1,41.25,0|0,0:0|0:0,0:1:0:0:
134,347,319167,2,2,B|344:367|243:240|460:272,1,330,0|6,0:0|0:0,0:1:0:0:
441,269,320292,5,8,0:3:0:0:
441,269,320667,2,2,P|416:236|421:187,1,82.5,0|0,0:0|0:0,0:1:0:0:
502,56,321042,1,2,0:0:0:0:
500,58,321229,2,2,B|438:100|363:56|363:56|344:119|280:121|280:121|243:85|271:44,1,330,0|0,0:0|0:0,0:1:0:0:
141,88,322167,2,2,P|160:130|173:182,1,82.5,0|0,0:0|0:0,0:1:0:0:
60,58,322542,2,2,P|62:113|31:234,1,165,0|0,0:0|0:0,0:1:0:0:
37,219,323292,6,0,P|81:212|151:209,1,82.5
266,282,323667,1,8,0:3:0:0:
369,214,323854,1,8,0:3:0:0:
482,335,324042,2,2,B|434:275|331:313|331:313|230:351|173:237|173:237|203:179|302:195|302:195|211:180|193:65,1,660,0|0,0:0|0:0,0:1:0:0:
199,93,325917,6,0,P|255:147|253:37,1,247.5,6|0,0:0|0:0,0:0:0:0:
136,173,326667,1,2,0:0:0:0:
204,263,326854,1,8,0:3:0:0:
328,259,327042,1,2,0:0:0:0:
78,378,327229,2,2,P|63:314|54:121,1,247.5,8|8,0:3|0:3,0:1:0:0:
214,49,327979,1,0,0:0:0:0:
126,194,328167,2,0,P|127:237|143:308,1,82.5,2|8,0:0|0:3,0:0:0:0:
192,142,328542,1,2,0:0:0:0:
48,54,328729,1,8,0:3:0:0:
133,275,328917,6,2,P|189:305|236:111,1,330,8|0,0:3|0:0,0:1:0:0:
345,233,329854,1,2,0:0:0:0:
19,77,330042,2,2,B|128:81|135:169|135:169|207:151|207:151|243:251|384:229,1,412.5,0|8,0:0|0:3,0:1:0:0:
457,116,331167,1,8,0:3:0:0:
268,211,331354,1,8,0:3:0:0:
466,359,331542,1,8,0:3:0:0:
312,76,331729,1,8,0:3:0:0:
52,357,331917,6,0,L|133:347,1,82.5,4|0,0:0|0:0,0:0:0:0:
133,346,333042,1,0,0:0:0:0:
206,366,333229,1,8,0:3:0:0:
395,250,333417,6,2,P|361:264|345:275,1,30.937501180172,0|0,0:0|0:0,0:1:0:0:
386,139,333604,2,2,P|363:109|348:97,1,30.937501180172,0|0,0:0|0:0,0:1:0:0:
444,35,333792,2,2,P|432:79|437:174,1,123.750004720688,8|0,0:3|0:0,0:1:0:0:
494,265,334354,5,8,0:3:0:0:
449,328,334542,1,8,0:3:0:0:
264,293,334729,2,2,B|214:312|170:276|170:276|146:331|81:328,1,185.625007081032,0|0,0:0|0:0,0:1:0:0:
99,252,335479,1,8,0:3:0:0:
306,357,335667,2,2,L|387:349,1,61.875002360344,8|0,0:3|0:0,0:1:0:0:
367,350,336229,1,8,0:3:0:0:
419,213,336417,6,2,P|412:249|404:301,1,61.875002360344,0|0,0:0|0:0,0:1:0:0:
501,95,336792,2,2,B|385:80|450:167|321:152,1,185.625007081032,8|0,0:3|0:0,0:1:0:0:
275,106,337542,1,8,0:3:0:0:
349,82,337729,1,8,0:3:0:0:
204,309,337917,6,2,P|167:288|170:253,1,61.875002360344,8|0,0:0|0:0,0:1:0:0:
352,164,338292,2,2,P|320:199|298:348,1,185.625007081032,8|0,0:3|0:0,0:1:0:0:
293,330,339229,1,8,0:3:0:0:
389,275,339417,5,0,0:0:0:0:
318,253,339604,1,0,0:0:0:0:
405,264,339792,1,8,0:3:0:0:
203,303,339979,1,0,0:0:0:0:
342,67,340167,1,0,0:0:0:0:
377,377,340354,2,2,L|371:325,1,30.937501180172,0|0,0:0|0:0,0:1:0:0:
465,117,340542,2,2,P|413:142|422:215,1,123.750004720688,0|8,0:0|0:0,0:1:0:0:
411,202,341292,5,8,0:3:0:0:
405,209,341479,1,0,0:0:0:0:
216,126,341667,2,2,L|224:171,1,30.937501180172,0|0,0:0|0:0,0:1:0:0:
255,38,341854,2,0,P|280:17|301:6,1,30.937501180172
85,78,342042,2,2,B|104:108|136:192|114:281|50:304|-18:262|-13:199|46:177,1,309.37501180172,0|8,0:0|0:0,0:1:0:0:
44,169,343073,1,8,0:0:0:0:
72,157,343167,1,8,0:0:0:0:
103,159,343260,1,8,0:0:0:0:
131,173,343354,1,8,0:0:0:0:
150,196,343448,1,8,0:0:0:0:
158,226,343542,5,8,0:3:0:0:
150,239,343635,1,8,0:3:0:0:
151,254,343729,1,4,0:3:0:0:
160,266,343823,1,4,0:3:0:0:
174,270,343917,5,4,0:3:0:0:
189,265,344010,1,4,0:3:0:0:
204,266,344104,1,4,0:3:0:0:
217,273,344198,1,4,0:3:0:0:
226,286,344292,1,12,0:3:0:0:
228,301,344385,1,4,0:3:0:0:
224,316,344479,1,4,0:3:0:0:
213,327,344573,1,4,0:3:0:0:
199,332,344667,1,12,0:3:0:0:
183,331,344760,1,4,0:3:0:0:
170,323,344854,1,4,0:3:0:0:
165,309,344948,1,4,0:3:0:0:
165,293,345042,1,4,0:3:0:0:
170,279,345135,1,4,0:3:0:0:
180,267,345229,1,12,0:3:0:0:
193,259,345323,1,4,0:3:0:0:
207,255,345417,1,4,0:3:0:0:
223,255,345510,1,4,0:3:0:0:
237,250,345604,1,4,0:3:0:0:
250,241,345698,1,4,0:3:0:0:
258,228,345792,1,12,0:3:0:0:
263,214,345885,1,4,0:3:0:0:
262,198,345979,1,4,0:3:0:0:
257,184,346073,1,4,0:3:0:0:
247,172,346167,1,4,0:3:0:0:
234,164,346260,1,4,0:3:0:0:
219,160,346354,1,12,0:3:0:0:
204,163,346448,1,4,0:3:0:0:
191,171,346542,1,4,0:3:0:0:
203,180,346635,1,4,0:3:0:0:
217,186,346729,1,12,0:3:0:0:
232,188,346823,1,4,0:3:0:0:
248,186,346917,1,12,0:3:0:0:
262,180,347010,1,4,0:3:0:0:
274,171,347104,1,4,0:3:0:0:
284,159,347198,1,4,0:3:0:0:
290,145,347292,1,12,0:3:0:0:
290,129,347385,1,4,0:3:0:0:
296,115,347479,1,4,0:3:0:0:
307,105,347573,1,4,0:3:0:0:
330,98,347667,5,12,0:3:0:0:
360,101,347760,1,4,0:3:0:0:
387,87,347854,1,12,0:3:0:0:
401,60,347948,1,4,0:3:0:0:
397,30,348042,1,12,0:3:0:0:
377,7,348135,1,4,0:3:0:0:
347,0,348229,1,4,0:3:0:0:
319,11,348323,1,4,0:3:0:0:
302,36,348417,1,4,0:3:0:0:
301,66,348510,1,4,0:3:0:0:
330,98,348604,1,12,0:3:0:0:
357,112,348698,1,4,0:3:0:0:
375,136,348792,1,4,0:3:0:0:
380,167,348885,1,4,0:3:0:0:
371,196,348979,1,4,0:3:0:0:
351,219,349073,1,4,0:3:0:0:
312,239,349167,5,4,0:3:0:0:
250,240,349260,1,4,0:3:0:0:
194,265,349354,1,4,0:3:0:0:
153,311,349448,1,4,0:3:0:0:
133,378,349542,5,4,0:3:0:0:
202,333,349635,1,4,0:3:0:0:
242,261,349729,1,4,0:3:0:0:
243,178,349823,1,4,0:3:0:0:
204,105,349917,5,14,0:3:0:0:
213,105,350010,1,4,0:3:0:0:
222,106,350104,1,4,0:3:0:0:
231,107,350198,1,4,0:3:0:0:
240,108,350292,5,6,0:3:0:0:
315,100,350385,1,4,0:3:0:0:
390,91,350479,1,6,0:3:0:0:
459,80,350573,1,4,0:3:0:0:
451,72,350667,5,6,0:3:0:0:
443,147,350760,1,4,0:3:0:0:
434,222,350854,1,4,0:3:0:0:
426,291,350948,1,4,0:3:0:0:
435,282,351042,5,6,0:3:0:0:
372,274,351135,1,4,0:3:0:0:
310,267,351229,1,6,0:3:0:0:
246,260,351323,1,4,0:3:0:0:
258,272,351417,5,6,0:3:0:0:
253,227,351510,1,4,0:3:0:0:
247,182,351604,1,4,0:3:0:0:
245,136,351698,1,4,0:3:0:0:
240,146,351792,5,6,0:3:0:0:
269,149,351885,1,4,0:3:0:0:
298,153,351979,1,4,0:3:0:0:
296,149,352073,1,4,0:3:0:0:
339,153,352167,5,6,0:3:0:0:
328,181,352260,1,4,0:3:0:0:
300,191,352354,1,6,0:3:0:0:
302,196,352448,1,4,0:3:0:0:
322,229,352542,5,6,0:3:0:0:
299,238,352635,1,4,0:3:0:0:
278,228,352729,1,4,0:3:0:0:
276,232,352823,1,4,0:3:0:0:
261,261,352917,5,6,0:3:0:0:
249,255,353010,1,4,0:3:0:0:
245,245,353104,1,4,0:3:0:0:
245,229,353198,5,4,0:3:0:0:
236,232,353292,1,4,0:3:0:0:
236,242,353385,1,4,0:3:0:0:
250,237,353479,1,6,0:3:0:0:
218,249,353573,5,6,0:3:0:0:
214,219,353667,1,6,0:3:0:0:
235,198,353760,1,4,0:3:0:0:
265,202,353854,1,6,0:3:0:0:
270,234,353948,5,6,0:3:0:0:
218,249,354042,1,6,0:3:0:0:
187,209,354135,1,6,0:3:0:0:
215,165,354229,1,6,0:3:0:0:
266,182,354323,1,6,0:3:0:0:
218,249,354417,5,6,0:3:0:0:
194,319,354510,1,6,0:3:0:0:
241,377,354604,1,6,0:3:0:0:
315,369,354698,1,6,0:3:0:0:
315,369,354792,5,6,0:3:0:0:
345,365,354885,1,4,0:3:0:0:
376,362,354979,1,4,0:3:0:0:
407,358,355073,1,4,0:3:0:0:
437,355,355167,1,4,0:3:0:0:
443,324,355260,1,4,0:3:0:0:
448,294,355354,1,4,0:3:0:0:
454,264,355448,1,4,0:3:0:0:
459,233,355542,1,4,0:3:0:0:
465,203,355635,5,4,0:3:0:0:
452,126,355729,1,6,0:3:0:0:
439,50,355823,1,6,0:3:0:0:
385,114,355917,6,0,L|232:102,1,123.750004720688,10|4,0:0|0:3,0:0:0:0:
96,311,356292,2,0,B|123:253|123:253|90:172,1,123.750004720688,8|4,0:0|0:3,0:0:0:0:
28,45,356667,1,4,0:3:0:0:
100,197,356854,5,8,0:0:0:0:
301,298,357042,1,4,0:3:0:0:
23,360,357229,2,0,L|171:350,1,123.750004720688,8|4,0:0|0:3,0:0:0:0:
301,91,357604,6,0,L|285:229,1,123.750004720688,8|4,0:0|0:3,0:0:0:0:
296,229,357979,2,0,L|310:106,1,123.750004720688,8|4,0:0|0:3,0:0:0:0:
320,116,358354,2,0,L|305:238,1,123.750004720688,8|4,0:0|0:3,0:0:0:0:
305,238,358729,1,4,0:3:0:0:
71,342,358917,6,0,L|223:330,1,123.750004720688,8|4,0:0|0:3,0:0:0:0:
476,379,359292,2,0,B|446:323|446:323|470:249,1,123.750004720688,8|4,0:0|0:3,0:0:0:0:
441,50,359667,2,0,B|459:107|459:107|429:163,1,123.750004720688,8|4,0:0|0:3,0:0:0:0:
325,326,360042,1,4,0:3:0:0:
429,163,360229,6,0,L|283:149,1,123.750004720688,8|4,0:0|0:3,0:0:0:0:
448,315,360604,2,0,L|324:326,1,123.750004720688,8|4,0:0|0:3,0:0:0:0:
96,352,360979,6,0,L|108:216,1,123.750004720688,8|4,0:0|0:3,0:0:0:0:
84,218,361354,2,0,L|94:341,1,123.750004720688,8|4,0:0|0:3,0:0:0:0:
105,208,361729,2,0,L|94:331,1,123.750004720688,8|4,0:0|0:3,0:0:0:0:
94,331,362104,1,4,0:3:0:0:
258,368,362292,6,0,L|399:356,1,123.750004720688,8|4,0:0|0:3,0:0:0:0:
490,173,362667,2,0,L|429:301,1,123.750004720688,8|4,0:0|0:3,0:0:0:0:
415,133,363042,2,0,L|334:16,1,123.750004720688,8|4,0:0|0:3,0:0:0:0:
196,172,363417,1,4,0:3:0:0:
344,31,363604,6,0,B|299:68|299:68|285:152,1,123.750004720688,8|4,0:0|0:3,0:0:0:0:
164,61,363979,2,0,B|158:118|158:118|207:188,1,123.750004720688,8|4,0:0|0:3,0:0:0:0:
33,186,364354,2,0,B|70:231|70:231|154:244,1,123.750004720688,8|4,0:0|0:3,0:0:0:0:
302,226,364729,6,0,B|336:258|336:258|316:362,1,123.750004720688,8|4,0:0|0:3,0:0:0:0:
202,137,365104,1,8,0:0:0:0:
432,309,365292,1,4,0:3:0:0:
432,309,365479,1,4,0:3:0:0:
193,365,365667,6,0,L|20:349,1,123.750004720688,8|4,0:0|0:3,0:0:0:0:
207,358,366042,2,0,L|34:342,1,123.750004720688,8|4,0:0|0:3,0:0:0:0:
220,352,366417,2,0,L|47:336,1,123.750004720688,8|4,0:0|0:3,0:0:0:0:
96,340,366792,1,4,0:3:0:0:
105,101,366979,6,0,B|70:151|70:151|101:233,1,123.750004720688,8|4,0:0|0:3,0:0:0:0:
277,136,367354,2,0,B|251:80|251:80|164:66,1,123.750004720688,8|4,0:0|0:3,0:0:0:0:
161,260,367729,2,0,B|221:265|221:265|277:197,1,123.750004720688,8|4,0:0|0:3,0:0:0:0:
58,220,368104,6,0,B|86:248|86:248|67:370,1,123.750004720688,8|4,0:0|0:3,0:0:0:0:
306,355,368479,2,0,L|456:344,1,123.750004720688,8|4,0:0|0:3,0:0:0:0:
419,95,368854,1,4,0:3:0:0:
300,278,369042,2,0,L|150:267,1,123.750004720688,8|0,0:0|0:0,0:0:0:0:
85,139,369417,6,0,L|75:68,1,61.875002360344,8|4,0:0|0:3,0:0:0:0:
169,19,369604,2,0,L|160:80,1,61.875002360344,4|4,0:3|0:3,0:0:0:0:
83,148,369792,6,0,L|73:83,1,51.5625,8|4,0:0|0:3,0:0:0:0:
175,16,369979,2,0,L|165:83,1,51.5625,4|4,0:3|0:3,0:0:0:0:
275,179,370167,6,0,L|358:167,1,61.875002360344,4|4,0:3|0:3,0:0:0:0:
250,333,370354,2,0,L|258:271,1,61.875002360344,8|4,0:0|0:3,0:0:0:0:
270,174,370542,6,0,L|336:165,1,51.5625,4|4,0:3|0:3,0:0:0:0:
255,339,370729,2,0,L|263:282,1,51.5625,8|4,0:0|0:3,0:0:0:0:
147,365,370917,6,0,L|43:374,1,82.5,4|8,0:3|0:0,0:0:0:0:
64,372,371198,1,4,0:3:0:0:
64,372,371292,6,0,L|74:299,1,41.25,4|4,0:3|0:3,0:0:0:0:
80,247,371479,2,0,L|89:173,1,41.25,8|4,0:0|0:3,0:0:0:0:
31,88,371667,6,0,L|140:79,1,61.875002360344,4|4,0:3|0:3,0:0:0:0:
285,9,371854,6,0,L|238:107,1,61.875002360344,8|4,0:0|0:3,0:0:0:0:
242,235,372042,2,0,L|268:179,1,61.875002360344,4|4,0:3|0:3,0:0:0:0:
294,7,372229,6,0,L|261:76,1,51.5625,4|4,0:3|0:3,0:0:0:0:
244,244,372417,2,0,L|265:198,1,51.5625,8|4,0:0|0:3,0:0:0:0:
347,323,372604,6,0,L|452:331,1,82.5,4|8,0:3|0:0,0:0:0:0:
429,329,372885,1,4,0:3:0:0:
429,329,372979,6,0,L|432:249,1,51.5625,4|4,0:3|0:3,0:0:0:0:
373,211,373167,2,0,L|374:159,1,51.5625,8|4,0:0|0:3,0:0:0:0:
436,100,373354,2,0,L|437:48,1,51.5625,4|4,0:3|0:3,0:0:0:0:
318,108,373542,6,0,B|286:100|286:100|264:57,1,61.875002360344,4|4,0:3|0:3,0:0:0:0:
165,27,373729,2,0,B|174:58|174:58|147:99,1,61.875002360344,8|4,0:0|0:3,0:0:0:0:
316,114,373917,6,0,B|284:106|284:106|268:75,1,51.5625,4|4,0:3|0:3,0:0:0:0:
172,30,374104,2,0,B|181:61|181:61|160:99,1,51.5625,8|4,0:0|0:3,0:0:0:0:
135,188,374292,6,0,B|165:162|165:162|224:168,1,82.5,4|8,0:3|0:0,0:0:0:0:
207,166,374573,1,4,0:3:0:0:
207,166,374667,6,0,L|214:236,1,41.25,4|4,0:3|0:3,0:0:0:0:
221,290,374854,2,0,L|224:331,1,41.25,8|4,0:0|0:3,0:0:0:0:
346,356,375042,6,0,L|442:349,1,61.875002360344,4|4,0:3|0:3,0:0:0:0:
452,146,375229,6,0,L|442:235,1,61.875002360344,8|4,0:0|0:3,0:0:0:0:
312,34,375417,2,4,L|322:123,1,61.875002360344,4|4,0:3|0:3,0:3:0:0:
207,166,375604,2,4,L|197:255,1,61.875002360344,4|4,0:3|0:3,0:3:0:0:
91,74,375792,1,8,0:0:0:0:
325,197,375979,1,4,0:3:0:0:
137,322,376168,6,0,P|98:292|86:231,1,82.5,4|2,0:0|0:0,0:0:0:0:
206,132,376543,2,0,P|199:180|152:221,1,82.5,8|2,0:0|0:0,0:0:0:0:
91,74,376918,1,4,0:3:0:0:
237,26,377105,1,6,0:3:0:0:
53,226,377293,1,8,0:0:0:0:
53,226,377480,6,2,B|152:203|106:279|230:247,1,165,2|4,0:0|0:3,0:1:0:0:
212,259,377918,1,4,0:3:0:0:
214,266,377980,1,4,0:3:0:0:
216,273,378043,2,0,P|266:259|330:257,1,82.5,8|4,0:0|0:3,0:0:0:0:
460,137,378418,1,4,0:3:0:0:
460,137,378605,1,4,0:3:0:0:
381,345,378793,1,8,0:0:0:0:
381,345,378980,1,4,0:3:0:0:
221,155,379168,5,4,0:3:0:0:
330,123,379355,1,4,0:3:0:0:
301,279,379543,2,0,P|241:260|198:227,1,82.5,8|0,0:0|0:0,0:0:0:0:
322,133,379918,5,4,0:3:0:0:
146,252,380105,2,0,P|132:190|139:136,1,82.5,4|8,0:3|0:0,0:0:0:0:
313,141,380480,5,2,0:0:0:0:
73,124,380668,2,0,P|119:81|169:60,1,82.5,4|4,0:3|0:3,0:0:0:0:
301,151,381043,5,8,0:0:0:0:
165,4,381230,2,0,P|204:13|241:33,1,82.5,4|4,0:3|0:3,0:0:0:0:
294,159,381605,5,4,0:3:0:0:
430,85,381793,1,8,0:0:0:0:
382,326,381980,1,4,0:3:0:0:
263,305,382168,5,4,0:3:0:0:
226,288,382261,1,0,0:0:0:0:
187,299,382355,1,0,0:0:0:0:
164,332,382449,1,0,0:0:0:0:
141,378,382543,5,8,0:0:0:0:
89,377,382636,1,0,0:0:0:0:
57,336,382730,1,0,0:0:0:0:
68,286,382824,1,0,0:0:0:0:
127,238,382918,5,4,0:3:0:0:
181,192,383011,1,0,0:0:0:0:
168,123,383105,1,4,0:3:0:0:
101,99,383199,1,0,0:0:0:0:
82,181,383293,5,8,0:0:0:0:
169,156,383386,1,0,0:0:0:0:
173,65,383480,1,4,0:3:0:0:
87,34,383574,1,0,0:0:0:0:
32,106,383668,5,2,0:0:0:0:
122,98,383761,1,0,0:0:0:0:
211,133,383855,1,4,0:3:0:0:
221,131,383918,1,4,0:3:0:0:
232,130,383980,1,4,0:3:0:0:
243,128,384043,6,0,P|277:130|326:139,1,61.875002360344,8|0,0:0|0:0,0:0:0:0:
491,361,384230,2,0,P|471:333|447:289,1,61.875002360344,4|0,0:3|0:0,0:0:0:0:
479,40,384418,5,4,0:3:0:0:
399,44,384511,1,0,0:0:0:0:
357,111,384605,1,4,0:3:0:0:
387,185,384699,1,0,0:0:0:0:
464,203,384793,5,8,0:0:0:0:
376,171,384886,1,2,0:0:0:0:
288,199,384980,1,6,0:3:0:0:
209,250,385074,1,2,0:0:0:0:
115,250,385168,5,4,0:0:0:0:
36,155,385261,1,2,0:0:0:0:
78,39,385355,1,2,0:0:0:0:
200,18,385449,1,2,0:0:0:0:
280,113,385543,5,8,0:0:0:0:
350,144,385636,1,2,0:0:0:0:
426,130,385730,1,2,0:0:0:0:
481,76,385824,1,2,0:0:0:0:
495,1,385918,5,4,0:3:0:0:
464,39,386011,1,2,0:0:0:0:
449,86,386105,1,6,0:3:0:0:
452,135,386199,1,6,0:3:0:0:
472,180,386293,5,8,0:0:0:0:
498,211,386386,1,2,0:0:0:0:
508,251,386480,1,6,0:3:0:0:
500,291,386574,1,6,0:3:0:0:
476,324,386668,5,4,0:3:0:0:
454,301,386761,1,8,0:0:0:0:
426,283,386855,1,8,0:0:0:0:
394,273,386949,1,8,0:0:0:0:
362,272,387043,1,8,0:0:0:0:
329,278,387136,1,8,0:0:0:0:
300,293,387230,2,0,P|271:290|239:279,1,41.25,4|8,0:3|0:0,0:0:0:0:
73,311,387418,5,4,0:3:0:0:
111,298,387511,1,8,0:0:0:0:
133,264,387605,1,8,0:0:0:0:
129,223,387699,1,8,0:0:0:0:
100,195,387793,2,0,P|92:172|87:127,1,41.25,8|8,0:0|0:3,0:0:0:0:
189,54,387980,2,0,P|178:71|169:90,1,41.25,8|8,0:3|0:0,0:0:0:0:
258,204,388168,5,4,0:3:0:0:
297,213,388261,1,4,0:3:0:0:
335,199,388355,1,4,0:3:0:0:
360,167,388449,1,4,0:3:0:0:
363,126,388543,1,8,0:0:0:0:
343,91,388636,1,4,0:3:0:0:
307,72,388730,5,6,0:3:0:0:
286,107,388824,1,4,0:3:0:0:
248,120,388918,1,4,0:3:0:0:
210,105,389011,1,4,0:3:0:0:
191,69,389105,1,4,0:3:0:0:
200,30,389199,1,4,0:3:0:0:
232,6,389293,5,10,0:0:0:0:
235,55,389386,1,4,0:3:0:0:
238,104,389480,1,4,0:3:0:0:
241,154,389574,1,4,0:3:0:0:
244,203,389668,1,4,0:3:0:0:
247,253,389761,1,4,0:3:0:0:
250,302,389855,5,6,0:3:0:0:
209,266,389949,1,4,0:3:0:0:
168,231,390043,1,8,0:0:0:0:
128,196,390136,1,4,0:3:0:0:
87,161,390230,1,4,0:3:0:0:
47,126,390324,1,4,0:3:0:0:
6,91,390418,5,6,0:3:0:0:
63,88,390511,1,4,0:3:0:0:
121,85,390605,1,4,0:3:0:0:
179,82,390699,1,4,0:3:0:0:
236,79,390793,1,8,0:0:0:0:
294,76,390886,1,4,0:3:0:0:
368,75,390980,5,6,0:3:0:0:
419,132,391074,1,4,0:3:0:0:
427,208,391168,1,4,0:3:0:0:
389,275,391261,1,4,0:3:0:0:
318,306,391355,1,4,0:3:0:0:
243,290,391449,1,4,0:3:0:0:
185,241,391543,5,10,0:0:0:0:
126,199,391636,1,4,0:3:0:0:
56,215,391730,1,4,0:3:0:0:
22,279,391824,1,4,0:3:0:0:
48,346,391918,1,4,0:3:0:0:
116,371,392011,1,4,0:3:0:0:
179,336,392105,5,6,0:3:0:0:
185,241,392199,1,4,0:3:0:0:
225,154,392293,1,8,0:0:0:0:
302,98,392386,1,4,0:3:0:0:
396,85,392480,1,4,0:3:0:0:
482,123,392574,1,4,0:3:0:0:
504,216,392668,5,6,0:3:0:0:
500,227,392761,1,4,0:3:0:0:
496,239,392855,1,4,0:3:0:0:
491,250,392949,1,4,0:3:0:0:
487,262,393043,1,8,0:0:0:0:
483,274,393136,1,4,0:3:0:0:
478,285,393230,2,4,L|407:293,1,41.25,6|6,0:3|0:3,0:3:0:0:
92,332,393418,5,4,0:3:0:0:
122,293,393511,1,8,0:0:0:0:
168,277,393605,1,8,0:0:0:0:
216,286,393699,1,8,0:0:0:0:
252,319,393793,1,8,0:0:0:0:
294,342,393886,1,8,0:0:0:0:
343,336,393980,1,8,0:0:0:0:
378,302,394074,1,12,0:0:0:0:
388,255,394168,5,4,0:3:0:0:
385,242,394261,1,4,0:3:0:0:
383,230,394355,1,4,0:3:0:0:
381,218,394449,1,4,0:3:0:0:
379,206,394543,2,4,L|390:140,1,41.25,8|4,0:0|0:3,0:3:0:0:
254,41,394730,2,4,L|260:81,1,41.25,4|4,0:3|0:3,0:3:0:0:
134,206,394918,2,4,P|166:192|200:184,1,41.25,6|4,0:3|0:3,0:3:0:0:
240,313,395105,2,4,B|344:308|285:251|413:255,1,165,6|4,0:3|0:3,0:3:0:0:
388,255,395574,1,4,0:3:0:0:
388,255,395668,5,6,0:3:0:0:
437,256,395761,1,4,0:3:0:0:
475,225,395855,1,6,0:3:0:0:
484,178,395949,1,4,0:3:0:0:
460,135,396043,2,4,P|440:127|401:122,1,41.25,8|4,0:0|0:3,0:3:0:0:
132,137,396230,2,4,P|190:153|296:203,1,165,6|4,0:3|0:3,0:3:0:0:
270,237,396699,1,4,0:3:0:0:
271,249,396793,1,8,0:0:0:0:
272,261,396886,1,4,0:3:0:0:
273,273,396980,1,4,0:3:0:0:
275,286,397074,1,4,0:3:0:0:
276,298,397168,6,4,L|336:289,1,41.25,4|4,0:0|0:3,0:3:0:0:
219,362,397355,5,6,0:3:0:0:
149,356,397449,1,4,0:3:0:0:
79,351,397543,2,4,L|19:342,1,41.25,8|4,0:0|0:3,0:3:0:0:
276,298,397730,5,6,0:3:0:0:
346,292,397824,1,4,0:3:0:0:
416,287,397918,2,4,L|476:278,1,41.25,4|4,0:2|0:3,0:3:0:0:
213,228,398105,5,6,0:3:0:0:
143,222,398199,1,4,0:3:0:0:
73,217,398293,2,4,L|13:208,1,41.25,8|4,0:0|0:3,0:3:0:0:
294,160,398480,5,6,0:3:0:0:
364,154,398574,1,4,0:3:0:0:
434,149,398668,2,4,L|494:140,1,41.25,4|4,0:0|0:3,0:3:0:0:
212,100,398855,5,4,0:3:0:0:
142,94,398949,1,4,0:3:0:0:
72,89,399043,2,4,L|12:80,1,41.25,8|4,0:0|0:3,0:3:0:0:
306,53,399230,5,6,0:3:0:0:
376,47,399324,1,4,0:3:0:0:
446,42,399418,2,4,L|506:33,1,41.25,4|4,0:0|0:3,0:3:0:0:
255,9,399605,5,6,0:3:0:0:
187,44,399699,1,4,0:3:0:0:
156,115,399793,1,8,0:0:0:0:
177,189,399886,1,4,0:3:0:0:
240,233,399980,1,6,0:3:0:0:
293,286,400074,1,4,0:3:0:0:
272,358,400168,5,8,0:0:0:0:
231,354,400261,1,4,0:3:0:0:
190,350,400355,1,4,0:3:0:0:
149,346,400449,1,4,0:3:0:0:
108,342,400543,2,4,L|48:348,1,41.25,8|4,0:0|0:3,0:3:0:0:
51,124,400730,5,4,0:3:0:0:
29,158,400824,1,4,0:3:0:0:
28,199,400918,1,6,0:3:0:0:
48,234,401011,1,4,0:3:0:0:
83,254,401105,2,4,L|147:242,1,41.25,8|4,0:0|0:3,0:3:0:0:
199,306,401293,5,4,0:3:0:0:
206,309,401386,1,4,0:3:0:0:
213,312,401480,2,4,L|253:319,1,41.25,8|4,0:0|0:3,0:3:0:0:
297,168,401668,5,4,0:3:0:0:
304,165,401761,1,4,0:3:0:0:
311,162,401855,2,4,L|351:154,1,41.25,8|4,0:0|0:3,0:3:0:0:
383,357,402043,5,4,0:3:0:0:
390,360,402136,1,4,0:3:0:0:
397,363,402230,2,4,L|437:370,1,41.25,8|4,0:0|0:3,0:3:0:0:
454,87,402418,5,4,0:3:0:0:
461,84,402511,1,4,0:3:0:0:
468,81,402605,2,4,L|508:73,1,41.25,8|4,0:0|0:3,0:3:0:0:
269,12,402793,5,4,0:3:0:0:
270,20,402886,1,4,0:3:0:0:
272,28,402980,1,4,0:3:0:0:
273,36,403074,1,4,0:3:0:0:
275,44,403168,5,8,0:0:0:0:
233,40,403261,1,4,0:3:0:0:
192,36,403355,1,4,0:3:0:0:
151,32,403449,1,4,0:3:0:0:
110,29,403543,2,4,L|120:94,1,41.25,8|4,0:0|0:3,0:3:0:0:
239,123,403730,5,4,0:3:0:0:
237,131,403824,1,4,0:3:0:0:
236,139,403918,2,4,L|226:203,1,41.25,8|4,0:0|0:3,0:3:0:0:
17,262,404105,5,4,0:3:0:0:
57,258,404199,1,4,0:3:0:0:
96,271,404293,1,4,0:3:0:0:
126,299,404386,1,4,0:3:0:0:
143,336,404480,2,4,P|171:317|211:296,1,41.25,8|4,0:0|0:3,0:3:0:0:
119,184,404668,5,4,0:3:0:0:
127,184,404761,1,4,0:3:0:0:
135,184,404855,2,4,P|165:197|203:222,1,41.25,8|4,0:0|0:3,0:3:0:0:
218,59,405043,5,4,0:3:0:0:
222,65,405136,1,4,0:3:0:0:
226,71,405230,1,12,0:3:0:0:
163,383,405605,1,12,0:3:0:0:
491,172,406168,5,12,0:3:0:0:
3,131,406543,1,12,0:3:0:0:
347,355,406918,1,12,0:3:0:0:
101,46,407294,5,6,0:0:0:0:
475,151,407481,1,6,0:3:0:0:
178,190,407669,2,4,B|140:149|95:176|95:176|66:240|160:291,1,197.99999395752,6|0,0:3|0:3,0:3:0:0:
266,379,408231,2,0,B|219:312|228:255|228:255|264:225|255:169,1,197.99999395752,2|4,0:0|0:3,0:0:0:0:
429,297,408794,6,0,B|303:278|303:278|302:314|346:353,1,197.99999395752,8|0,0:0|0:0,0:0:0:0:
472,239,409356,2,0,P|504:289|490:339,1,98.9999969787599,2|0,0:0|0:0,0:0:0:0:
461,225,409731,1,0,0:0:0:0:
300,141,409919,2,0,P|361:155|428:151,1,98.9999969787599,6|4,0:3|0:3,0:0:0:0:
312,54,410294,5,2,0:0:0:0:
146,252,410481,2,0,B|169:210|249:229|263:298|177:408|30:295|146:113,1,395.999987915039,4|0,0:3|0:0,0:0:0:0:
164,108,411419,1,4,0:3:0:0:
396,64,411606,1,4,0:3:0:0:
148,190,411794,5,8,0:0:0:0:
100,177,411887,1,8,0:0:0:0:
71,139,411981,1,8,0:3:0:0:
72,90,412075,1,8,0:3:0:0:
102,52,412169,1,4,0:3:0:0:
113,31,412262,1,4,0:3:0:0:
112,6,412356,5,8,0:0:0:0:
153,33,412450,1,8,0:0:0:0:
200,47,412544,1,8,0:3:0:0:
249,49,412637,1,8,0:0:0:0:
297,37,412731,5,8,0:0:0:0:
345,28,412825,1,8,0:0:0:0:
392,44,412919,1,8,0:3:0:0:
425,80,413012,1,8,0:3:0:0:
436,128,413106,1,4,0:3:0:0:
435,148,413200,1,4,0:3:0:0:
433,167,413294,6,0,P|376:153|305:163,1,98.9999969787599,6|6,0:0|0:3,0:0:0:0:
429,183,413669,2,0,P|323:202|211:162,1,197.99999395752,6|0,0:0|0:0,0:0:0:0:
425,80,414231,2,0,B|455:129|430:181|430:181|387:219|418:294,1,197.99999395752,2|4,0:0|0:3,0:0:0:0:
485,244,414794,6,0,B|444:238|409:265|409:265|362:193|271:217,1,197.99999395752,8|0,0:0|0:0,0:0:0:0:
215,313,415356,2,0,P|284:301|336:306,1,98.9999969787599,2|0,0:0|0:0,0:0:0:0:
199,301,415731,1,0,0:0:0:0:
124,234,415919,2,0,L|121:130,1,98.9999969787599,2|4,0:0|0:3,0:0:0:0:
201,98,416294,1,4,0:3:0:0:
59,309,416481,2,0,P|123:279|483:271,1,395.999987915039,2|0,0:0|0:0,0:0:0:0:
431,132,417419,5,8,0:0:0:0:
428,121,417481,1,8,0:0:0:0:
426,110,417544,1,8,0:0:0:0:
426,99,417606,1,4,0:3:0:0:
426,88,417669,1,4,0:3:0:0:
428,77,417731,1,4,0:3:0:0:
431,67,417794,5,8,0:0:0:0:
168,144,417981,1,8,0:0:0:0:
168,144,419294,5,6,0:0:0:0:
351,105,419481,1,6,0:3:0:0:
124,75,419669,2,0,P|87:132|169:222,1,197.99999395752,6|0,0:3|0:0,0:0:0:0:
350,182,420231,2,0,P|420:121|385:36,1,197.99999395752,2|4,0:0|0:3,0:0:0:0:
193,129,420794,6,0,L|168:346,1,197.99999395752,8|0,0:0|0:0,0:0:0:0:
271,99,421356,2,0,P|242:59|181:49,1,98.9999969787599,2|0,0:0|0:0,0:0:0:0:
274,116,421731,1,0,0:0:0:0:
425,178,421919,2,0,P|401:220|391:298,1,98.9999969787599,6|4,0:3|0:3,0:0:0:0:
393,98,422294,1,2,0:0:0:0:
462,298,422481,6,0,B|380:307|380:307|308:286|308:286|252:300|252:300|184:281|184:281|106:293,1,346.499989425659
124,212,423419,1,4,0:3:0:0:
313,361,423606,1,4,0:3:0:0:
192,135,423794,5,8,0:0:0:0:
205,87,423887,1,8,0:0:0:0:
239,52,423981,1,8,0:0:0:0:
286,38,424075,1,8,0:0:0:0:
334,48,424169,1,8,0:0:0:0:
351,57,424262,1,8,0:0:0:0:
369,68,424356,5,4,0:3:0:0:
325,89,424450,1,8,0:0:0:0:
276,84,424544,1,8,0:0:0:0:
239,52,424637,1,8,0:0:0:0:
225,6,424731,5,8,0:0:0:0:
238,35,424825,1,8,0:0:0:0:
234,68,424919,1,8,0:3:0:0:
213,93,425012,1,8,0:3:0:0:
182,104,425106,1,4,0:3:0:0:
150,97,425200,1,4,0:3:0:0:
128,75,425294,6,0,P|147:58|177:109,1,98.9999969787599,6|6,0:0|0:3,0:0:0:0:
83,162,425669,2,0,B|81:19|81:19|65:51|37:67,1,197.99999395752,6|0,0:3|0:0,0:0:0:0:
18,213,426231,2,0,P|95:199|250:218,1,197.99999395752,2|4,0:0|0:3,0:0:0:0:
0,305,426794,6,0,P|97:320|195:310,1,197.99999395752,8|0,0:0|0:0,0:0:0:0:
148,150,427356,2,0,P|130:202|125:268,1,98.9999969787599,2|0,0:0|0:0,0:0:0:0:
141,133,427731,1,0,0:0:0:0:
273,84,427919,2,0,P|291:136|296:202,1,98.9999969787599,2|4,0:0|0:3,0:0:0:0:
213,32,428294,5,4,0:3:0:0:
342,245,428481,2,0,B|267:255|234:182|234:182|264:187|307:177,1,197.99999395752,2|0,0:0|0:0,0:0:0:0:
412,178,429137,2,0,P|386:248|364:381,1,197.99999395752,2|0,0:0|0:0,0:0:0:0:
486,196,429606,1,4,0:3:0:0:
352,108,429794,6,0,P|301:83|278:13,1,98.9999969787599,4|8,0:3|0:0,0:0:0:0:
290,36,430075,1,8,0:0:0:0:
300,25,430169,1,8,0:0:0:0:
268,62,430262,1,8,0:0:0:0:
221,75,430356,1,8,0:3:0:0:
207,70,430450,1,8,0:3:0:0:
193,64,430544,5,8,0:0:0:0:
156,31,430637,1,8,0:0:0:0:
108,28,430731,1,8,0:3:0:0:
96,37,430825,1,8,0:3:0:0:
90,50,430919,2,4,L|98:108,3,49.4999984893799,4|4|4|4,0:3|0:3|0:3|0:3,0:3:0:0:
124,210,431294,5,4,0:3:0:0:
136,211,431387,1,4,0:3:0:0:
145,219,431481,1,4,0:3:0:0:
147,230,431575,1,4,0:3:0:0:
141,241,431669,1,4,0:3:0:0:
130,246,431762,1,4,0:3:0:0:
118,243,431856,1,4,0:3:0:0:
111,234,431950,1,4,0:3:0:0:
111,219,432044,5,8,0:0:0:0:
160,214,432137,1,4,0:3:0:0:
209,216,432231,5,6,0:3:0:0:
257,207,432325,1,4,0:3:0:0:
288,171,432419,1,4,0:3:0:0:
290,122,432512,1,4,0:3:0:0:
260,84,432606,1,4,0:3:0:0:
213,73,432700,1,4,0:3:0:0:
162,91,432794,5,6,0:3:0:0:
211,91,432887,1,4,0:3:0:0:
260,84,432981,1,4,0:3:0:0:
304,62,433075,1,4,0:3:0:0:
346,36,433169,1,4,0:3:0:0:
394,24,433262,1,4,0:3:0:0:
443,23,433356,5,6,0:3:0:0:
430,70,433450,1,4,0:3:0:0:
418,118,433544,1,8,0:0:0:0:
455,145,433637,1,4,0:3:0:0:
478,187,433731,1,4,0:3:0:0:
475,236,433825,1,4,0:3:0:0:
449,277,433919,5,6,0:3:0:0:
400,282,434012,1,4,0:3:0:0:
357,260,434106,1,4,0:3:0:0:
334,217,434200,1,4,0:3:0:0:
339,168,434294,1,4,0:3:0:0:
371,131,434387,1,4,0:3:0:0:
418,118,434481,5,6,0:3:0:0:
387,156,434575,1,4,0:3:0:0:
340,168,434669,1,4,0:3:0:0:
295,149,434762,1,4,0:3:0:0:
270,107,434856,1,4,0:3:0:0:
276,59,434950,1,4,0:3:0:0:
309,23,435044,5,8,0:0:0:0:
321,24,435137,1,4,0:3:0:0:
333,27,435231,1,4,0:3:0:0:
343,34,435325,1,4,0:3:0:0:
350,41,435419,2,4,L|349:95,1,49.4999984893799,4|4,0:3|0:3,0:3:0:0:
225,174,435606,2,4,L|226:228,1,49.4999984893799,4|4,0:3|0:3,0:3:0:0:
192,323,435794,5,6,0:3:0:0:
183,318,435887,2,4,P|151:302|115:294,1,49.4999984893799,4|4,0:3|0:3,0:3:0:0:
258,363,436075,1,6,0:3:0:0:
267,358,436169,2,4,P|299:342|335:334,1,49.4999984893799,4|4,0:3|0:3,0:3:0:0:
225,223,436356,1,6,0:3:0:0:
229,231,436450,1,4,0:3:0:0:
233,239,436544,5,8,0:0:0:0:
190,215,436637,1,4,0:3:0:0:
179,169,436731,1,4,0:3:0:0:
206,129,436825,1,4,0:3:0:0:
255,121,436919,2,4,P|288:95|330:79,1,49.4999984893799,8|4,0:0|0:3,0:3:0:0:
348,20,437106,1,8,0:0:0:0:
386,42,437200,1,8,0:0:0:0:
422,71,437294,5,4,0:3:0:0:
423,83,437387,1,4,0:3:0:0:
424,95,437481,1,4,0:3:0:0:
425,107,437575,1,4,0:3:0:0:
426,120,437669,1,4,0:3:0:0:
427,132,437762,1,4,0:3:0:0:
429,144,437856,1,4,0:3:0:0:
430,157,437950,1,4,0:3:0:0:
431,169,438044,5,8,0:0:0:0:
461,206,438137,1,4,0:3:0:0:
464,255,438231,1,6,0:3:0:0:
438,296,438325,1,4,0:3:0:0:
393,315,438419,1,4,0:3:0:0:
346,304,438512,1,4,0:3:0:0:
314,268,438606,5,4,0:3:0:0:
281,231,438700,1,4,0:3:0:0:
234,220,438794,1,6,0:3:0:0:
189,239,438887,1,4,0:3:0:0:
163,280,438981,1,4,0:3:0:0:
166,329,439075,1,4,0:3:0:0:
197,367,439169,1,4,0:3:0:0:
245,373,439262,1,4,0:3:0:0:
282,340,439356,5,6,0:3:0:0:
264,293,439450,1,4,0:3:0:0:
274,244,439544,1,8,0:0:0:0:
314,216,439637,1,4,0:3:0:0:
363,217,439731,1,4,0:3:0:0:
401,247,439825,1,4,0:3:0:0:
425,290,439919,5,6,0:3:0:0:
427,240,440012,1,4,0:3:0:0:
423,190,440106,1,4,0:3:0:0:
405,143,440200,1,4,0:3:0:0:
376,102,440294,6,4,P|363:80|347:61,7,49.4999984893799,4|4|6|4|4|4|4|4,0:3|0:3|0:3|0:3|0:3|0:3|0:3|0:3,0:3:0:0:
454,169,441044,1,8,0:0:0:0:
439,216,441137,1,4,0:3:0:0:
435,265,441231,1,4,0:3:0:0:
440,314,441325,1,4,0:3:0:0:
454,362,441419,2,4,P|402:363|364:354,1,49.4999984893799,4|4,0:3|0:3,0:3:0:0:
329,315,441606,2,4,P|276:314|238:323,1,49.4999984893799,4|4,0:3|0:3,0:3:0:0:
194,343,441794,5,4,0:3:0:0:
185,343,441856,1,4,0:3:0:0:
177,342,441919,1,4,0:3:0:0:
169,341,441981,1,4,0:3:0:0:
161,339,442044,1,4,0:3:0:0:
153,335,442106,1,4,0:3:0:0:
146,331,442169,1,4,0:3:0:0:
140,326,442231,1,4,0:3:0:0:
134,320,442294,1,4,0:3:0:0:
128,314,442356,1,4,0:3:0:0:
124,307,442419,1,4,0:3:0:0:
120,300,442481,1,4,0:3:0:0:
117,292,442544,1,4,0:3:0:0:
116,284,442606,1,4,0:3:0:0:
115,276,442669,1,4,0:3:0:0:
116,269,442731,2,4,P|125:234|126:206,8,32.9999989929199,4|4|4|4|4|4|4|4|4,0:3|0:3|0:3|0:3|0:3|0:3|0:3|0:3|0:3,0:3:0:0:
197,179,443294,5,4,0:3:0:0:
208,183,443387,1,4,0:3:0:0:
220,182,443481,1,4,0:3:0:0:
230,175,443575,1,4,0:3:0:0:
235,164,443669,1,4,0:3:0:0:
234,152,443762,1,4,0:3:0:0:
227,142,443856,1,4,0:3:0:0:
216,137,443950,1,4,0:3:0:0:
206,136,444044,5,8,0:0:0:0:
250,156,444137,1,4,0:3:0:0:
299,148,444231,1,6,0:3:0:0:
330,185,444325,1,4,0:3:0:0:
332,234,444419,1,4,0:3:0:0:
303,273,444512,1,4,0:3:0:0:
256,286,444606,1,4,0:3:0:0:
211,268,444700,1,4,0:3:0:0:
187,226,444794,5,6,0:3:0:0:
152,192,444887,1,4,0:3:0:0:
103,187,444981,1,4,0:3:0:0:
63,214,445075,1,4,0:3:0:0:
48,260,445169,1,4,0:3:0:0:
65,305,445262,1,4,0:3:0:0:
107,330,445356,5,6,0:3:0:0:
156,327,445450,1,4,0:3:0:0:
206,325,445544,1,8,0:0:0:0:
255,323,445637,1,4,0:3:0:0:
305,320,445731,1,4,0:3:0:0:
354,318,445825,1,4,0:3:0:0:
403,316,445919,5,6,0:3:0:0:
445,290,446012,1,4,0:3:0:0:
458,244,446106,1,4,0:3:0:0:
436,201,446200,1,4,0:3:0:0:
391,184,446294,1,4,0:3:0:0:
346,202,446387,1,4,0:3:0:0:
323,246,446481,5,6,0:3:0:0:
367,226,446575,1,4,0:3:0:0:
391,184,446669,1,4,0:3:0:0:
387,135,446762,1,4,0:3:0:0:
358,96,446856,1,4,0:3:0:0:
312,80,446950,1,4,0:3:0:0:
264,92,447044,5,8,0:0:0:0:
233,129,447137,1,4,0:3:0:0:
186,139,447231,1,4,0:3:0:0:
144,115,447325,1,4,0:3:0:0:
127,69,447419,6,4,P|128:44|110:6,1,49.4999984893799,8|4,0:0|0:3,0:3:0:0:
34,102,447606,1,8,0:0:0:0:
13,157,447700,1,8,0:0:0:0:
24,215,447794,5,6,0:3:0:0:
35,205,447887,2,4,P|64:185|99:181,1,49.4999984893799,4|4,0:3|0:3,0:3:0:0:
92,292,448075,1,6,0:3:0:0:
103,302,448169,2,4,P|132:322|167:326,1,49.4999984893799,4|4,0:3|0:3,0:3:0:0:
214,219,448356,1,6,0:3:0:0:
225,209,448450,1,4,0:3:0:0:
240,203,448544,5,8,0:0:0:0:
287,195,448637,1,4,0:3:0:0:
330,218,448731,1,4,0:3:0:0:
348,263,448825,1,4,0:3:0:0:
341,312,448919,6,4,P|285:301|258:281,1,49.4999984893799,8|4,0:0|0:3,0:3:0:0:
240,203,449106,1,8,0:0:0:0:
245,143,449200,1,8,0:0:0:0:
230,85,449294,5,4,0:3:0:0:
218,88,449387,1,4,0:3:0:0:
207,94,449481,1,4,0:3:0:0:
197,102,449575,1,4,0:3:0:0:
190,111,449669,1,4,0:3:0:0:
185,123,449762,1,4,0:3:0:0:
182,135,449856,1,4,0:3:0:0:
182,147,449950,1,4,0:3:0:0:
186,161,450044,5,8,0:0:0:0:
185,112,450137,1,4,0:3:0:0:
230,85,450231,5,6,0:3:0:0:
196,49,450325,1,4,0:3:0:0:
148,39,450419,1,4,0:3:0:0:
103,57,450512,1,4,0:3:0:0:
76,97,450606,1,4,0:3:0:0:
77,146,450700,1,4,0:3:0:0:
104,186,450794,5,6,0:3:0:0:
152,197,450887,1,4,0:3:0:0:
184,234,450981,1,4,0:3:0:0:
188,283,451075,1,4,0:3:0:0:
162,324,451169,1,4,0:3:0:0:
117,343,451262,1,4,0:3:0:0:
70,326,451356,5,6,0:3:0:0:
118,317,451450,1,4,0:3:0:0:
158,288,451544,1,8,0:0:0:0:
193,253,451637,1,4,0:3:0:0:
237,230,451731,1,4,0:3:0:0:
285,222,451825,1,4,0:3:0:0:
334,232,451919,5,6,0:3:0:0:
353,278,452012,1,4,0:3:0:0:
347,326,452106,1,4,0:3:0:0:
318,365,452200,1,4,0:3:0:0:
273,384,452294,1,4,0:3:0:0:
225,379,452387,1,4,0:3:0:0:
190,343,452481,5,6,0:3:0:0:
190,293,452575,1,4,0:3:0:0:
191,244,452669,1,4,0:3:0:0:
192,194,452762,1,4,0:3:0:0:
192,145,452856,1,4,0:3:0:0:
193,95,452950,1,4,0:3:0:0:
226,57,453044,6,4,P|241:41|306:30,7,49.4999984893799,8|4|4|4|4|4|4|4,0:0|0:3|0:3|0:3|0:3|0:3|0:3|0:3,0:3:0:0:
285,103,453794,5,6,0:3:0:0:
281,122,453856,1,4,0:3:0:0:
277,142,453919,1,4,0:3:0:0:
273,161,453981,1,4,0:3:0:0:
269,181,454044,1,4,0:3:0:0:
266,200,454106,1,4,0:3:0:0:
287,228,454169,5,6,0:3:0:0:
293,253,454231,1,4,0:3:0:0:
292,279,454294,1,4,0:3:0:0:
282,304,454356,1,4,0:3:0:0:
266,324,454419,1,4,0:3:0:0:
243,337,454481,1,4,0:3:0:0:
217,343,454544,1,8,0:0:0:0:
191,341,454606,1,4,0:3:0:0:
167,330,454669,1,4,0:3:0:0:
156,296,454731,5,2,0:3:0:0:
164,271,454794,1,4,0:3:0:0:
163,244,454856,1,4,0:3:0:0:
153,220,454919,1,4,0:3:0:0:
134,202,454981,1,4,0:3:0:0:
110,191,455044,1,4,0:3:0:0:
84,189,455106,1,4,0:3:0:0:
59,198,455169,1,4,0:3:0:0:
39,214,455231,1,4,0:3:0:0:
27,236,455294,6,0,P|63:241|97:228,1,74.2499977340699,2|0,0:0|0:0,0:0:0:0:
213,270,456055,2,0,P|252:257|291:266,1,74.2499977340699,2|0,0:0|0:0,0:0:0:0:
373,377,456810,2,0,L|374:289,1,74.2499977340699,2|0,0:0|0:0,0:0:0:0:
326,104,457569,2,0,L|327:182,1,74.2499977340699,2|0,0:0|0:0,0:0:0:0:
345,191,458128,1,2,0:0:0:0:
238,79,458314,6,0,P|207:65|157:66,1,74.2499977340699,2|0,0:0|0:0,0:0:0:0:
141,186,459068,2,0,P|172:200|222:199,1,74.2499977340699,2|0,0:0|0:0,0:0:0:0:
60,78,459812,2,0,L|64:162,1,74.2499977340699,2|0,0:0|0:0,0:0:0:0:
309,190,460548,2,0,L|313:140,1,37.1249988670349,2|0,0:0|0:0,0:0:0:0:
325,204,460923,1,2,0:0:0:0:
302,282,461116,1,2,0:0:0:0:
400,249,461310,6,0,P|458:245|482:257,1,74.2499977340699,2|0,0:0|0:0,0:0:0:0:
442,101,462055,2,0,P|416:153|398:166,1,74.2499977340699,2|0,0:0|0:0,0:0:0:0:
277,160,462805,2,0,L|196:155,1,74.2499977340699,2|0,0:0|0:0,0:0:0:0:
227,286,463565,2,0,L|308:281,1,74.2499977340699,2|2,0:0|0:0,0:0:0:0:
216,267,464124,1,2,0:0:0:0:
112,300,464313,6,0,P|105:262|125:219,1,74.2499977340699,2|0,0:0|0:0,0:0:0:0:
200,114,465056,2,0,L|194:197,1,74.2499977340699,2|0,0:0|0:0,0:0:0:0:
264,315,465800,2,0,P|274:277|258:233,1,74.2499977340699,2|0,0:0|0:0,0:0:0:0:
317,100,466552,2,0,L|322:182,1,74.2499977340699,2|0,0:0|0:0,0:0:0:0:
307,308,467311,6,0,B|271:322|271:322|229:315,1,74.2499977340699,2|0,0:0|0:0,0:0:0:0:
123,228,468056,2,0,B|158:222|158:222|194:236,1,74.2499977340699,2|0,0:0|0:0,0:0:0:0:
53,283,468814,2,0,L|40:195,1,74.2499977340699,2|0,0:0|0:0,0:0:0:0:
204,162,469558,2,0,L|193:235,1,74.2499977340699,2|0,0:0|0:0,0:0:0:0:
200,252,470125,1,2,0:0:0:0:
272,112,470315,6,0,P|318:106|350:124,1,74.2499977340699,2|0,0:0|0:0,0:0:0:0:
391,187,471064,2,0,L|401:260,1,74.2499977340699,2|0,0:0|0:0,0:0:0:0:
334,329,471811,2,0,B|285:323|285:323|283:325|283:325|251:331,1,74.2499977340699,2|0,0:0|0:0,0:0:0:0:
145,252,472552,2,0,P|163:253|182:257,1,37.1249988670349,2|0,0:0|0:0,0:0:0:0:
153,328,472913,1,2,0:0:0:0:
79,296,473112,1,2,0:0:0:0:
137,180,473311,6,0,P|174:181|210:188,1,74.2499977340699,2|0,0:0|0:0,0:0:0:0:
301,222,474064,2,0,P|338:220|374:213,1,74.2499977340699,2|0,0:0|0:0,0:0:0:0:
311,65,474808,2,0,P|295:90|282:146,1,74.2499977340699,2|0,0:0|0:0,0:0:0:0:
453,81,475566,2,0,P|443:45|424:13,1,74.2499977340699,2|2,0:0|0:0,0:0:0:0:
444,93,476122,1,2,0:0:0:0:
508,176,476310,6,0,P|488:207|479:243,1,74.2499977340699,2|0,0:0|0:0,0:0:0:0:
409,310,477058,2,0,P|362:316|334:309,1,74.2499977340699,2|0,0:0|0:0,0:0:0:0:
261,249,477812,2,0,P|258:219|254:202,2,37.1249988670349,2|0|2,0:0|0:0|0:0,0:0:0:0:
205,145,478369,1,0,0:0:0:0:
221,319,478550,1,2,0:0:0:0:
221,319,478744,2,0,P|196:319|173:309,2,37.1249988670349,2|0|2,0:0|0:0|0:0,0:0:0:0:
148,140,479311,6,0,P|144:104|119:56,1,74.2499977340699,2|0,0:0|0:0,0:0:0:0:
142,231,480076,2,0,P|114:208|62:192,1,74.2499977340699,2|0,0:0|0:0,0:0:0:0:
203,300,480842,2,0,P|168:304|120:329,1,74.2499977340699,2|0,0:0|0:0,0:0:0:0:
378,319,481582,2,0,P|344:304|308:300,1,74.2499977340699,2|0,0:0|0:0,0:0:0:0:
459,237,482312,6,0,L|456:156,1,74.2499977340699,2|0,0:0|0:0,0:0:0:0:
324,115,483071,2,0,L|326:189,1,74.2499977340699,2|0,0:0|0:0,0:0:0:0:
188,115,483820,2,0,P|142:116|101:111,1,74.2499977340699,2|0,0:0|0:0,0:0:0:0:
324,115,484570,2,0,P|370:116|411:111,1,74.2499977340699,2|0,0:0|0:0,0:0:0:0:
340,226,485315,6,0,P|305:214|269:206,1,74.2499977340699,2|0,0:0|0:0,0:0:0:0:
163,261,486080,2,0,L|79:258,1,74.2499977340699,2|0,0:0|0:0,0:0:0:0:
226,131,486845,2,0,L|310:128,1,74.2499977340699,2|0,0:0|0:0,0:0:0:0:
156,167,487582,2,0,P|146:121|160:87,1,74.2499977340699,2|0,0:0|0:0,0:0:0:0:
303,54,488315,6,0,L|299:142,1,74.2499977340699,2|0,0:0|0:0,0:0:0:0:
415,105,489062,2,0,L|419:193,1,74.2499977340699,2|0,0:0|0:0,0:0:0:0:
353,278,489809,2,0,P|301:289|271:283,1,74.2499977340699,2|0,0:0|0:0,0:0:0:0:
153,245,490558,2,0,P|205:234|235:240,1,74.2499977340699,2|0,0:0|0:0,0:0:0:0:
83,292,491315,6,0,B|69:258|69:258|76:217,1,74.2499977340699,2|0,0:0|0:0,0:0:0:0:
294,191,492068,2,0,B|308:225|308:225|301:266,1,74.2499977340699,2|0,0:0|0:0,0:0:0:0:
138,179,492818,2,0,L|125:101,1,74.2499977340699,2|0,0:0|0:0,0:0:0:0:
230,297,493566,2,0,L|243:375,1,74.2499977340699,2|0,0:0|0:0,0:0:0:0:
253,371,494128,1,2,0:0:0:0:
145,320,494318,6,0,B|111:306|111:306|61:311,1,74.2499977340699,2|0,0:0|0:0,0:0:0:0:
213,218,495070,2,0,B|247:204|247:204|297:209,1,74.2499977340699,2|0,0:0|0:0,0:0:0:0:
428,306,495817,2,0,P|390:303|360:270,1,74.2499977340699,2|0,0:0|0:0,0:0:0:0:
405,183,496555,2,0,P|413:155|411:135,2,37.1249988670349,2|0|2,0:0|0:0|0:0,0:0:0:0:
391,192,497117,1,0,0:0:0:0:
466,85,497312,6,0,P|408:69|382:76,1,74.2499977340699,2|0,0:0|0:0,0:0:0:0:
248,140,498060,2,0,P|284:141|318:126,1,74.2499977340699,2|0,0:0|0:0,0:0:0:0:
176,105,498820,2,0,P|168:145|186:185,1,74.2499977340699,2|0,0:0|0:0,0:0:0:0:
110,304,499564,2,0,P|121:269|112:233,1,74.2499977340699,2|2,0:0|0:0,0:0:0:0:
118,315,500127,1,2,0:0:0:0:
235,315,500318,6,0,P|283:301|314:309,1,74.2499977340699,2|0,0:0|0:0,0:0:0:0:
462,277,501060,2,0,P|414:291|383:283,1,74.2499977340699,2|0,0:0|0:0,0:0:0:0:
409,177,501818,2,0,L|418:228,2,37.1249988670349,2|0|2,0:0|0:0|0:0,0:0:0:0:
400,165,502377,1,0,0:0:0:0:
478,71,502563,2,0,L|487:20,2,37.1249988670349,2|0|2,0:0|0:0|0:0,0:0:0:0:
469,83,503136,1,0,0:0:0:0:
361,63,503326,6,0,P|341:51|286:59,1,74.2499977340699,2|0,0:0|0:0,0:0:0:0:
155,104,504075,2,0,P|175:116|230:108,1,74.2499977340699,2|0,0:0|0:0,0:0:0:0:
101,47,504846,2,0,P|80:79|80:118,1,74.2499977340699,2|0,0:0|0:0,0:0:0:0:
114,263,505583,2,0,P|135:231|135:192,1,74.2499977340699,2|0,0:0|0:0,0:0:0:0:
68,358,506316,6,0,P|107:345|148:340,1,74.2499977340699,2|0,0:0|0:0,0:0:0:0:
222,265,507076,2,0,P|258:283|291:308,1,74.2499977340699,2|0,0:0|0:0,0:0:0:0:
396,362,507822,2,0,B|390:323|390:323|402:278,1,74.2499977340699,2|0,0:0|0:0,0:0:0:0:
485,163,508581,2,0,B|491:202|491:202|479:247,1,74.2499977340699,2|0,0:0|0:0,0:0:0:0:
512,0,509322,5,2,0:0:0:0:
512,0,510803,1,2,0:0:0:0:
511,2,512312,1,2,0:0:0:0:
511,2,513807,2,0,L|497:-8,1,10.3125,2|0,0:0|0:0,0:0:0:0:
